osu file format v8

[General]
AudioFilename: sm9835033.mp3
AudioLeadIn: 1004
PreviewTime: 84937
Countdown: 0
SampleSet: Normal
StackLeniency: 0.7
Mode: 0
LetterboxInBreaks: 1

[Editor]
Bookmarks: 84937
DistanceSpacing: 0.800000011920929
BeatDivisor: 2
GridSize: 8

[Metadata]
Title:Doudemoii
Artist:Hatsune Miku
Creator:- S
Version:Easy
Source:VOCALOID
Tags:Sumeragi Amane

[Difficulty]
HPDrainRate:1
CircleSize:3
OverallDifficulty:1
ApproachRate:1
SliderMultiplier:0.8
SliderTickRate:0.5

[Events]
//Background and Video events
0,0,"0980.jpg"
//Break Periods
2,55137,58507
//Storyboard Layer 0 (Background)
//Storyboard Layer 1 (Fail)
//Storyboard Layer 2 (Pass)
//Storyboard Layer 3 (Foreground)
//Storyboard Sound Samples
//Background Colour Transformations
3,100,163,162,255

[TimingPoints]
937,375,4,1,1,89,1,0
30749,-100,4,2,0,100,0,0
31312,-100,4,1,1,100,0,0
42749,-100,4,2,1,37,0,0
59062,-100,4,1,1,100,0,0
90749,-100,4,2,0,100,0,0
91124,-100,4,1,1,100,0,0
96749,-100,4,1,1,0,0,0

[Colours]
Combo1 : 251,205,181
Combo2 : 2,213,230
Combo3 : 232,33,248

[HitObjects]
72,72,6937,2,0,B|72:128|112:168,1,80,0|2
144,104,7687,2,0,B|144:160|184:200,1,80,0|2
216,136,8437,2,0,B|216:192|256:232,1,80,0|2
288,168,9187,2,0,B|288:224|328:264,1,80,0|2
344,296,9937,6,0,B|384:264|384:200,1,80,0|2
320,232,10687,2,0,B|360:200|360:136,1,80,0|2
296,160,11437,2,0,B|336:128|336:64,1,80,0|2
272,88,12187,2,0,B|312:56|312:-8,1,80,0|2
368,48,12937,6,0,B|464:48,1,80,0|2
448,112,13687,2,0,B|352:112,1,80,0|2
368,176,14437,2,0,B|464:176,1,80,0|2
448,240,15187,2,0,B|344:240,1,80,0|2
304,240,15937,6,0,B|304:128,1,80,0|2
240,160,16687,2,0,B|240:248,1,80,0|2
176,240,17437,2,0,B|176:128,1,80,0|2
112,160,18187,2,0,B|112:256,1,80,0|2
112,304,18937,5,8
240,304,19687,2,0,B|240:208,2,80,8|0|0
336,224,21187,1,0
304,160,21562,1,0
264,112,21937,5,8
144,80,22687,1,8
48,168,23437,1,8
96,272,24187,6,0,B|144:272|184:216,2,80,8|0|0
144,320,25312,2,0,B|192:320|232:264,1,80,0|8
192,176,26437,2,0,B|240:176|280:120,2,80,0|0|8
72,168,27937,6,0,B|72:64,1,80,0|8
120,48,28687,2,0,B|232:48,1,80,0|8
264,48,29437,2,0,B|264:144,2,80,0|8|0
376,88,30937,6,0,B|416:160|416:256|320:320|232:320,1,320,4|0
184,320,32812,2,0,B|184:224,2,80,0|0|0
120,320,33937,5,8
224,240,34687,1,8
104,200,35437,2,0,B|64:104,1,80
96,64,36187,2,0,B|192:40,1,80,0|0
224,80,36937,5,8
344,136,37687,1,8
240,208,38437,1,8
224,80,39187,1,8
200,200,39937,6,0,B|296:200,3,80
336,168,41437,1,8
288,56,42187,1,8
160,56,42937,5,4
160,152,43499,1,0
160,248,44062,1,0
224,248,44437,2,0,B|224:352,1,80,0|8
288,328,45187,2,0,B|288:240,1,80,0|8
344,224,45937,6,0,B|424:200,1,80,0|8
344,224,46687,2,0,B|424:264,1,80,0|8
344,224,47437,2,0,B|400:312,1,80,0|8
344,224,48187,2,0,B|328:320,1,80,0|8
344,224,48937,5,4
280,152,49499,1,0
176,104,50062,2,0,B|88:160,1,80,8|0
176,144,50812,2,0,B|88:88,2,80,8|0|8
240,120,51937,1,0
304,96,52312,1,8
368,80,52687,2,0,B|368:176,1,80,0|8
256,192,53437,12,0,54937
120,80,60187,5,0
120,80,60562,1,0
120,80,60937,2,0,B|232:80,1,80,0|8
264,80,61687,2,0,B|360:80,1,80,0|8
408,80,62437,2,0,B|408:192,1,80,0|8
408,224,63187,2,0,B|480:224,3,40,0|0|8|0
376,280,63937,6,0,B|288:280,1,80,0|8
240,232,64687,2,0,B|152:232,1,80,0|8
128,168,65437,2,0,B|64:168,2,40,0|0|8
192,144,66187,2,0,B|136:48,1,80,0|8
104,32,66937,6,0,B|208:32,1,80,0|8
248,40,67687,2,0,B|352:40,1,80,0|8
392,48,68437,2,0,B|392:144,1,80,0|8
392,192,69187,2,0,B|392:304,1,80,0|8
328,288,69937,6,0,B|272:288,2,40,0|0|8
296,232,70687,2,0,B|248:232,2,40,0|0|8
328,176,71437,2,0,B|256:168,2,40,0|0|8
328,112,72187,1,0
264,112,72562,1,8
200,112,72937,6,0,B|200:208,1,80,0|8
144,168,73687,2,0,B|144:72,1,80,0|8
80,72,74437,2,0,B|80:176,1,80,0|8
88,216,75187,2,0,B|200:216,1,80,0|8
232,216,75937,5,0
360,216,76687,1,0
424,152,77437,2,0,B|320:152,3,80,0|8|0|8
344,152,78937,5,0
256,248,79687,1,0
152,152,80437,2,0,B|48:152,1,80,0|8
72,152,81187,1,0
128,248,81937,6,0,B|88:304,2,40,0|0|8
176,288,82687,1,0
176,288,83437,2,0,B|288:288,1,80,0|8
320,280,84187,2,0,B|320:184,1,80,0|8
376,168,84937,5,0
336,80,85499,1,0
240,80,86062,1,0
176,80,86437,5,0
112,80,86812,2,0,B|112:32,2,40
56,104,87562,1,8
56,160,87937,1,0
112,192,88312,2,0,B|112:248,2,40
168,160,89062,1,8
232,152,89437,5,0
296,144,89812,2,0,B|296:96,2,40
360,144,90562,1,8
416,192,90937,5,4
376,280,91499,1,0
280,296,92062,1,0
216,296,92437,1,0
216,296,92812,2,0,B|216:240,2,40
152,296,93562,1,8
96,256,93937,5,0
96,192,94312,2,0,B|40:192,2,40,0|0|8
96,128,95062,2,0,B|152:128,2,40,0|0|4
256,192,95624,12,0,96937
