osu file format v5

[General]
AudioFilename: Hatsune Miku - Doki Doki Heart Tune.mp3
AudioLeadIn: 496
PreviewTime: 2008
Countdown: 0
SampleSet: Soft
StackLeniency: 0.7
Mode: 0
LetterboxInBreaks: 0
EditorBookmarks: 404,2094,15615,29136,35896,56178,83257,96778,112834
EditorDistanceSpacing: 1

[Metadata]
Title:Doki Doki Heart Tune
Artist:Hatsune Miku
Creator:Dangaard
Version:Normal
Source:
Tags:

[Difficulty]
HPDrainRate:2
CircleSize:4
OverallDifficulty:3
SliderMultiplier:1
SliderTickRate:2

[Events]
//Background and Video events
0,0,"Miku.jpg"
//Break Periods
2,29336,34456
2,67787,75020
//Storyboard Layer 0 (Background)
//Storyboard Layer 1 (Failing)
//Storyboard Layer 2 (Passing)
//Storyboard Layer 3 (Foreground)
//Storyboard Sound Samples
5,3361,0,"soft-hitwhistle.wav"
5,5051,0,"soft-hitwhistle.wav"
5,10122,0,"soft-hitwhistle.wav"
5,11812,0,"soft-hitwhistle.wav"
5,16037,0,"soft-hitwhistle.wav"
5,59981,0,"soft-hitclap.wav"
5,60826,0,"soft-hitclap.wav"
5,61671,0,"soft-hitclap.wav"
5,103961,0,"soft-hitwhistle.wav"
5,104806,0,"soft-hitwhistle.wav"
5,105651,0,"soft-hitwhistle.wav"
5,106496,0,"soft-hitwhistle.wav"
//Background Colour Transformations
3,100,0,0,0

[TimingPoints]
404,422.535211267606,4,2,1,100,1,0
76460,-100,4,2,1,100,0,1
78995,-100,4,2,1,0,0,0
79840,-100,4,2,1,100,0,1
81319,-100,4,2,1,0,0,0
81425,-100,4,2,1,100,0,0
83257,422.535211267606,4,2,1,100,1,1
110193,-100,4,2,1,100,0,0
110299,-100,4,2,1,100,0,1
112728,-100,4,2,1,100,0,0
112834,-100,4,2,1,0,0,1

[Colours]
Combo1 : 1,160,194
Combo2 : 1,182,123
Combo3 : 227,2,103
Combo4 : 254,191,1

[HitObjects]
112,192,2094,1,0
112,192,2516,1,2
208,192,2939,1,0
400,192,3784,1,0
400,192,4206,1,2
304,192,4629,1,0
160,328,5474,5,0
160,328,5896,1,2
256,328,6319,2,0,C|360:328,1,100,0|2
304,240,7164,5,0
304,240,7587,1,2
208,240,8009,2,0,B|88:240,1,100,0|2
160,152,8854,5,0
256,152,9277,1,2
352,152,9699,1,0
448,328,10544,1,0
352,328,10967,1,2
256,328,11389,1,0
304,72,12234,5,0
304,168,12657,1,2
400,168,13080,1,0
400,264,13502,1,2
304,264,13925,6,0,B|200:264,3,100,0|2|0|2
104,264,15615,6,0,B|32:152|128:48,1,200,4|0
200,80,16882,1,2
200,176,17305,1,0
296,176,17727,1,2
392,176,18150,2,0,B|392:296,2,100,0|2|0
392,80,19418,6,0,B|256:80,1,100,2|0
296,176,20263,2,0,B|176:176,2,100,2|0|2
392,176,21530,1,0
392,176,21953,1,2
440,264,22375,6,0,B|304:264,1,100,0|2
240,264,23220,1,0
240,264,23643,1,2
288,176,24065,6,0,B|152:176,1,100,0|2
88,176,24911,1,0
88,176,25333,1,2
88,80,25756,6,0,B|200:80,1,100,0|2
288,80,26601,2,0,B|288:200,1,100,0|2
288,280,27446,2,0,B|400:280,3,100,0|2|0|2
488,280,29136,5,4
160,192,35896,5,0
352,192,36319,1,2
256,192,36742,1,0
256,192,36953,1,0
256,192,37164,1,2
184,120,37587,5,0
328,264,38009,1,2
256,96,38432,5,0
256,288,38854,1,2
406,192,39277,6,0,B|248:192,1,150
256,192,40333,1,0
256,192,40756,1,0
64,192,41389,5,2
160,192,41812,1,0
256,192,42234,1,2
256,192,42657,1,0
312,64,43080,6,0,B|440:136,1,100,2|0
399,113,43713,1,2
312,160,44136,1,0
312,160,44347,2,0,B|440:232,1,100,0|2
400,256,44981,2,0,B|528:328,1,100,0|2
400,256,45826,6,0,B|304:312|208:256,3,200,0|2|2|2
304,144,48995,1,0
208,144,49418,6,0,B|208:96|240:48|312:48,1,150,2|0
304,144,50474,2,0,B|304:248,1,100,0|2
304,344,51319,1,0
304,344,51530,2,0,B|368:344|400:280,1,100,2|0
304,244,52375,2,0,B|240:244|208:308,1,100,2|0
256,152,53220,5,2
256,152,53432,1,0
256,56,53854,1,0
256,56,54065,1,2
256,56,54277,1,0
80,192,56178,6,0,B|80:88,1,100,4|8
168,136,57023,2,0,B|168:24,1,100,0|8
256,192,57868,2,0,B|256:304,1,100,0|8
344,248,58713,2,0,B|344:368,1,100,0|8
432,192,59558,6,0,B|504:96|424:0,3,200
336,8,62516,2,0,B|224:8,1,100,8|4
304,80,63361,5,8
232,144,63784,1,0
304,208,64206,1,8
232,272,64629,5,0
336,184,65051,1,8
200,120,65474,1,0
336,56,65896,1,8
472,120,66319,5,0
336,184,66742,1,8
336,184,66953,1,0
200,248,67375,1,2
200,248,67587,1,8
256,192,76460,12,0,78995
256,192,79840,12,0,81319
256,192,81953,5,2
256,192,82164,1,0
256,192,82375,1,0
256,96,82798,1,2
376,48,83257,6,0,B|376:152,1,100,4|8
464,104,84112,2,0,B|464:224,1,100,0|8
376,256,84957,2,0,B|248:328,1,100,0|8
288,200,85802,2,0,B|160:272,1,100,0|8
112,296,86647,6,0,B|112:168,1,100,0|8
112,196,87281,1,0
400,88,88337,6,0,B|400:192,1,100,0|8
352,192,88971,2,0,B|352:304,1,100
352,292,89605,1,8
256,288,90027,5,0
256,96,90450,1,8
192,256,90872,5,0
320,128,91295,1,8
160,192,91717,5,0
352,192,92140,1,8
192,128,92562,5,0
320,256,92985,1,8
256,96,93407,5,0
256,288,93830,1,8
256,192,94252,5,0
256,192,94675,1,8
160,192,95097,1,0
160,192,95520,1,8
352,192,95943,1,0
352,192,96365,1,8
384,56,96788,6,0,B|256:56,1,100,4|8
184,56,97633,1,0
184,56,97844,1,0
184,56,98055,1,8
128,184,98478,6,0,B|256:184,1,100,0|8
328,184,99323,1,0
328,184,99534,1,0
328,184,99745,1,8
416,136,100168,6,0,B|456:192|400:248,3,100,0|8|0|8
328,184,101858,2,0,B|288:240|344:296,3,100,0|8|0|8
400,344,103548,6,0,B|184:344,1,200,0|0
472,264,105238,2,0,B|264:264,1,200,0|0
80,56,106928,6,0,B|80:168,1,100,0|2
168,112,107774,2,0,B|168:240,1,100,0|2
264,312,108619,2,0,B|264:208,1,100,0|2
352,256,109464,2,0,B|352:128,1,100,0|2
256,192,110309,12,0,112844
