osu file format v13

[General]
AudioFilename: Miku Disturbia short.mp3
AudioLeadIn: 0
PreviewTime: -1
Countdown: 0
SampleSet: None
StackLeniency: 0.7
Mode: 3
LetterboxInBreaks: 0
SpecialStyle: 0
WidescreenStoryboard: 1

[Editor]
DistanceSpacing: 0.8
BeatDivisor: 16
GridSize: 8
TimelineZoom: 1

[Metadata]
Title:Disturbia
TitleUnicode:Disturbia
Artist:Hatsune Miku
ArtistUnicode:Hatsune Miku
Creator:notif
Version:Insane
Source:VOCALOID
Tags:Vocaloid Hatsune Miku
BeatmapID:576263
BeatmapSetID:250801

[Difficulty]
HPDrainRate:7
CircleSize:4
OverallDifficulty:5
ApproachRate:5
SliderMultiplier:1.4
SliderTickRate:1

[Events]
//Background and Video events
0,0,"1.png",0,0
//Break Periods
//Storyboard Layer 0 (Background)
//Storyboard Layer 1 (Fail)
//Storyboard Layer 2 (Pass)
//Storyboard Layer 3 (Foreground)
//Storyboard Sound Samples

[TimingPoints]
1145.69595713627,375,4,1,0,100,1,0
67269,-100,4,1,0,100,0,1
82599,-100,4,1,0,100,0,0
97684,-1000,4,1,0,100,0,0
99094,-100,4,1,0,100,0,0

[HitObjects]
320,192,5786,5,0,0:0:0:0:
64,192,5786,128,0,13473:0:0:0:0:
192,192,6020,1,0,0:0:0:0:
448,192,6020,1,0,0:0:0:0:
192,192,6255,1,0,0:0:0:0:
320,192,6372,1,0,0:0:0:0:
192,192,6512,1,0,0:0:0:0:
448,192,6512,1,0,0:0:0:0:
320,192,6630,1,0,0:0:0:0:
320,192,6747,1,0,0:0:0:0:
448,192,6864,1,0,0:0:0:0:
192,192,6981,1,0,0:0:0:0:
448,192,6981,1,0,0:0:0:0:
320,192,7098,1,0,0:0:0:0:
192,192,7216,1,0,0:0:0:0:
320,192,7333,1,0,0:0:0:0:
448,192,7450,1,0,0:0:0:0:
192,192,7450,1,0,0:0:0:0:
448,192,7591,1,0,0:0:0:0:
320,192,7684,1,0,0:0:0:0:
320,192,7801,1,0,0:0:0:0:
192,192,7942,1,0,0:0:0:0:
448,192,7942,1,0,0:0:0:0:
448,192,8059,1,0,0:0:0:0:
192,192,8200,1,0,0:0:0:0:
320,192,8317,1,0,0:0:0:0:
192,192,8434,1,0,0:0:0:0:
448,192,8434,1,0,0:0:0:0:
192,192,8575,1,0,0:0:0:0:
320,192,8692,1,0,0:0:0:0:
320,192,8809,1,0,0:0:0:0:
192,192,8926,1,0,0:0:0:0:
448,192,8926,1,0,0:0:0:0:
448,192,9067,1,0,0:0:0:0:
192,192,9161,1,0,0:0:0:0:
320,192,9278,1,0,0:0:0:0:
448,192,9395,1,0,0:0:0:0:
192,192,9395,1,0,0:0:0:0:
320,192,9512,1,0,0:0:0:0:
320,192,9630,1,0,0:0:0:0:
192,192,9747,1,0,0:0:0:0:
192,192,9864,1,0,0:0:0:0:
448,192,9864,1,0,0:0:0:0:
320,192,9981,1,0,0:0:0:0:
192,192,10098,1,0,0:0:0:0:
448,192,10216,1,0,0:0:0:0:
448,192,10356,1,0,0:0:0:0:
192,192,10356,1,0,0:0:0:0:
320,192,10473,1,0,0:0:0:0:
320,192,10591,1,0,0:0:0:0:
192,192,10708,1,0,0:0:0:0:
192,192,10848,1,0,0:0:0:0:
448,192,10848,1,0,0:0:0:0:
320,192,10966,1,0,0:0:0:0:
192,192,11083,1,0,0:0:0:0:
448,192,11176,1,0,0:0:0:0:
448,192,11317,1,0,0:0:0:0:
192,192,11317,1,0,0:0:0:0:
192,192,11458,1,0,0:0:0:0:
320,192,11551,1,0,0:0:0:0:
320,192,11692,1,0,0:0:0:0:
192,192,11809,1,0,0:0:0:0:
448,192,11809,1,0,0:0:0:0:
448,192,11926,1,0,0:0:0:0:
192,192,12044,1,0,0:0:0:0:
320,192,12161,1,0,0:0:0:0:
192,192,12278,1,0,0:0:0:0:
448,192,12278,1,0,0:0:0:0:
448,192,12395,1,0,0:0:0:0:
320,192,12512,1,0,0:0:0:0:
320,192,12630,1,0,0:0:0:0:
192,192,12770,1,0,0:0:0:0:
448,192,12770,1,0,0:0:0:0:
320,192,12887,1,0,0:0:0:0:
192,192,13005,1,0,0:0:0:0:
320,192,13122,1,0,0:0:0:0:
192,192,13239,1,0,0:0:0:0:
448,192,13239,1,0,0:0:0:0:
320,192,13473,1,0,0:0:0:0:
448,192,13473,128,0,17294:0:0:0:0:
192,192,13614,1,0,0:0:0:0:
64,192,13755,1,0,0:0:0:0:
320,192,13755,1,0,0:0:0:0:
192,192,13872,1,0,0:0:0:0:
192,192,13989,1,0,0:0:0:0:
64,192,14106,1,0,0:0:0:0:
64,192,14223,1,0,0:0:0:0:
320,192,14223,1,0,0:0:0:0:
192,192,14341,1,0,0:0:0:0:
320,192,14458,1,0,0:0:0:0:
192,192,14575,1,0,0:0:0:0:
320,192,14692,1,0,0:0:0:0:
64,192,14692,1,0,0:0:0:0:
192,192,14809,1,0,0:0:0:0:
192,192,14926,1,0,0:0:0:0:
320,192,15020,1,0,0:0:0:0:
320,192,15137,1,0,0:0:0:0:
64,192,15137,1,0,0:0:0:0:
192,192,15255,1,0,0:0:0:0:
320,192,15372,1,0,0:0:0:0:
192,192,15489,1,0,0:0:0:0:
320,192,15630,1,0,0:0:0:0:
64,192,15630,1,0,0:0:0:0:
320,192,15747,1,0,0:0:0:0:
192,192,15864,1,0,0:0:0:0:
192,192,15981,1,0,0:0:0:0:
320,192,16098,1,0,0:0:0:0:
64,192,16098,1,0,0:0:0:0:
192,192,16216,1,0,0:0:0:0:
320,192,16333,1,0,0:0:0:0:
192,192,16450,1,0,0:0:0:0:
64,192,16567,1,0,0:0:0:0:
320,192,16567,1,0,0:0:0:0:
192,192,16708,1,0,0:0:0:0:
64,192,16825,1,0,0:0:0:0:
192,192,16919,1,0,0:0:0:0:
64,192,17059,1,0,0:0:0:0:
320,192,17059,1,0,0:0:0:0:
192,192,17153,1,0,0:0:0:0:
192,192,17294,1,0,0:0:0:0:
320,192,17294,128,0,20645:0:0:0:0:
64,192,17411,1,0,0:0:0:0:
64,192,17551,1,0,0:0:0:0:
448,192,17551,1,0,0:0:0:0:
448,192,17692,1,0,0:0:0:0:
192,192,17809,1,0,0:0:0:0:
192,192,17926,1,0,0:0:0:0:
64,192,18067,1,0,0:0:0:0:
448,192,18067,1,0,0:0:0:0:
192,192,18184,1,0,0:0:0:0:
64,192,18301,1,0,0:0:0:0:
192,192,18419,1,0,0:0:0:0:
64,192,18536,1,0,0:0:0:0:
448,192,18536,1,0,0:0:0:0:
448,192,18653,1,0,0:0:0:0:
192,192,18770,1,0,0:0:0:0:
448,192,18864,1,0,0:0:0:0:
448,192,19005,1,0,0:0:0:0:
64,192,19005,1,0,0:0:0:0:
192,192,19122,1,0,0:0:0:0:
448,192,19239,1,0,0:0:0:0:
192,192,19333,1,0,0:0:0:0:
448,192,19473,1,0,0:0:0:0:
64,192,19473,1,0,0:0:0:0:
448,192,19614,1,0,0:0:0:0:
192,192,19684,1,0,0:0:0:0:
192,192,19801,1,0,0:0:0:0:
448,192,19895,1,0,0:0:0:0:
64,192,19895,1,0,0:0:0:0:
192,192,20036,1,0,0:0:0:0:
448,192,20153,1,0,0:0:0:0:
64,192,20153,1,0,0:0:0:0:
192,192,20270,1,0,0:0:0:0:
64,192,20411,1,0,0:0:0:0:
448,192,20411,1,0,0:0:0:0:
64,192,20528,1,0,0:0:0:0:
192,192,20645,1,0,0:0:0:0:
448,192,20645,1,0,0:0:0:0:
192,192,20880,1,0,0:0:0:0:
320,192,20880,1,0,0:0:0:0:
64,192,21114,1,8,0:0:0:0:
192,192,21114,1,8,0:0:0:0:
320,192,21114,1,8,0:0:0:0:
448,192,21114,1,8,0:0:0:0:
320,192,21348,1,0,0:0:0:0:
64,192,21348,1,0,0:0:0:0:
320,192,21466,1,0,0:0:0:0:
192,192,21583,1,0,0:0:0:0:
448,192,21583,1,0,0:0:0:0:
320,192,21723,1,0,0:0:0:0:
192,192,21841,1,0,0:0:0:0:
320,192,21958,1,0,0:0:0:0:
192,192,22098,1,0,0:0:0:0:
320,192,22098,1,0,0:0:0:0:
64,192,22216,1,0,0:0:0:0:
320,192,22333,1,0,0:0:0:0:
192,192,22450,1,0,0:0:0:0:
320,192,22591,1,0,0:0:0:0:
192,192,22591,1,0,0:0:0:0:
192,192,22708,1,0,0:0:0:0:
64,192,22848,1,0,0:0:0:0:
320,192,22848,1,0,0:0:0:0:
320,192,22989,1,0,0:0:0:0:
192,192,23106,1,0,0:0:0:0:
448,192,23106,1,0,0:0:0:0:
448,192,23247,1,0,0:0:0:0:
320,192,23341,1,0,0:0:0:0:
64,192,23341,1,0,0:0:0:0:
192,192,23458,1,0,0:0:0:0:
320,192,23575,1,0,0:0:0:0:
448,192,23575,128,0,25450:0:0:0:0:
192,192,23692,1,0,0:0:0:0:
320,192,23809,1,0,0:0:0:0:
64,192,23809,1,0,0:0:0:0:
192,192,23926,1,0,0:0:0:0:
192,192,24044,1,0,0:0:0:0:
64,192,24161,1,0,0:0:0:0:
320,192,24278,1,0,0:0:0:0:
64,192,24278,1,0,0:0:0:0:
192,192,24419,1,0,0:0:0:0:
320,192,24512,1,0,0:0:0:0:
192,192,24630,1,0,0:0:0:0:
64,192,24747,1,0,0:0:0:0:
192,192,24747,1,0,0:0:0:0:
320,192,24864,1,0,0:0:0:0:
192,192,24981,1,0,0:0:0:0:
64,192,25098,1,0,0:0:0:0:
320,192,25216,1,0,0:0:0:0:
192,192,25216,1,0,0:0:0:0:
320,192,25450,1,0,0:0:0:0:
64,192,25450,1,0,0:0:0:0:
320,192,25567,1,0,0:0:0:0:
192,192,25684,1,0,0:0:0:0:
448,192,25801,1,0,0:0:0:0:
192,192,25942,1,0,0:0:0:0:
320,192,25942,1,0,0:0:0:0:
64,192,26059,1,0,0:0:0:0:
320,192,26176,1,0,0:0:0:0:
192,192,26294,1,0,0:0:0:0:
320,192,26411,1,0,0:0:0:0:
64,192,26411,1,0,0:0:0:0:
448,192,26528,1,0,0:0:0:0:
192,192,26645,1,0,0:0:0:0:
448,192,26762,1,0,0:0:0:0:
192,192,26903,1,0,0:0:0:0:
320,192,26903,1,0,0:0:0:0:
192,192,27020,1,0,0:0:0:0:
320,192,27137,1,0,0:0:0:0:
64,192,27137,1,0,0:0:0:0:
192,192,27255,1,0,0:0:0:0:
320,192,27372,1,0,0:0:0:0:
448,192,27372,1,0,0:0:0:0:
192,192,27489,1,0,0:0:0:0:
320,192,27606,1,0,0:0:0:0:
64,192,27606,1,0,0:0:0:0:
192,192,27723,1,0,0:0:0:0:
64,192,27864,1,0,0:0:0:0:
192,192,27864,1,0,0:0:0:0:
448,192,27958,1,0,0:0:0:0:
192,192,28098,1,0,0:0:0:0:
320,192,28098,1,0,0:0:0:0:
448,192,28216,1,0,0:0:0:0:
64,192,28333,1,0,0:0:0:0:
192,192,28333,1,0,0:0:0:0:
448,192,28426,1,0,0:0:0:0:
192,192,28544,1,0,0:0:0:0:
320,192,28544,1,0,0:0:0:0:
64,192,28708,1,0,0:0:0:0:
448,192,28825,1,0,0:0:0:0:
320,192,28825,1,0,0:0:0:0:
64,192,28942,1,0,0:0:0:0:
192,192,29059,1,0,0:0:0:0:
448,192,29059,1,0,0:0:0:0:
320,192,29176,1,0,0:0:0:0:
448,192,29294,1,0,0:0:0:0:
64,192,29294,1,0,0:0:0:0:
448,192,29434,1,0,0:0:0:0:
64,192,29575,1,0,0:0:0:0:
320,192,29575,1,0,0:0:0:0:
192,192,29692,1,0,0:0:0:0:
448,192,29809,1,0,0:0:0:0:
64,192,29809,1,0,0:0:0:0:
64,192,29950,1,0,0:0:0:0:
320,192,30067,1,0,0:0:0:0:
192,192,30067,1,0,0:0:0:0:
192,192,30184,1,0,0:0:0:0:
448,192,30301,1,0,0:0:0:0:
320,192,30301,1,0,0:0:0:0:
64,192,30419,1,0,0:0:0:0:
192,192,30536,1,0,0:0:0:0:
320,192,30536,1,0,0:0:0:0:
448,192,30653,1,0,0:0:0:0:
192,192,30747,1,0,0:0:0:0:
64,192,30747,1,0,0:0:0:0:
448,192,30864,1,0,0:0:0:0:
320,192,30981,1,0,0:0:0:0:
192,192,30981,1,0,0:0:0:0:
448,192,31098,1,0,0:0:0:0:
64,192,31216,1,0,0:0:0:0:
448,192,31216,1,0,0:0:0:0:
64,192,31333,1,0,0:0:0:0:
192,192,31450,1,0,0:0:0:0:
448,192,31450,1,0,0:0:0:0:
320,192,31567,1,0,0:0:0:0:
192,192,31708,1,0,0:0:0:0:
448,192,31708,1,0,0:0:0:0:
192,192,31825,1,0,0:0:0:0:
64,192,31942,1,0,0:0:0:0:
320,192,31942,1,0,0:0:0:0:
192,192,32083,1,0,0:0:0:0:
448,192,32200,1,0,0:0:0:0:
64,192,32200,1,0,0:0:0:0:
64,192,32317,1,0,0:0:0:0:
192,192,32434,1,0,0:0:0:0:
320,192,32434,1,0,0:0:0:0:
320,192,32575,1,0,0:0:0:0:
64,192,32692,1,0,0:0:0:0:
448,192,32692,1,0,0:0:0:0:
320,192,32809,1,0,0:0:0:0:
448,192,32926,1,0,0:0:0:0:
192,192,32926,1,0,0:0:0:0:
320,192,33044,1,0,0:0:0:0:
192,192,33161,1,0,0:0:0:0:
64,192,33161,1,0,0:0:0:0:
320,192,33278,1,0,0:0:0:0:
192,192,33395,1,0,0:0:0:0:
448,192,33395,1,0,0:0:0:0:
320,192,33512,1,0,0:0:0:0:
320,192,33630,1,0,0:0:0:0:
448,192,33630,1,0,0:0:0:0:
192,192,33747,1,0,0:0:0:0:
320,192,33864,1,0,0:0:0:0:
64,192,33864,1,0,0:0:0:0:
192,192,33981,1,0,0:0:0:0:
448,192,34098,1,0,0:0:0:0:
192,192,34098,1,0,0:0:0:0:
64,192,34239,1,0,0:0:0:0:
192,192,34356,1,0,0:0:0:0:
448,192,34356,1,0,0:0:0:0:
320,192,34473,1,0,0:0:0:0:
64,192,34591,1,0,0:0:0:0:
448,192,34591,1,0,0:0:0:0:
320,192,34708,1,0,0:0:0:0:
192,192,34825,1,0,0:0:0:0:
320,192,34825,1,0,0:0:0:0:
448,192,34942,1,0,0:0:0:0:
192,192,35059,1,0,0:0:0:0:
320,192,35059,1,0,0:0:0:0:
64,192,35200,1,0,0:0:0:0:
192,192,35317,1,0,0:0:0:0:
320,192,35317,1,0,0:0:0:0:
192,192,35458,1,0,0:0:0:0:
320,192,35575,1,0,0:0:0:0:
64,192,35575,1,0,0:0:0:0:
448,192,35669,1,0,0:0:0:0:
320,192,35786,1,0,0:0:0:0:
64,192,35786,1,0,0:0:0:0:
320,192,35903,1,0,0:0:0:0:
192,192,35997,1,0,0:0:0:0:
448,192,36020,1,0,0:0:0:0:
192,192,36137,1,0,0:0:0:0:
64,192,36255,1,0,0:0:0:0:
320,192,36255,1,0,0:0:0:0:
192,192,36372,1,0,0:0:0:0:
64,192,36512,1,0,0:0:0:0:
448,192,36512,1,0,0:0:0:0:
64,192,36630,1,0,0:0:0:0:
192,192,36747,1,0,0:0:0:0:
320,192,36747,1,0,0:0:0:0:
320,192,36864,1,0,0:0:0:0:
192,192,36981,1,0,0:0:0:0:
448,192,36981,1,0,0:0:0:0:
64,192,37098,1,0,0:0:0:0:
448,192,37216,1,0,0:0:0:0:
192,192,37216,1,0,0:0:0:0:
320,192,37333,1,0,0:0:0:0:
448,192,37450,1,0,0:0:0:0:
64,192,37450,1,0,0:0:0:0:
64,192,37591,1,0,0:0:0:0:
192,192,37708,1,0,0:0:0:0:
320,192,37708,1,0,0:0:0:0:
192,192,37848,1,0,0:0:0:0:
64,192,37966,1,0,0:0:0:0:
320,192,37966,1,0,0:0:0:0:
448,192,38083,1,0,0:0:0:0:
192,192,38200,1,0,0:0:0:0:
448,192,38200,1,0,0:0:0:0:
320,192,38317,1,0,0:0:0:0:
192,192,38434,1,0,0:0:0:0:
448,192,38434,1,0,0:0:0:0:
448,192,38669,1,0,0:0:0:0:
192,192,38669,1,0,0:0:0:0:
64,192,38786,1,0,0:0:0:0:
448,192,38903,1,0,0:0:0:0:
320,192,38903,1,0,0:0:0:0:
64,192,39020,1,0,0:0:0:0:
448,192,39161,1,0,0:0:0:0:
192,192,39161,1,0,0:0:0:0:
448,192,39301,1,0,0:0:0:0:
64,192,39419,1,0,0:0:0:0:
320,192,39419,1,0,0:0:0:0:
192,192,39536,1,0,0:0:0:0:
320,192,39676,1,0,0:0:0:0:
64,192,39676,1,0,0:0:0:0:
320,192,39794,1,0,0:0:0:0:
448,192,39911,1,0,0:0:0:0:
192,192,39911,1,0,0:0:0:0:
64,192,40122,1,0,0:0:0:0:
192,192,40122,128,0,40356:0:0:0:0:
320,192,40122,128,0,40356:0:0:0:0:
448,192,40356,1,0,0:0:0:0:
64,192,40473,1,0,0:0:0:0:
320,192,40591,1,0,0:0:0:0:
448,192,40591,1,0,0:0:0:0:
320,192,40708,1,0,0:0:0:0:
192,192,40801,1,0,0:0:0:0:
448,192,40801,1,0,0:0:0:0:
64,192,40942,1,0,0:0:0:0:
192,192,41059,1,0,0:0:0:0:
448,192,41059,1,0,0:0:0:0:
320,192,41176,1,0,0:0:0:0:
64,192,41294,1,0,0:0:0:0:
320,192,41294,1,0,0:0:0:0:
192,192,41434,1,0,0:0:0:0:
320,192,41551,1,0,0:0:0:0:
448,192,41551,1,0,0:0:0:0:
320,192,41692,1,0,0:0:0:0:
192,192,41786,1,0,0:0:0:0:
448,192,41786,1,0,0:0:0:0:
320,192,41926,1,0,0:0:0:0:
192,192,42044,1,0,0:0:0:0:
448,192,42044,1,0,0:0:0:0:
192,192,42184,1,0,0:0:0:0:
320,192,42301,1,0,0:0:0:0:
64,192,42301,1,0,0:0:0:0:
192,192,42419,1,0,0:0:0:0:
320,192,42512,1,0,0:0:0:0:
192,192,42606,1,0,0:0:0:0:
192,192,42723,1,0,0:0:0:0:
448,192,42747,1,0,0:0:0:0:
64,192,42864,1,0,0:0:0:0:
192,192,42981,1,0,0:0:0:0:
320,192,42981,1,0,0:0:0:0:
192,192,43098,1,0,0:0:0:0:
64,192,43216,1,0,0:0:0:0:
320,192,43216,1,0,0:0:0:0:
320,192,43333,1,0,0:0:0:0:
448,192,43450,1,0,0:0:0:0:
192,192,43450,1,0,0:0:0:0:
320,192,43567,1,0,0:0:0:0:
320,192,43684,1,0,0:0:0:0:
192,192,43684,1,0,0:0:0:0:
64,192,43801,1,0,0:0:0:0:
448,192,43919,1,0,0:0:0:0:
192,192,43919,128,0,44153:0:0:0:0:
64,192,43919,128,0,44153:0:0:0:0:
320,192,44153,1,0,0:0:0:0:
320,192,44294,1,0,0:0:0:0:
64,192,44411,1,0,0:0:0:0:
448,192,44411,1,0,0:0:0:0:
320,192,44528,1,0,0:0:0:0:
64,192,44645,1,0,0:0:0:0:
320,192,44645,1,0,0:0:0:0:
192,192,44762,1,0,0:0:0:0:
192,192,44903,1,0,0:0:0:0:
448,192,44903,1,0,0:0:0:0:
320,192,45044,1,0,0:0:0:0:
192,192,45161,1,0,0:0:0:0:
448,192,45161,1,0,0:0:0:0:
64,192,45278,1,0,0:0:0:0:
320,192,45395,1,0,0:0:0:0:
64,192,45489,1,0,0:0:0:0:
192,192,45630,1,0,0:0:0:0:
448,192,45630,1,0,0:0:0:0:
320,192,45747,1,0,0:0:0:0:
64,192,45864,1,0,0:0:0:0:
448,192,45864,1,0,0:0:0:0:
320,192,45981,1,0,0:0:0:0:
64,192,46122,1,0,0:0:0:0:
320,192,46122,1,0,0:0:0:0:
448,192,46262,1,0,0:0:0:0:
192,192,46356,1,0,0:0:0:0:
320,192,46497,1,0,0:0:0:0:
192,192,46614,1,0,0:0:0:0:
448,192,46614,1,0,0:0:0:0:
64,192,46755,1,0,0:0:0:0:
448,192,46872,1,0,0:0:0:0:
192,192,46872,1,0,0:0:0:0:
192,192,46989,1,0,0:0:0:0:
448,192,47083,1,0,0:0:0:0:
64,192,47083,1,0,0:0:0:0:
192,192,47223,1,0,0:0:0:0:
64,192,47341,1,0,0:0:0:0:
320,192,47341,1,0,0:0:0:0:
192,192,47458,1,0,0:0:0:0:
64,192,47575,1,0,0:0:0:0:
448,192,47575,1,0,0:0:0:0:
192,192,47692,1,0,0:0:0:0:
192,192,47809,1,0,0:0:0:0:
320,192,47809,1,0,0:0:0:0:
320,192,47926,1,0,0:0:0:0:
448,192,48044,1,0,0:0:0:0:
192,192,48044,1,0,0:0:0:0:
192,192,48161,1,0,0:0:0:0:
64,192,48278,1,0,0:0:0:0:
320,192,48278,1,0,0:0:0:0:
448,192,48395,1,0,0:0:0:0:
320,192,48489,1,0,0:0:0:0:
192,192,48489,1,0,0:0:0:0:
320,192,48630,1,0,0:0:0:0:
192,192,48747,1,0,0:0:0:0:
320,192,48747,1,0,0:0:0:0:
192,192,48864,1,0,0:0:0:0:
320,192,48958,1,0,0:0:0:0:
64,192,48981,1,0,0:0:0:0:
192,192,49098,1,0,0:0:0:0:
192,192,49216,1,0,0:0:0:0:
320,192,49216,1,0,0:0:0:0:
448,192,49356,1,0,0:0:0:0:
192,192,49497,1,0,0:0:0:0:
320,192,49497,128,0,49731:0:0:0:0:
64,192,49497,128,0,49731:0:0:0:0:
448,192,49731,1,0,0:0:0:0:
192,192,49848,1,0,0:0:0:0:
192,192,49989,1,0,0:0:0:0:
320,192,49989,1,0,0:0:0:0:
448,192,50106,1,0,0:0:0:0:
64,192,50200,1,0,0:0:0:0:
448,192,50200,1,0,0:0:0:0:
320,192,50317,1,0,0:0:0:0:
192,192,50434,1,0,0:0:0:0:
320,192,50434,1,0,0:0:0:0:
320,192,50551,1,0,0:0:0:0:
192,192,50669,1,0,0:0:0:0:
448,192,50669,1,0,0:0:0:0:
64,192,50809,1,0,0:0:0:0:
448,192,50903,1,0,0:0:0:0:
320,192,50903,1,0,0:0:0:0:
192,192,51044,1,0,0:0:0:0:
448,192,51161,1,0,0:0:0:0:
320,192,51161,1,0,0:0:0:0:
192,192,51255,1,0,0:0:0:0:
64,192,51348,1,0,0:0:0:0:
192,192,51466,1,0,0:0:0:0:
448,192,51466,1,0,0:0:0:0:
320,192,51606,1,0,0:0:0:0:
192,192,51747,1,0,0:0:0:0:
448,192,51887,1,0,0:0:0:0:
64,192,51887,1,0,0:0:0:0:
192,192,52005,1,0,0:0:0:0:
64,192,52145,1,0,0:0:0:0:
320,192,52145,1,0,0:0:0:0:
192,192,52239,1,0,0:0:0:0:
192,192,52356,1,0,0:0:0:0:
448,192,52356,128,0,55731:0:0:0:0:
320,192,52473,1,0,0:0:0:0:
192,192,52591,1,0,0:0:0:0:
320,192,52708,1,0,0:0:0:0:
64,192,52825,1,0,0:0:0:0:
320,192,52919,1,0,0:0:0:0:
192,192,53059,1,0,0:0:0:0:
64,192,53176,1,0,0:0:0:0:
192,192,53317,1,0,0:0:0:0:
320,192,53317,1,0,0:0:0:0:
64,192,53434,1,0,0:0:0:0:
192,192,53551,1,0,0:0:0:0:
320,192,53669,1,0,0:0:0:0:
64,192,53786,1,0,0:0:0:0:
320,192,53880,1,0,0:0:0:0:
64,192,53997,1,0,0:0:0:0:
320,192,54091,1,0,0:0:0:0:
192,192,54231,1,0,0:0:0:0:
64,192,54231,1,0,0:0:0:0:
192,192,54372,1,0,0:0:0:0:
192,192,54489,1,0,0:0:0:0:
320,192,54606,1,0,0:0:0:0:
64,192,54747,1,0,0:0:0:0:
320,192,54841,1,0,0:0:0:0:
192,192,54958,1,0,0:0:0:0:
64,192,55075,1,0,0:0:0:0:
192,192,55216,1,0,0:0:0:0:
320,192,55216,1,0,0:0:0:0:
64,192,55333,1,0,0:0:0:0:
320,192,55450,1,0,0:0:0:0:
192,192,55567,1,0,0:0:0:0:
64,192,55731,1,0,0:0:0:0:
320,192,55731,1,0,0:0:0:0:
192,192,55731,128,0,59528:0:0:0:0:
448,192,55872,1,0,0:0:0:0:
320,192,55989,1,0,0:0:0:0:
64,192,55989,1,0,0:0:0:0:
64,192,56106,1,0,0:0:0:0:
320,192,56223,1,0,0:0:0:0:
448,192,56223,1,0,0:0:0:0:
320,192,56341,1,0,0:0:0:0:
64,192,56458,1,0,0:0:0:0:
320,192,56575,1,0,0:0:0:0:
448,192,56692,1,0,0:0:0:0:
320,192,56786,1,0,0:0:0:0:
320,192,56926,1,0,0:0:0:0:
448,192,57044,1,0,0:0:0:0:
64,192,57161,1,0,0:0:0:0:
320,192,57161,1,0,0:0:0:0:
64,192,57301,1,0,0:0:0:0:
320,192,57419,1,0,0:0:0:0:
448,192,57536,1,0,0:0:0:0:
320,192,57676,1,0,0:0:0:0:
320,192,57794,1,0,0:0:0:0:
64,192,57887,1,0,0:0:0:0:
320,192,57981,1,0,0:0:0:0:
320,192,58122,1,0,0:0:0:0:
448,192,58122,1,0,0:0:0:0:
64,192,58239,1,0,0:0:0:0:
448,192,58356,1,0,0:0:0:0:
320,192,58473,1,0,0:0:0:0:
448,192,58614,1,0,0:0:0:0:
320,192,58708,1,0,0:0:0:0:
64,192,58801,1,0,0:0:0:0:
448,192,58919,1,0,0:0:0:0:
64,192,59059,1,0,0:0:0:0:
320,192,59059,1,0,0:0:0:0:
448,192,59176,1,0,0:0:0:0:
320,192,59294,1,0,0:0:0:0:
448,192,59411,1,0,0:0:0:0:
320,192,59528,1,0,0:0:0:0:
64,192,59528,128,0,63395:0:0:0:0:
448,192,59669,1,0,0:0:0:0:
320,192,59786,1,0,0:0:0:0:
192,192,59903,1,0,0:0:0:0:
448,192,60020,1,0,0:0:0:0:
192,192,60020,1,0,0:0:0:0:
320,192,60161,1,0,0:0:0:0:
448,192,60278,1,0,0:0:0:0:
320,192,60395,1,0,0:0:0:0:
192,192,60512,1,0,0:0:0:0:
320,192,60630,1,0,0:0:0:0:
192,192,60723,1,0,0:0:0:0:
448,192,60841,1,0,0:0:0:0:
192,192,60981,1,0,0:0:0:0:
320,192,60981,1,0,0:0:0:0:
320,192,61098,1,0,0:0:0:0:
448,192,61216,1,0,0:0:0:0:
320,192,61333,1,0,0:0:0:0:
448,192,61473,1,0,0:0:0:0:
320,192,61591,1,0,0:0:0:0:
320,192,61708,1,0,0:0:0:0:
192,192,61825,1,0,0:0:0:0:
320,192,61966,1,0,0:0:0:0:
192,192,61966,1,0,0:0:0:0:
448,192,62083,1,0,0:0:0:0:
320,192,62200,1,0,0:0:0:0:
448,192,62317,1,0,0:0:0:0:
192,192,62434,1,0,0:0:0:0:
448,192,62551,1,0,0:0:0:0:
320,192,62692,1,0,0:0:0:0:
320,192,62809,1,0,0:0:0:0:
448,192,62926,1,0,0:0:0:0:
192,192,62926,1,0,0:0:0:0:
320,192,63044,1,0,0:0:0:0:
448,192,63161,1,0,0:0:0:0:
320,192,63278,1,0,0:0:0:0:
192,192,63395,1,0,0:0:0:0:
320,192,63395,128,0,67262:0:0:0:0:
448,192,63536,1,0,0:0:0:0:
64,192,63653,1,0,0:0:0:0:
192,192,63770,1,0,0:0:0:0:
192,192,63911,1,0,0:0:0:0:
448,192,63911,1,0,0:0:0:0:
64,192,64028,1,0,0:0:0:0:
448,192,64145,1,0,0:0:0:0:
192,192,64262,1,0,0:0:0:0:
448,192,64380,1,0,0:0:0:0:
64,192,64473,1,0,0:0:0:0:
192,192,64591,1,0,0:0:0:0:
192,192,64708,1,0,0:0:0:0:
448,192,64825,1,0,0:0:0:0:
64,192,64825,1,0,0:0:0:0:
192,192,64966,1,0,0:0:0:0:
448,192,65106,1,0,0:0:0:0:
64,192,65223,1,0,0:0:0:0:
192,192,65341,1,0,0:0:0:0:
192,192,65434,1,0,0:0:0:0:
448,192,65528,1,0,0:0:0:0:
192,192,65645,1,0,0:0:0:0:
448,192,65762,1,0,0:0:0:0:
64,192,65762,1,0,0:0:0:0:
192,192,65903,1,0,0:0:0:0:
64,192,66020,1,0,0:0:0:0:
192,192,66137,1,0,0:0:0:0:
448,192,66255,1,0,0:0:0:0:
192,192,66395,1,0,0:0:0:0:
64,192,66512,1,0,0:0:0:0:
448,192,66606,1,0,0:0:0:0:
64,192,66747,1,0,0:0:0:0:
448,192,66747,1,0,0:0:0:0:
192,192,66864,1,0,0:0:0:0:
192,192,67005,1,0,0:0:0:0:
64,192,67122,1,0,0:0:0:0:
448,192,67262,1,0,0:0:0:0:
64,192,67262,1,0,0:0:0:0:
192,192,67380,1,0,0:0:0:0:
320,192,67497,1,0,0:0:0:0:
448,192,67591,1,0,0:0:0:0:
192,192,67684,1,0,0:0:0:0:
64,192,67684,1,0,0:0:0:0:
320,192,67801,1,0,0:0:0:0:
192,192,67919,1,0,0:0:0:0:
448,192,67919,1,0,0:0:0:0:
192,192,68059,1,0,0:0:0:0:
64,192,68176,1,0,0:0:0:0:
192,192,68176,1,0,0:0:0:0:
320,192,68176,1,0,0:0:0:0:
448,192,68176,1,0,0:0:0:0:
320,192,68434,1,0,0:0:0:0:
320,192,68551,1,0,0:0:0:0:
192,192,68692,1,0,0:0:0:0:
320,192,68692,1,0,0:0:0:0:
192,192,68926,1,0,0:0:0:0:
448,192,68926,1,0,0:0:0:0:
320,192,69044,1,0,0:0:0:0:
64,192,69161,1,0,0:0:0:0:
448,192,69161,1,0,0:0:0:0:
192,192,69395,1,0,0:0:0:0:
448,192,69395,1,0,0:0:0:0:
320,192,69512,1,0,0:0:0:0:
192,192,69630,1,0,0:0:0:0:
320,192,69630,1,0,0:0:0:0:
320,192,69864,1,0,0:0:0:0:
64,192,69864,1,0,0:0:0:0:
448,192,69981,1,0,0:0:0:0:
320,192,70122,1,0,0:0:0:0:
64,192,70122,1,0,0:0:0:0:
320,192,70356,1,0,0:0:0:0:
64,192,70356,1,0,0:0:0:0:
192,192,70473,1,0,0:0:0:0:
448,192,70567,1,0,0:0:0:0:
320,192,70567,1,0,0:0:0:0:
192,192,70825,1,0,0:0:0:0:
448,192,70825,1,0,0:0:0:0:
320,192,70942,1,0,0:0:0:0:
64,192,71083,1,0,0:0:0:0:
192,192,71083,1,0,0:0:0:0:
320,192,71200,1,0,0:0:0:0:
192,192,71317,1,0,0:0:0:0:
64,192,71317,1,0,0:0:0:0:
448,192,71411,1,0,0:0:0:0:
192,192,71551,1,0,0:0:0:0:
320,192,71551,1,0,0:0:0:0:
320,192,71669,1,0,0:0:0:0:
192,192,71762,1,0,0:0:0:0:
448,192,71762,1,0,0:0:0:0:
64,192,71903,1,0,0:0:0:0:
320,192,71997,1,0,0:0:0:0:
448,192,71997,1,0,0:0:0:0:
64,192,71997,1,0,0:0:0:0:
192,192,71997,1,0,0:0:0:0:
320,192,72231,1,0,0:0:0:0:
320,192,72348,1,0,0:0:0:0:
448,192,72489,1,0,0:0:0:0:
192,192,72489,1,0,0:0:0:0:
192,192,72747,1,0,0:0:0:0:
64,192,72747,1,0,0:0:0:0:
320,192,72887,1,0,0:0:0:0:
192,192,73005,1,0,0:0:0:0:
448,192,73005,1,0,0:0:0:0:
192,192,73262,1,0,0:0:0:0:
320,192,73262,1,0,0:0:0:0:
320,192,73380,1,0,0:0:0:0:
64,192,73497,1,0,0:0:0:0:
448,192,73497,1,0,0:0:0:0:
192,192,73731,1,0,0:0:0:0:
448,192,73731,1,0,0:0:0:0:
320,192,73848,1,0,0:0:0:0:
192,192,73966,1,0,0:0:0:0:
448,192,73966,1,0,0:0:0:0:
320,192,74200,1,0,0:0:0:0:
192,192,74200,1,0,0:0:0:0:
64,192,74317,1,0,0:0:0:0:
320,192,74434,1,0,0:0:0:0:
192,192,74434,1,0,0:0:0:0:
448,192,74669,1,0,0:0:0:0:
192,192,74669,1,0,0:0:0:0:
320,192,74786,1,0,0:0:0:0:
448,192,74903,1,0,0:0:0:0:
64,192,74903,1,0,0:0:0:0:
320,192,75020,1,0,0:0:0:0:
192,192,75137,1,0,0:0:0:0:
320,192,75255,1,0,0:0:0:0:
192,192,75372,1,0,0:0:0:0:
448,192,75489,1,0,0:0:0:0:
64,192,75489,1,0,0:0:0:0:
64,192,75606,1,0,0:0:0:0:
320,192,75606,1,0,0:0:0:0:
192,192,75723,1,0,0:0:0:0:
64,192,75864,1,0,0:0:0:0:
320,192,75864,1,0,0:0:0:0:
192,192,75864,1,0,0:0:0:0:
448,192,75864,1,0,0:0:0:0:
320,192,76122,1,0,0:0:0:0:
192,192,76122,1,0,0:0:0:0:
448,192,76239,1,0,0:0:0:0:
320,192,76380,1,0,0:0:0:0:
192,192,76380,1,0,0:0:0:0:
448,192,76591,1,0,0:0:0:0:
64,192,76591,1,0,0:0:0:0:
320,192,76708,1,0,0:0:0:0:
64,192,76801,1,0,0:0:0:0:
448,192,76825,1,0,0:0:0:0:
320,192,77059,1,0,0:0:0:0:
192,192,77059,1,0,0:0:0:0:
192,192,77200,1,0,0:0:0:0:
320,192,77317,1,0,0:0:0:0:
448,192,77317,1,0,0:0:0:0:
320,192,77551,1,0,0:0:0:0:
64,192,77551,1,0,0:0:0:0:
448,192,77645,1,0,0:0:0:0:
192,192,77762,1,0,0:0:0:0:
320,192,77762,1,0,0:0:0:0:
320,192,77997,1,0,0:0:0:0:
64,192,77997,1,0,0:0:0:0:
192,192,78114,1,0,0:0:0:0:
64,192,78231,1,0,0:0:0:0:
448,192,78255,1,0,0:0:0:0:
320,192,78512,1,0,0:0:0:0:
192,192,78512,1,0,0:0:0:0:
320,192,78653,1,0,0:0:0:0:
64,192,78770,1,0,0:0:0:0:
448,192,78770,1,0,0:0:0:0:
320,192,78911,1,0,0:0:0:0:
192,192,79005,1,0,0:0:0:0:
64,192,79122,1,0,0:0:0:0:
192,192,79239,1,0,0:0:0:0:
320,192,79239,1,0,0:0:0:0:
64,192,79356,1,0,0:0:0:0:
448,192,79473,1,0,0:0:0:0:
192,192,79591,1,0,0:0:0:0:
320,192,79591,1,0,0:0:0:0:
320,192,79731,1,0,0:0:0:0:
448,192,79731,1,0,0:0:0:0:
192,192,79731,1,0,0:0:0:0:
64,192,79731,1,0,0:0:0:0:
448,192,79966,1,0,0:0:0:0:
192,192,79966,1,0,0:0:0:0:
320,192,80059,1,0,0:0:0:0:
448,192,80176,1,0,0:0:0:0:
64,192,80176,1,0,0:0:0:0:
320,192,80411,1,0,0:0:0:0:
64,192,80411,1,0,0:0:0:0:
320,192,80551,1,0,0:0:0:0:
192,192,80669,1,0,0:0:0:0:
448,192,80669,1,0,0:0:0:0:
64,192,80903,1,0,0:0:0:0:
320,192,80903,1,0,0:0:0:0:
192,192,81020,1,0,0:0:0:0:
64,192,81137,1,0,0:0:0:0:
448,192,81137,1,0,0:0:0:0:
192,192,81255,1,0,0:0:0:0:
64,192,81372,1,0,0:0:0:0:
320,192,81489,1,0,0:0:0:0:
192,192,81630,1,0,0:0:0:0:
320,192,81747,1,0,0:0:0:0:
448,192,81841,1,0,0:0:0:0:
192,192,81958,1,0,0:0:0:0:
448,192,82098,1,0,0:0:0:0:
320,192,82098,128,0,85895:0:0:0:0:
64,192,82098,1,0,0:0:0:0:
192,192,82216,1,0,0:0:0:0:
192,192,82333,1,0,0:0:0:0:
448,192,82333,1,0,0:0:0:0:
448,192,82473,1,0,0:0:0:0:
192,192,82591,1,0,0:0:0:0:
192,192,82708,1,0,0:0:0:0:
64,192,82825,1,0,0:0:0:0:
448,192,82825,1,0,0:0:0:0:
192,192,82942,1,0,0:0:0:0:
64,192,83059,1,0,0:0:0:0:
192,192,83270,1,0,0:0:0:0:
448,192,83270,1,0,0:0:0:0:
192,192,83411,1,0,0:0:0:0:
448,192,83528,1,0,0:0:0:0:
448,192,83669,1,0,0:0:0:0:
192,192,83786,1,0,0:0:0:0:
64,192,83880,1,0,0:0:0:0:
448,192,83997,1,0,0:0:0:0:
64,192,83997,1,0,0:0:0:0:
192,192,84114,1,0,0:0:0:0:
448,192,84231,1,0,0:0:0:0:
192,192,84348,1,0,0:0:0:0:
448,192,84489,1,0,0:0:0:0:
192,192,84489,1,0,0:0:0:0:
192,192,84630,1,0,0:0:0:0:
448,192,84723,1,0,0:0:0:0:
64,192,84841,1,0,0:0:0:0:
192,192,84958,1,0,0:0:0:0:
448,192,84958,1,0,0:0:0:0:
64,192,85075,1,0,0:0:0:0:
192,192,85216,1,0,0:0:0:0:
64,192,85333,1,0,0:0:0:0:
64,192,85450,1,0,0:0:0:0:
448,192,85450,1,0,0:0:0:0:
448,192,85567,1,0,0:0:0:0:
192,192,85684,1,0,0:0:0:0:
64,192,85684,1,0,0:0:0:0:
192,192,85801,1,0,0:0:0:0:
448,192,85895,1,0,0:0:0:0:
64,192,85895,1,0,0:0:0:0:
192,192,86036,1,0,0:0:0:0:
192,192,86153,1,0,0:0:0:0:
320,192,86153,1,0,0:0:0:0:
320,192,86294,1,0,0:0:0:0:
64,192,86434,1,0,0:0:0:0:
192,192,86434,128,0,89786:0:0:0:0:
320,192,86551,1,0,0:0:0:0:
320,192,86692,1,0,0:0:0:0:
448,192,86692,1,0,0:0:0:0:
64,192,86809,1,0,0:0:0:0:
64,192,86926,1,0,0:0:0:0:
320,192,87020,1,0,0:0:0:0:
320,192,87161,1,0,0:0:0:0:
64,192,87161,1,0,0:0:0:0:
320,192,87278,1,0,0:0:0:0:
448,192,87395,1,0,0:0:0:0:
320,192,87512,1,0,0:0:0:0:
320,192,87653,1,0,0:0:0:0:
64,192,87747,1,0,0:0:0:0:
64,192,87864,1,0,0:0:0:0:
448,192,87864,1,0,0:0:0:0:
320,192,87981,1,0,0:0:0:0:
64,192,88075,1,0,0:0:0:0:
64,192,88216,1,0,0:0:0:0:
320,192,88309,1,0,0:0:0:0:
448,192,88309,1,0,0:0:0:0:
320,192,88450,1,0,0:0:0:0:
320,192,88591,1,0,0:0:0:0:
64,192,88684,1,0,0:0:0:0:
64,192,88801,1,0,0:0:0:0:
448,192,88825,1,0,0:0:0:0:
448,192,88942,1,0,0:0:0:0:
64,192,89059,1,0,0:0:0:0:
320,192,89176,1,0,0:0:0:0:
320,192,89341,1,0,0:0:0:0:
448,192,89341,1,0,0:0:0:0:
448,192,89458,1,0,0:0:0:0:
320,192,89575,1,0,0:0:0:0:
64,192,89575,1,0,0:0:0:0:
64,192,89786,1,0,0:0:0:0:
320,192,89786,1,0,0:0:0:0:
320,192,89926,1,0,0:0:0:0:
64,192,90044,1,0,0:0:0:0:
448,192,90044,1,0,0:0:0:0:
192,192,90161,1,0,0:0:0:0:
320,192,90278,1,0,0:0:0:0:
448,192,90278,128,0,94098:0:0:0:0:
192,192,90372,1,0,0:0:0:0:
192,192,90489,1,0,0:0:0:0:
64,192,90489,1,0,0:0:0:0:
192,192,90606,1,0,0:0:0:0:
320,192,90747,1,0,0:0:0:0:
192,192,90864,1,0,0:0:0:0:
320,192,90981,1,0,0:0:0:0:
64,192,90981,1,0,0:0:0:0:
320,192,91122,1,0,0:0:0:0:
64,192,91216,1,0,0:0:0:0:
192,192,91333,1,0,0:0:0:0:
192,192,91473,1,0,0:0:0:0:
192,192,91591,1,0,0:0:0:0:
64,192,91708,1,0,0:0:0:0:
320,192,91708,1,0,0:0:0:0:
320,192,91919,1,0,0:0:0:0:
192,192,92036,1,0,0:0:0:0:
192,192,92176,1,0,0:0:0:0:
64,192,92176,1,0,0:0:0:0:
192,192,92317,1,0,0:0:0:0:
320,192,92434,1,0,0:0:0:0:
64,192,92528,1,0,0:0:0:0:
192,192,92645,1,0,0:0:0:0:
320,192,92645,1,0,0:0:0:0:
192,192,92762,1,0,0:0:0:0:
64,192,92880,1,0,0:0:0:0:
192,192,92997,1,0,0:0:0:0:
192,192,93114,1,0,0:0:0:0:
64,192,93231,1,0,0:0:0:0:
64,192,93372,1,0,0:0:0:0:
320,192,93372,1,0,0:0:0:0:
192,192,93489,1,0,0:0:0:0:
320,192,93606,1,0,0:0:0:0:
192,192,93723,1,0,0:0:0:0:
192,192,93841,1,0,0:0:0:0:
320,192,93841,1,0,0:0:0:0:
64,192,93981,1,0,0:0:0:0:
320,192,94098,1,0,0:0:0:0:
64,192,94098,1,0,0:0:0:0:
192,192,94239,1,0,0:0:0:0:
192,192,94380,1,0,0:0:0:0:
448,192,94380,1,0,0:0:0:0:
320,192,94497,1,0,0:0:0:0:
64,192,94614,1,0,0:0:0:0:
320,192,94614,1,0,0:0:0:0:
192,192,94731,1,0,0:0:0:0:
320,192,94848,1,0,0:0:0:0:
192,192,95036,1,0,0:0:0:0:
448,192,95153,1,0,0:0:0:0:
320,192,95294,1,0,0:0:0:0:
448,192,95411,1,0,0:0:0:0:
192,192,95528,1,0,0:0:0:0:
64,192,95645,1,0,0:0:0:0:
448,192,95762,1,0,0:0:0:0:
320,192,95856,1,0,0:0:0:0:
192,192,95973,1,0,0:0:0:0:
448,192,95973,1,0,0:0:0:0:
192,192,96114,1,0,0:0:0:0:
64,192,96255,1,0,0:0:0:0:
320,192,96255,1,0,0:0:0:0:
192,192,96372,1,0,0:0:0:0:
64,192,96489,1,0,0:0:0:0:
320,192,96583,1,0,0:0:0:0:
192,192,96723,1,0,0:0:0:0:
448,192,96723,1,0,0:0:0:0:
320,192,96841,1,0,0:0:0:0:
320,192,96981,1,0,0:0:0:0:
192,192,96981,1,0,0:0:0:0:
448,192,97098,1,0,0:0:0:0:
64,192,97192,1,0,0:0:0:0:
320,192,97192,1,0,0:0:0:0:
448,192,97426,1,0,0:0:0:0:
320,192,97426,128,0,98997:0:0:0:0:
64,192,97426,1,0,0:0:0:0:
192,192,97426,1,0,0:0:0:0:
192,192,98997,1,4,0:0:0:0:
64,192,98997,1,4,0:0:0:0:
448,192,98997,1,4,0:0:0:0:
