osu file format v9

[General]
AudioFilename: deepseagirl.mp3
AudioLeadIn: 1500
PreviewTime: 43593
Countdown: 1
SampleSet: Soft
StackLeniency: 0.7
Mode: 1
LetterboxInBreaks: 1

[Editor]
DistanceSpacing: 0.8
BeatDivisor: 4
GridSize: 32

[Metadata]
Title:Deep Sea Girl
Artist:Hatsune Miku
Creator:Shino
Version:Taiko
Source:Yuuyu
Tags:haruyo maku vocaloid KRZY

[Difficulty]
HPDrainRate:7
CircleSize:5
OverallDifficulty:5
ApproachRate:5
SliderMultiplier:1.4
SliderTickRate:1

[Events]
//Background and Video events
Video,0,"video.avi"
0,0,"taiko.jpg"
//Break Periods
2,61302,62967
2,127871,129975
2,189185,194354
//Storyboard Layer 0 (Background)
//Storyboard Layer 1 (Fail)
//Storyboard Layer 2 (Pass)
//Storyboard Layer 3 (Foreground)
//Storyboard Sound Samples
//Background Colour Transformations
3,100,163,162,255

[TimingPoints]
1540,437.956204379562,4,2,0,60,1,0
8547,-100,4,2,0,80,0,0
15554,-100,4,2,0,100,0,0
43583,-100,4,2,0,100,0,1
61102,-100,4,2,0,100,0,0
64167,-100,4,2,0,100,0,0
92634,-100,4,2,0,100,0,1
110153,-100,4,2,0,100,0,0
138182,-133.333333333333,4,2,0,50,0,0
152196,-200,4,2,0,40,0,0
153948,-100,4,2,0,40,0,0
160956,-100,4,2,0,60,0,0
164459,-100,4,2,0,80,0,0
167963,-100,4,2,0,90,0,0
171467,-100,4,2,0,100,0,1
188985,-100,4,2,0,100,0,0

[Colours]
Combo1 : 55,162,159
Combo2 : 15,106,244
Combo3 : 192,192,254
Combo4 : 79,123,240

[HitObjects]
224,224,1540,1,0
224,224,1758,1,0
288,224,1977,1,8
224,224,2196,1,0
224,224,2415,1,0
288,224,2853,1,8
288,224,3072,1,8
224,224,3291,1,0
288,224,3729,1,8
224,224,3948,1,0
288,224,4167,1,8
224,224,4386,1,0
224,224,4824,1,0
224,224,5043,5,0
288,224,5481,1,8
224,224,5919,1,0
224,224,6138,1,0
288,224,6357,1,8
224,224,6576,1,0
224,224,6795,1,0
288,224,7233,1,8
224,224,7671,1,0
224,224,7890,1,0
288,224,8109,1,8
224,224,8547,5,0
288,224,8766,1,8
288,224,8985,1,8
224,224,9204,1,0
288,224,9423,1,8
288,224,9861,1,8
224,224,10080,1,0
224,224,10299,1,0
224,224,10518,1,0
288,224,10737,1,8
224,224,10956,1,0
224,224,11175,1,0
288,224,11612,1,8
224,224,11831,1,0
224,224,11941,1,0
224,224,12050,5,0
288,224,12269,1,8
288,224,12488,1,8
224,224,12707,1,0
288,224,12926,1,8
288,224,13145,1,8
224,224,13364,1,0
288,224,13583,1,8
256,192,13802,12,0,15116
224,224,15554,5,0
224,224,15773,1,0
224,224,15883,1,0
288,224,15992,1,8
224,224,16211,1,0
224,224,16430,1,0
224,224,16649,1,0
288,224,16868,1,8
224,224,17087,1,0
224,224,17306,1,0
288,224,17415,1,8
224,224,17525,1,0
224,224,17634,1,0
288,224,17744,1,8
224,224,17963,1,0
224,224,18182,1,0
224,224,18401,1,0
288,224,18620,1,8
224,224,18839,1,0
224,224,19058,5,0
224,224,19167,1,0
288,224,19277,1,8
288,224,19496,1,8
224,224,19715,1,0
288,224,19934,1,8
288,224,20043,1,8
224,224,20153,1,0
288,224,20372,1,8
224,224,20591,1,0
224,224,20810,1,0
288,224,21029,1,8
288,224,21248,1,8
224,224,21467,1,0
224,224,21685,1,0
224,224,21904,1,0
288,224,22123,1,8
224,224,22342,1,0
224,224,22561,5,0
224,224,22671,1,0
224,224,22780,1,0
288,224,22999,1,8
224,224,23218,1,0
288,224,23437,1,8
288,224,23875,1,8
224,224,24094,1,0
288,224,24313,1,8
224,224,24532,1,0
224,224,24751,1,0
288,224,24970,1,8
288,224,25189,1,8
288,224,25627,1,8
224,224,25846,1,0
224,224,25956,1,0
224,224,26065,5,0
224,224,26284,1,0
288,224,26503,1,8
224,224,26722,1,0
288,224,26941,1,8
224,224,27160,1,8
224,224,27379,1,0
288,224,27598,1,8
256,288,27817,2,0,B|416:288,3,140
224,160,29569,5,4
288,224,30445,1,8
224,224,30773,1,0
224,224,31102,1,0
224,224,31321,1,0
224,224,31758,1,0
224,224,31977,1,0
224,224,32087,1,0
288,224,32196,1,8
224,224,32634,1,0
224,224,32853,1,0
224,224,33072,5,0
288,224,33510,1,8
224,224,33729,1,0
288,224,33948,1,8
288,224,34386,1,8
224,224,34605,1,0
224,224,34715,1,0
224,224,34824,1,0
224,224,35043,1,0
288,224,35262,1,8
224,224,35481,1,0
224,224,35700,1,0
288,224,36138,1,8
224,224,36357,1,0
224,224,36576,5,4
288,224,36795,1,8
224,224,37014,1,0
288,224,37233,1,8
224,224,37452,1,0
224,224,37561,1,0
224,224,37780,1,0
288,224,37890,1,8
224,224,38109,1,0
224,224,38328,1,0
288,224,38547,1,8
288,224,38656,1,8
288,224,38766,1,8
224,224,38985,1,0
224,224,39204,1,0
288,224,39642,1,8
224,224,39861,1,0
224,224,40080,5,0
224,224,40518,1,0
224,224,40737,1,0
224,224,41175,1,0
288,224,41394,1,8
224,224,41612,1,0
256,192,41831,12,0,43145
224,160,43583,5,4
224,224,43802,1,0
288,224,44021,1,8
224,224,44240,1,0
224,224,44459,1,0
224,224,44678,1,0
224,224,44788,1,0
288,224,44897,1,8
224,224,45116,1,0
288,224,45335,1,8
224,224,45554,1,0
288,224,45773,1,8
224,224,45992,1,0
224,224,46211,1,0
224,224,46430,1,0
224,224,46539,1,0
288,224,46649,1,8
224,224,46868,1,0
224,224,47087,5,0
288,224,47306,1,8
288,224,47415,1,8
224,224,47525,1,0
288,224,47744,1,8
224,224,47963,1,0
224,224,48182,1,0
224,224,48291,1,0
288,224,48401,1,8
224,224,48620,1,0
288,224,48839,1,8
224,224,49058,1,0
288,224,49277,1,8
224,224,49496,1,0
224,224,49715,1,0
224,224,49934,1,0
224,224,50043,1,0
224,224,50153,1,0
224,224,50262,1,0
224,224,50372,1,0
224,160,50591,5,4
224,224,50810,1,0
224,224,50919,1,0
288,224,51029,1,8
224,224,51248,1,0
224,224,51357,1,0
224,224,51467,1,0
288,224,51685,1,8
224,224,51795,1,0
288,224,51904,1,8
224,224,52123,1,0
288,224,52342,1,8
224,224,52561,1,0
288,224,52780,1,8
288,224,52999,1,8
224,224,53218,1,0
224,224,53437,1,0
288,224,53656,1,8
224,224,53875,1,0
224,224,54094,5,0
224,224,54204,1,0
224,224,54313,1,0
288,224,54532,1,8
224,224,54751,1,0
224,224,54861,1,0
224,224,54970,1,0
288,224,55189,1,8
288,224,55408,1,8
224,224,55627,1,0
224,160,55846,1,4
224,160,56065,1,4
224,160,56284,1,4
224,160,56503,1,4
288,160,56722,1,12
224,224,57160,1,0
288,224,57379,1,8
256,192,57598,12,0,61102
224,224,64167,5,0
224,224,64386,1,0
224,224,64605,1,0
224,224,64824,1,0
288,224,65043,1,8
224,224,65262,1,0
288,224,65481,1,8
224,224,65700,1,0
224,224,65810,1,0
288,224,65919,1,8
224,224,66138,1,0
224,224,66357,1,0
288,224,66576,1,8
288,224,66795,1,8
224,224,67014,1,0
224,224,67233,1,0
288,224,67671,1,8
224,224,67890,1,0
224,224,68109,5,0
288,224,68547,1,8
224,224,68766,1,0
224,224,68985,1,0
288,224,69204,1,8
288,224,69423,1,8
224,224,69642,1,0
288,224,69861,1,8
224,224,70080,1,0
224,224,70189,1,0
288,224,70299,1,8
224,224,70518,1,0
224,224,70737,1,0
288,224,70883,1,8
288,224,71029,1,8
224,224,71175,1,0
224,224,71394,1,0
224,224,71612,5,0
224,224,71831,1,0
224,224,71941,1,0
288,224,72050,1,8
224,224,72269,1,0
288,224,72488,1,8
224,224,72707,1,0
288,224,72926,1,8
224,224,73145,1,0
224,224,73364,1,0
224,224,73583,1,0
288,224,73802,1,8
224,224,74021,1,0
224,224,74240,1,0
224,224,74459,1,0
224,224,74569,1,0
288,224,74678,1,8
224,224,75116,5,0
288,224,75335,1,8
288,224,75445,1,8
288,224,75554,1,8
224,224,75773,1,0
224,224,75992,1,0
288,224,76102,1,8
288,224,76211,1,8
288,224,76430,1,8
224,224,76649,1,0
256,192,76868,12,0,78182
224,224,78620,5,4
224,224,78839,1,0
224,224,78948,1,0
224,224,79277,1,0
288,224,79496,1,8
224,224,79934,1,0
224,224,80153,1,0
224,224,80372,1,0
288,224,80591,1,8
224,224,80700,1,0
224,224,81029,1,0
224,224,81138,1,0
288,224,81248,1,8
224,224,81685,1,0
224,224,81904,1,0
224,224,82014,1,0
224,224,82123,5,0
224,224,82342,1,0
288,224,82561,1,8
224,224,82780,1,0
224,224,82890,1,0
288,224,82999,1,8
224,224,83437,1,0
224,224,83656,1,0
288,224,83875,1,8
288,224,84313,1,8
288,224,84751,1,8
224,224,84970,1,0
288,224,85189,1,8
224,224,85408,1,0
224,224,85518,1,0
224,224,85627,5,8
288,224,85846,1,8
224,224,85956,1,8
288,224,86175,1,8
288,224,86284,1,8
288,224,86503,1,0
288,224,86722,1,0
288,224,86831,1,0
288,224,86941,1,8
224,224,87160,1,0
288,224,87379,1,8
288,224,87488,1,8
288,224,87707,1,8
288,224,87817,1,8
224,224,88036,1,0
224,224,88145,1,0
224,224,88255,1,0
288,224,88474,1,8
288,224,88693,1,8
224,224,88912,1,0
288,224,89131,5,8
224,224,89459,1,0
224,224,89569,1,0
288,224,89788,1,8
224,224,90007,1,0
288,224,90226,1,8
288,224,90445,1,8
224,224,90664,1,0
224,224,90883,1,0
224,224,90992,1,0
288,224,91102,1,8
224,224,91211,1,0
224,224,91321,1,0
224,224,91430,1,0
288,224,91539,1,8
224,224,91649,1,0
224,224,91758,1,0
224,160,92634,5,4
288,224,92853,1,8
288,224,93072,1,8
224,224,93291,1,0
224,224,93510,1,0
224,224,93729,1,0
224,224,93839,1,0
288,224,93948,1,8
224,224,94167,1,0
288,224,94386,1,8
224,224,94605,1,0
288,224,94824,1,8
224,224,95043,1,0
288,224,95262,1,0
224,224,95481,1,0
224,224,95591,1,0
288,224,95700,1,8
224,224,95919,1,0
224,224,96138,5,0
288,224,96357,1,8
288,224,96467,1,8
224,224,96576,1,0
288,224,96795,1,8
224,224,97014,1,0
224,224,97233,1,0
288,224,97452,1,8
224,224,97671,1,0
288,224,97890,1,8
288,224,97999,1,8
224,224,98109,1,0
288,224,98328,1,8
224,224,98547,1,0
224,224,98766,1,0
288,224,98985,1,8
288,224,99094,1,8
224,224,99204,1,0
224,224,99313,1,0
224,224,99423,1,0
224,160,99642,5,4
288,224,99861,1,8
288,224,99970,1,8
224,224,100080,1,0
288,224,100299,1,8
224,224,100518,1,0
224,224,100737,1,0
288,224,100956,1,8
224,224,101175,1,0
288,224,101394,1,8
224,224,101612,1,0
224,224,101722,1,0
288,224,101831,1,8
224,224,102050,1,0
224,224,102269,1,0
288,224,102488,1,8
288,224,102598,1,8
288,224,102707,1,8
224,224,102926,1,0
224,224,103145,5,0
224,224,103255,1,0
288,224,103364,1,8
224,224,103474,1,0
224,224,103583,1,0
224,224,103802,1,0
288,224,104021,1,8
224,224,104240,1,0
288,224,104459,1,8
288,224,104678,1,8
224,160,104897,1,4
224,160,105116,1,4
224,160,105335,1,4
224,160,105554,1,4
288,160,105773,1,12
288,224,106211,1,8
288,224,106430,1,8
256,192,106649,12,0,109715
288,224,110153,5,8
224,224,110372,1,0
288,224,110591,1,8
288,224,110700,1,8
288,224,110810,1,8
288,224,110919,1,8
224,224,111248,1,0
288,224,111467,1,8
288,224,111685,1,8
288,224,111904,1,8
224,224,112123,1,0
224,224,112342,1,0
224,224,112561,1,8
288,224,112999,1,8
288,224,113218,1,0
224,224,113437,1,8
288,224,113656,5,8
224,224,113875,1,0
224,224,114094,1,0
224,224,114313,1,0
224,224,114423,1,0
224,224,114751,1,0
288,224,114970,1,8
224,224,115189,1,0
288,224,115408,1,8
224,224,115627,1,0
224,224,115846,1,0
224,224,116065,1,8
288,224,116503,1,8
224,224,116722,1,0
288,224,116941,1,8
224,224,117160,5,0
288,224,117598,1,8
224,224,117817,1,0
224,224,118036,1,0
288,224,118255,1,8
288,224,118474,1,8
224,224,118693,1,0
224,224,118912,1,0
224,224,119131,1,0
288,224,119350,1,8
288,224,119569,1,8
224,224,120007,1,0
288,224,120226,1,8
288,224,120445,1,8
256,288,120664,6,0,L|416:288,2,140
224,224,121977,1,0
224,224,122415,1,0
288,224,122853,1,8
224,224,123072,1,0
224,224,123510,1,0
288,224,123729,1,8
224,224,123948,1,0
256,192,124167,12,0,127671
224,224,131175,5,0
224,224,131394,1,0
288,224,131612,1,8
224,224,131831,1,0
288,224,132050,1,8
224,224,132269,1,0
288,224,132488,1,8
224,224,132707,1,0
224,224,132926,1,0
224,224,133036,1,0
224,224,133145,1,0
288,224,133364,1,8
224,224,133583,1,0
288,224,133802,1,8
288,224,134021,1,8
288,224,134240,1,8
224,224,134459,1,0
224,224,134678,5,0
288,224,134897,1,8
224,224,135116,1,0
288,224,135335,1,8
224,224,135554,1,0
288,224,135773,1,8
288,224,135992,1,8
224,224,136211,1,0
256,192,136430,12,0,137744
224,224,138182,5,4
224,224,139715,1,0
224,224,139934,1,0
288,224,141248,1,8
224,224,141685,5,0
224,224,143218,1,0
224,224,143437,1,0
288,224,144751,1,8
224,224,145189,5,4
224,224,146503,1,0
224,224,146941,1,0
224,224,147817,1,0
288,224,148255,1,8
224,224,148474,1,0
224,224,148693,5,0
224,224,149788,1,0
224,224,150007,1,0
224,224,150226,1,0
256,192,150445,12,0,151977
224,224,152196,5,0
224,224,153510,1,0
224,224,153948,5,0
288,224,154386,1,8
224,224,154605,1,0
224,224,154824,1,0
288,224,155262,1,8
224,224,155481,1,0
288,224,155700,1,8
288,224,156138,1,8
288,224,156357,1,8
288,224,156576,1,8
288,224,157014,1,8
224,224,157233,1,0
224,224,157452,5,0
288,224,157890,1,8
224,224,158109,1,0
224,224,158328,1,0
288,224,158766,1,8
224,224,158985,1,0
288,224,159204,1,8
224,224,159423,1,0
288,224,159642,1,8
224,224,159861,1,0
224,224,160080,1,0
224,224,160518,1,0
224,224,160737,1,0
224,224,160956,5,0
288,224,161175,1,8
288,224,161284,1,8
224,224,161394,1,0
224,224,161612,1,0
224,224,161831,1,0
224,224,162050,1,0
224,224,162160,1,0
288,224,162269,1,8
224,224,162488,1,0
288,224,162707,1,8
224,224,162926,1,0
288,224,163145,1,8
288,224,163364,1,8
288,224,163474,1,8
224,224,163583,1,0
224,224,163802,1,0
288,224,164021,1,8
224,224,164240,1,0
224,224,164459,5,0
288,224,164897,1,8
224,224,165335,1,0
288,224,165773,1,8
288,224,165992,1,8
224,224,166211,1,0
224,224,166430,1,0
288,224,166649,1,8
224,224,166868,1,0
288,224,167087,1,8
224,224,167306,1,0
224,224,167525,1,0
288,224,167744,1,8
224,224,167963,5,0
288,224,168182,1,0
224,224,168401,1,0
288,224,168620,1,0
224,224,168839,1,0
288,224,169058,1,0
224,224,169277,1,0
288,224,169496,1,0
288,224,169715,1,8
224,224,169934,1,0
288,224,170043,1,8
224,224,170262,1,0
224,224,170372,1,0
288,224,170591,1,8
224,224,170810,1,0
288,224,171029,1,8
288,224,171248,1,8
224,160,171467,5,4
288,224,171685,1,8
288,224,171795,1,8
224,224,171904,1,0
288,224,172123,1,8
288,224,172233,1,8
224,224,172342,1,0
288,224,172561,1,8
288,224,172671,1,8
224,224,172780,1,0
224,224,172999,1,0
224,224,173218,1,0
288,224,173437,1,8
288,224,173656,1,8
224,224,173875,1,0
224,224,174094,1,0
224,224,174313,1,0
288,224,174532,1,8
224,224,174751,1,0
224,160,174970,5,4
224,224,175189,1,0
224,224,175299,1,0
288,224,175408,1,8
224,224,175627,1,0
288,224,175846,1,8
224,224,176065,1,0
288,224,176284,1,8
288,224,176503,1,8
224,224,176722,1,0
288,224,176941,1,8
288,224,177160,1,8
224,224,177379,1,0
224,224,177598,1,0
224,224,177817,1,0
224,224,177926,1,0
288,224,178036,1,8
224,224,178145,1,0
224,224,178255,1,0
224,160,178474,5,4
224,224,178693,1,0
224,224,178802,1,0
288,224,178912,1,8
224,224,179131,1,0
224,224,179240,1,0
224,224,179350,1,0
288,224,179569,1,8
288,224,179678,1,8
288,224,179788,1,8
224,224,180007,1,0
288,224,180226,1,8
224,224,180445,1,0
224,224,180554,1,0
288,224,180664,1,8
288,224,180883,1,8
288,224,181102,1,8
224,224,181321,1,0
288,224,181539,1,8
224,224,181758,1,0
224,224,181977,5,0
224,224,182196,1,0
224,224,182306,1,0
288,224,182415,1,8
224,224,182634,1,0
288,224,182853,1,8
224,224,183072,1,0
224,224,183182,1,0
288,224,183291,1,8
288,224,183510,1,8
224,160,183729,1,4
224,160,183948,1,4
224,160,184167,1,4
224,160,184386,1,4
288,160,184605,1,12
224,224,184824,1,0
224,224,185043,1,0
288,224,185262,1,8
256,192,185481,12,0,187014
256,192,187233,12,4,188985
224,224,195554,5,0
224,224,195992,1,0
224,224,196430,1,0
224,224,196868,1,0
224,224,197306,1,0
224,224,197744,1,0
224,224,198182,1,0
288,224,198620,1,8
224,224,198839,1,0
288,224,198948,1,8
224,224,199167,1,0
288,224,199277,1,8
256,288,199496,6,0,L|416:288,4,140
224,224,201904,1,0
288,160,202123,1,12
288,160,202452,1,12
224,224,202780,1,0
256,192,202999,12,0,206065
256,192,206503,12,0,209788
