osu file format v9

[General]
AudioFilename: deepseagirl.mp3
AudioLeadIn: 1500
PreviewTime: 43593
Countdown: 1
SampleSet: Soft
StackLeniency: 1
Mode: 0
LetterboxInBreaks: 1

[Editor]
DistanceSpacing: 0.8
BeatDivisor: 4
GridSize: 8

[Metadata]
Title:Deep Sea Girl
Artist:Hatsune Miku
Creator:Shino
Version:Normal
Source:Yuuyu
Tags:haruyo maku vocaloid KRZY

[Difficulty]
HPDrainRate:4
CircleSize:4
OverallDifficulty:4
ApproachRate:6
SliderMultiplier:1.4
SliderTickRate:1

[Events]
//Background and Video events
Video,0,"video.avi"
0,0,"bg2.jpg"
//Break Periods
2,61302,63555
2,127871,130125
2,189185,194504
//Storyboard Layer 0 (Background)
//Storyboard Layer 1 (Fail)
//Storyboard Layer 2 (Pass)
//Storyboard Layer 3 (Foreground)
//Storyboard Sound Samples
//Background Colour Transformations
3,100,163,162,255

[TimingPoints]
1540,437.956204379562,4,2,1,20,1,0
8547,-100,4,2,1,40,0,0
15554,-100,4,2,1,60,0,0
43583,-100,4,2,1,60,0,1
61102,-100,4,2,1,60,0,0
92634,-100,4,2,1,60,0,1
110153,-100,4,2,1,60,0,0
138182,-200,4,2,1,20,0,0
152196,-200,4,2,1,0,0,0
153510,-100,4,2,1,40,0,0
171467,-100,4,2,1,60,0,1
188985,-100,4,2,1,60,0,0
195554,-100,4,2,1,60,0,0

[Colours]
Combo1 : 55,162,159
Combo2 : 15,106,244
Combo3 : 192,192,254
Combo4 : 79,123,240

[HitObjects]
64,224,1540,2,0,B|192:288,1,140,2|0
80,304,2415,2,0,B|208:368,1,140,2|0
304,304,3291,1,2
400,368,3729,1,2
496,304,4167,1,2
464,80,5043,6,0,B|398:32|329:80,1,140
392,176,5919,2,0,B|248:176,1,140
308,78,6795,2,0,B|242:30|173:78,1,140
224,176,7671,1,0
128,112,8109,1,2
32,64,8547,6,0,B|32:208,1,140,0|2
112,128,9423,2,0,B|112:288,1,140,0|2
192,192,10299,2,0,B|192:352,2,140,0|2|2
256,192,12050,8,0,13802
72,96,15554,5,0
184,96,15992,2,0,B|344:96,1,140,2|0
440,96,16868,1,8
440,208,17306,1,0
328,208,17744,2,0,B|168:208,1,140,2|0
72,208,18620,1,8
120,304,19058,6,0,B|256:368|392:304,2,280
200,232,21248,1,2
256,232,21467,1,2
312,232,21685,1,2
256,136,22123,1,8
200,40,22561,6,0,B|128:80,2,70,0|0|8
312,40,23437,2,0,B|384:80,2,70,2|0|8
232,120,24313,5,2
280,144,24532,1,0
312,192,24751,1,2
280,240,24970,1,0
232,264,25189,1,0
144,192,25627,6,0,B|0:192,1,140,8|0
64,288,26503,2,0,B|208:368,1,140,8|0
176,240,27379,2,0,B|320:320,1,140,8|0
288,192,28255,2,0,B|432:272,1,140,8|0
480,32,29569,5,4
288,160,30445,1,2
480,288,31321,1,0
288,160,32196,1,2
104,32,33072,6,0,B|48:168,1,140,0|8
162,164,33948,2,0,B|218:300,1,140,0|8
104,264,34824,2,0,B|67:341|136:384,2,140,2|0|2
328,264,36576,5,0
416,192,37014,1,8
312,152,37452,1,0
400,80,37890,1,8
296,32,38328,2,0,B|128:40|128:216,1,280,2|2
256,192,40080,8,0,41831
256,80,43145,5,0
256,192,43583,1,4
208,296,44021,1,8
256,328,44240,1,0
304,296,44459,1,0
408,256,44897,6,0,B|448:192|400:120,1,140,8|0
323,44,45773,2,0,B|254:80|171:36,1,140,8|0
120,136,46649,1,8
120,248,47087,5,0
32,320,47525,1,2
32,264,47744,1,0
32,208,47963,2,0,B|32:64,1,140,0|2
144,48,48839,2,0,B|208:80,4,70,8|0|8|0|0
144,160,50153,1,2
256,192,50591,5,4
304,296,51029,1,8
256,328,51248,1,0
208,296,51467,1,0
104,256,51904,6,0,B|64:192|112:120,1,140,8|0
189,44,52780,2,0,B|258:80|341:36,1,140,8|0
392,136,53656,1,8
392,248,54094,6,0,B|320:368,1,140,0|2
256,272,54970,1,0
144,272,55408,1,2
160,160,55846,5,8
208,136,56065,1,8
256,160,56284,1,8
352,224,56722,5,4
304,248,56941,1,0
256,224,57160,1,0
256,192,57598,8,0,61102
256,192,64605,5,0
352,256,65043,1,2
400,224,65262,1,2
400,168,65481,1,0
352,64,65919,1,8
240,80,66357,2,0,B|96:120,1,140
48,208,67233,2,0,B|88:352,1,140,0|8
200,344,68109,5,0
296,288,68547,1,2
296,232,68766,1,2
344,256,68985,1,0
456,256,69423,1,8
456,144,69861,2,0,B|456:64,4,70,2|0|2|0|0
344,144,71175,1,8
256,80,71612,5,0
168,144,72050,1,2
136,192,72269,1,0
168,240,72488,1,2
280,240,72926,2,0,B|280:152,2,70,8|0|0
256,352,73802,2,0,B|96:352,1,140,2|0
32,272,74678,1,8
32,160,75116,5,0
136,192,75554,1,8
176,152,75773,1,8
216,192,75992,1,0
320,240,76430,1,2
384,240,76649,1,2
352,184,76868,2,0,B|328:56|192:40,2,210
352,296,78620,5,4
184,296,79277,1,0
224,256,79496,1,8
112,64,80372,1,0
64,168,80810,1,0
112,200,81029,1,0
160,168,81248,1,8
392,168,82123,5,0
344,272,82561,1,0
304,168,82999,1,8
256,272,83437,1,0
216,168,83875,2,0,B|120:272,2,140,2|0|8
32,32,85627,5,0
144,64,86065,2,0,B|208:-8,2,70,8|0|0
64,144,86941,2,0,B|0:216,2,70,8|0|0
176,176,87817,1,2
256,256,88255,1,0
336,176,88693,1,2
256,192,89131,8,0,90883
48,192,92196,5,0
112,96,92634,2,0,B|192:88|256:152,1,140,4|8
152,208,93510,1,2
80,288,93948,2,0,L|24:344,2,70,8|0|0
192,288,94824,2,0,L|248:344,2,70,8|0|0
256,192,95700,1,8
312,288,96138,5,0
424,288,96576,2,0,L|496:216,1,70,8|0
472,184,97014,2,0,L|384:184,2,70,2|0|2
472,72,97890,5,0
424,48,98109,1,0
376,72,98328,1,2
288,144,98766,1,0
256,40,99204,1,8
160,96,99642,6,0,B|80:112|64:192,1,140,4|0
64,240,100299,2,0,B|80:320|176:352,2,140,0|2|2
64,176,101394,1,0
160,112,101831,1,8
256,176,102269,1,0
160,240,102707,1,8
256,288,103145,6,0,B|416:288,1,140
464,208,104021,2,0,B|320:208,1,140
304,96,104897,5,8
256,128,105116,1,8
208,96,105335,1,8
208,288,105773,5,4
256,256,105992,1,0
304,288,106211,1,0
256,192,106649,8,0,109058
256,192,110153,5,0
368,160,110591,2,0,B|304:112,1,70,0|2
368,224,111248,2,0,B|304:288,1,70,0|2
208,304,111904,5,0
160,288,112123,1,0
144,240,112342,1,0
160,192,112561,2,0,B|224:144|192:64,1,140,8|8
96,112,113437,5,0
64,160,113656,2,0,B|32:240|96:304,1,140
144,288,114313,2,0,B|224:336|288:288,1,140,2|0
336,288,114970,1,2
392,192,115408,5,8
360,144,115627,1,0
312,144,115846,1,0
280,192,116065,1,8
336,288,116503,1,8
224,288,116941,5,0
176,256,117160,2,0,L|112:224|96:144,1,140,0|2
96,96,117817,2,0,L|160:64|240:80,1,140
256,128,118474,1,2
352,192,118912,6,0,B|416:256,2,70
320,144,119569,2,0,B|256:112|176:144,1,140,8|8
160,192,120226,2,0,B|96:256,1,70
160,272,120664,2,0,B|256:352|368:320|416:224,1,280,2|0
208,128,122415,5,0
176,240,122853,2,0,L|240:304,1,70,8|0
336,240,123510,2,0,L|272:304,2,70,0|8|0
256,192,124167,8,4,127671
80,96,131175,5,0
48,144,131394,1,0
80,192,131612,1,8
176,144,132050,2,0,L|256:144,2,70,0|0|8
192,272,132926,5,0
256,368,133364,2,0,L|256:288,1,70,8|0
304,272,133802,2,0,L|368:240,2,70,0|0|8
336,144,134678,6,0,L|384:208,1,70,2|0
432,200,135116,2,0,L|480:136,1,70,2|0
440,96,135554,2,0,L|344:96,2,70,2|0|0
256,192,136430,8,4,138182
64,192,139715,5,0
64,192,139934,1,0
448,192,141248,5,2
448,192,141685,1,0
256,336,143218,5,0
256,336,143437,1,0
256,48,144751,6,0,L|256:128,1,70,2|4
228,284,146503,5,0
284,284,146941,1,0
256,192,148255,6,0,L|256:112,1,70,2|2
256,192,150445,8,0,152196
256,192,153510,5,2
368,160,153948,2,0,L|448:128,1,70,0|2
400,192,154386,2,0,L|496:192,1,70,2|0
368,224,154824,2,0,L|448:256,2,70,0|0|2
256,192,155700,5,0
192,96,156138,1,2
144,72,156357,1,2
144,120,156576,1,0
64,192,157014,6,0,L|-16:192,2,70,2|0|0
144,272,157890,1,2
192,304,158109,1,2
240,272,158328,1,0
256,160,158766,1,2
368,192,159204,5,0
424,96,159642,1,2
312,96,160080,1,0
376,312,160956,5,0
312,224,161394,1,8
200,224,161831,1,0
136,312,162269,1,8
256,312,162707,5,0
256,192,163145,1,0
256,80,163583,1,4
48,160,164459,6,0,B|96:240|176:192,1,140,0|2
256,128,165335,2,0,B|342:85|385:187,1,140,0|2
304,256,166211,5,0
208,304,166649,1,0
160,208,167087,1,0
256,160,167525,1,8
256,192,167963,8,0,170591
400,112,171467,5,4
368,160,171685,1,0
400,208,171904,2,0,L|480:256,2,70,8|0|0
304,248,172780,5,8
256,264,172999,1,0
208,248,173218,1,0
208,136,173656,1,8
256,120,173875,1,0
304,136,174094,1,0
184,192,174532,1,8
96,192,174970,5,4
48,288,175408,1,8
160,320,175846,1,2
212,304,176065,1,0
240,256,176284,1,8
256,144,176722,6,0,L|328:88,1,70,4|0
352,132,177160,2,0,L|408:200,1,70,4|0
416,240,177598,2,0,B|368:304|272:288,1,140,4|2
256,176,178474,5,4
288,128,178693,1,0
256,80,178912,2,0,L|176:80,1,70,8|0
186,80,179350,1,0
88,136,179788,1,8
184,192,180226,5,0
136,216,180445,1,0
112,264,180664,2,0,B|96:312|160:344,2,70,8|8|0
208,320,181540,2,0,B|352:320,1,140,2|0
448,256,182415,5,8
352,200,182853,1,0
448,144,183291,1,8
352,88,183729,2,0,B|272:104,1,70,8|8
240,56,184167,2,0,B|192:120,1,70,8|8
144,88,184605,2,0,B|128:168,1,70,4|0
128,216,185043,1,8
256,192,185481,8,4,188985
144,272,195554,5,0
256,296,195992,1,8
368,272,196430,1,8
416,168,196868,1,8
332,96,197306,1,8
256,176,197744,1,8
180,96,198182,1,8
96,168,198620,2,0,B|16:64,2,105,8|8|8
144,224,199496,6,0,B|180:280|212:304|256:312|316:296|344:272|372:212,2,280
256,32,202123,1,4
256,112,202452,1,0
256,192,202780,1,0
256,192,202999,12,0,206065
256,192,206503,12,0,209788
