osu file format v9

[General]
AudioFilename: deepseagirl.mp3
AudioLeadIn: 1500
PreviewTime: 43593
Countdown: 1
SampleSet: Soft
StackLeniency: 1
Mode: 0
LetterboxInBreaks: 1

[Editor]
DistanceSpacing: 0.8
BeatDivisor: 2
GridSize: 16

[Metadata]
Title:Deep Sea Girl
Artist:Hatsune Miku
Creator:Shino
Version:Easy
Source:Yuuyu
Tags:haruyo maku vocaloid KRZY

[Difficulty]
HPDrainRate:2
CircleSize:3
OverallDifficulty:2
ApproachRate:3
SliderMultiplier:1.2
SliderTickRate:1

[Events]
//Background and Video events
Video,0,"video.avi"
0,0,"bg1.jpg"
//Break Periods
2,61302,63165
2,127871,129735
//Storyboard Layer 0 (Background)
//Storyboard Layer 1 (Fail)
//Storyboard Layer 2 (Pass)
//Storyboard Layer 3 (Foreground)
//Storyboard Sound Samples
//Background Colour Transformations
3,100,163,162,255

[TimingPoints]
1540,437.956204379562,4,2,1,20,1,0
8547,-100,4,2,1,40,0,0
15554,-100,4,2,1,60,0,0
43583,-100,4,2,1,60,0,1
61102,-100,4,2,1,60,0,0
92634,-100,4,2,1,60,0,1
110153,-100,4,2,1,60,0,0
138182,-200,4,2,1,20,0,0
152196,-200,4,2,1,0,0,0
153510,-100,4,2,1,30,0,0
171467,-100,4,2,1,60,0,1
188985,-100,4,2,1,60,0,0

[Colours]
Combo1 : 55,162,159
Combo2 : 15,106,244
Combo3 : 192,192,254
Combo4 : 79,123,240

[HitObjects]
128,304,1539,1,0
48,128,2415,1,0
128,64,2853,1,2
208,128,3291,1,0
400,128,4167,1,2
400,320,5043,6,0,B|288:256,2,120
400,224,6357,1,2
336,144,6795,1,0
160,224,7671,1,0
256,64,8547,6,0,B|128:64|64:192,1,240
96,288,9861,1,2
192,320,10299,2,0,B|320:320|384:192,1,240
256,192,12050,12,0,13802
192,240,15554,5,0
288,240,15992,1,8
320,144,16430,2,0,B|416:48,2,120,0|8|0
224,144,17744,1,8
192,240,18182,1,0
96,80,19058,6,0,B|48:128|48:192,1,120,0|8
144,160,19934,2,0,B|192:208|192:272,1,120,0|8
96,240,20810,1,2
16,304,21248,1,2
96,368,21685,1,2
288,336,22561,6,0,B|416:336,2,120,0|8|0
224,256,23875,1,2
288,176,24313,2,0,B|416:176,2,120,0|8|0
128,80,26065,6,0,B|48:192|128:304,2,240
208,144,28255,1,0
208,240,28693,1,0
400,288,29569,5,4
312,112,30445,1,8
224,288,31321,1,0
136,112,32196,2,0,B|352:256,1,240,8|0
160,224,33948,5,8
32,96,34824,2,0,B|32:224,2,120,0|0|8
224,96,36576,5,0
164,172,37014,1,0
100,244,37452,1,2
288,288,38328,5,0
348,212,38766,1,0
412,140,39204,1,2
256,192,40080,12,0,41831
464,64,43583,5,4
400,224,44459,1,0
304,224,44897,1,8
352,304,45335,1,0
160,304,46211,1,0
256,144,47087,5,0
200,64,47525,2,0,B|256:28|320:68,2,120,8|0|8
256,144,48839,1,2
256,240,49277,1,2
256,336,49715,1,2
48,320,50591,5,4
112,160,51467,1,0
208,160,51905,1,8
160,80,52343,1,0
352,80,53219,1,0
480,224,54094,6,0,B|352:224,2,120,0|2|0
416,304,55408,1,2
336,336,55846,2,0,B|208:336,2,120,8|8|4
272,256,57160,1,2
256,192,57598,12,0,61102
416,144,64605,5,0
416,240,65043,1,2
336,192,65481,2,0,B|192:192,1,120,0|8
160,112,66357,5,0
96,192,66795,1,0
160,272,67233,1,0
352,272,68109,5,0
256,112,68985,1,2
448,112,69861,2,0,B|336:192,2,120,0|2|0
320,256,71612,5,0
256,336,72050,1,8
192,256,72488,1,0
256,80,73364,5,0
304,160,73802,1,8
208,160,74240,1,0
144,256,75116,6,0,B|256:332|384:248,2,240
256,96,77744,1,2
80,160,78620,5,4
176,320,79496,1,8
256,272,79934,1,0
336,320,80372,1,0
432,160,81248,1,8
256,96,82123,5,0
160,96,82561,1,0
104,176,82999,1,8
256,288,83875,5,0
352,288,84313,1,0
408,208,84751,1,2
256,96,85627,5,0
200,176,86065,1,8
144,256,86503,1,0
256,96,87379,5,0
312,176,87817,1,8
368,256,88255,1,0
256,192,89131,12,8,90883
160,272,92634,5,4
112,192,93072,1,8
160,112,93510,2,0,B|112:48,2,60,0|0|8
256,144,94386,2,0,B|288:200|272:272,1,120,0|8
368,240,95262,2,0,B|336:184|352:112,1,120,0|2
304,40,96138,5,4
144,144,97014,1,0
208,224,97452,1,8
304,256,97890,2,0,B|304:336,2,60,0|0|8
400,224,98766,1,0
464,144,99204,1,2
384,96,99642,6,0,B|240:96,1,120,4|8
288,192,100518,1,0
192,192,100956,1,8
112,128,101394,2,0,B|112:272,2,120,0|8|0
64,320,103145,6,0,B|184:368|304:304,1,240,0|2
304,112,104897,2,0,B|224:224,1,120,8|8
336,224,105773,2,0,B|432:304,1,120,4|0
256,192,106649,12,0,108401
256,96,110153,6,0,B|160:56|96:144,1,180,8|8
160,272,111467,1,2
256,288,111904,2,0,B|352:328|416:240,1,180,8|8
384,96,113218,1,2
288,96,113656,6,0,B|96:96,1,180,8|8
48,224,114970,1,2
128,288,115408,2,0,B|240:304|256:192,2,180,8|8|2
144,192,117160,5,0
304,80,118036,1,0
384,144,118474,1,8
384,240,118912,1,0
224,144,119788,5,8
160,80,120226,1,0
96,144,120664,2,0,B|96:288|256:288,2,240,0|0|8
256,48,123291,1,2
256,192,124167,12,4,127671
160,96,131175,6,0,B|320:96,2,120,0|8|0
96,160,132488,1,8
32,224,132926,2,0,B|144:288,2,120,0|8|0
208,320,134678,2,0,B|336:320,1,120,2|0
432,320,135554,2,0,B|432:176,1,120,2|0
256,192,136430,12,4,138182
256,240,139934,5,0
64,192,141685,5,0
256,144,143437,5,0
400,192,144751,6,0,B|320:192,1,60,0|4
256,304,146503,6,0,B|256:224,1,60
112,192,148255,5,2
160,192,148693,1,0
256,192,150445,12,0,152196
416,304,153510,6,0,B|416:176,1,120,2|0
360,104,154386,1,2
304,184,154824,1,0
128,272,155700,2,0,B|32:192,2,120
80,80,157452,6,0,B|208:80,1,120,2|0
144,160,158328,2,0,B|272:192,1,120,2|0
192,256,159204,2,0,B|304:352,1,120,2|0
384,336,160080,1,0
464,160,160956,5,0
384,112,161394,1,8
304,160,161831,1,0
112,160,162707,2,0,B|112:288,2,120,8|8|4
256,288,164459,6,0,B|312:332|376:280,1,120
416,208,165335,2,0,B|360:164|296:216,1,120
208,208,166211,1,0
80,64,167087,1,0
256,192,167963,12,0,169715
432,304,171467,5,4
432,112,172342,2,0,B|304:112,1,120,0|8
256,192,173218,1,0
176,144,173656,1,2
176,240,174094,1,0
64,80,174970,5,4
256,80,175846,1,0
208,160,176284,1,2
304,160,176722,2,0,B|432:160,2,120,8|8|0
416,320,178474,5,4
328,280,178912,1,8
296,192,179350,1,0
168,48,180226,1,0
88,96,180664,2,0,B|88:160,2,60,8|8|0
144,288,181977,6,0,B|288:288,1,120,0|2
256,192,182853,2,0,B|400:192,1,120,0|2
448,128,183729,1,8
384,56,184167,1,8
288,56,184605,1,4
256,192,185481,12,4,188985
