osu file format v9

[General]
AudioFilename: Hatsune Miku-Dance of many.mp3
AudioLeadIn: 0
PreviewTime: 60019
Countdown: 0
SampleSet: Normal
StackLeniency: 0.7
Mode: 0
LetterboxInBreaks: 1

[Editor]
Bookmarks: 1331,12806,23298,33790,39199,49527,54773,60019,83626,91494,101822,112478,125593,149199
DistanceSpacing: 0.6
BeatDivisor: 4
GridSize: 8

[Metadata]
Title:Dance of many
Artist:Hatsune Miku
Creator:zxc2043
Version:Insane
Source:
Tags:

[Difficulty]
HPDrainRate:7
CircleSize:4
OverallDifficulty:7
ApproachRate:8
SliderMultiplier:1.50000000596046
SliderTickRate:0.5

[Events]
//Background and Video events
0,0,"MIKU.jpg"
//Break Periods
2,33990,38450
2,83826,90745
2,102023,111729
2,123170,124843
//Storyboard Layer 0 (Background)
//Storyboard Layer 1 (Fail)
//Storyboard Layer 2 (Pass)
//Storyboard Layer 3 (Foreground)
//Storyboard Sound Samples
//Background Colour Transformations
3,100,163,162,255

[TimingPoints]
11495,327.868852459016,4,1,0,100,1,0
12806,-153.846153846154,4,1,0,35,0,0
23298,-100,4,1,0,35,0,0
49508,-200,4,1,0,35,0,0
54754,-100,4,1,0,35,0,0
91494,-100,4,1,0,35,0,1
101822,-100,4,1,0,35,0,0
112478,-200,4,1,0,35,0,0
125593,-100,4,1,0,35,0,1
149199,-100,4,1,0,40,0,0

[Colours]
Combo1 : 255,135,197
Combo2 : 255,0,255
Combo3 : 135,183,255
Combo4 : 135,255,172
Combo5 : 255,169,135

[HitObjects]
72,144,12806,2,0,B|72:72|184:72,1,146.249997965991
224,72,13462,1,0
288,72,13626,1,0
368,112,13790,1,2
504,208,14117,6,0,B|504:296|400:296,1,146.249997965991
352,288,14773,1,0
288,320,14937,1,0
200,272,15101,1,2
48,344,15429,6,0,B|-8:296|48:248,1,97.4999986439941
96,248,15921,2,0,B|128:184|72:152,1,97.4999986439941
24,168,16413,2,0,B|-8:104|56:80,1,97.4999986439941
168,32,16904,2,0,B|160:136|216:112|320:88|312:208,1,243.749996609985
480,32,18052,6,0,B|384:32|480:152,1,146.249997965991
456,184,18708,1,0
440,248,18872,1,0
384,328,19035,1,2
336,208,19364,6,0,B|248:168|224:288,1,146.249997965991
200,304,20019,1,0
136,288,20183,1,0
64,216,20347,1,2
72,32,20675,6,0,B|24:64|40:128,1,97.4999986439941
112,152,21167,2,0,B|152:105|208:161,1,97.4999986439941
256,192,21658,1,2
256,192,21822,1,2
256,192,22069,12,0,22970
448,24,23298,6,0,B|384:88,1,75.000000298023
328,128,23626,1,8
400,168,23790,1,0
432,288,23954,6,8,B|376:232,1,75.000000298023,0|0
288,256,24281,1,8
232,336,24445,1,0
136,312,24610,6,0,B|72:248,1,75.000000298023,0|0
32,168,24938,2,0,B|88:80,1,75.000000298023,8|0
136,32,25265,5,0
176,120,25429,1,0
240,64,25593,1,8
320,128,25757,1,0
432,8,25921,6,0,B|512:64,1,75.000000298023
432,128,26249,2,0,B|352:176,1,75.000000298023,8|0
368,168,26576,1,0
384,248,26741,1,0
320,296,26905,1,8
320,296,27069,1,0
224,192,27232,6,0,B|152:240,1,75.000000298023
176,296,27560,2,0,B|104:328,1,75.000000298023,8|0
40,304,27888,1,0
16,208,28052,1,0
104,160,28216,1,8
136,72,28380,1,0
16,48,28544,6,0,B|16:96|64:128,1,75.000000298023
80,208,28872,2,0,B|144:216|160:176,1,75.000000298023,8|0
152,96,29200,2,0,B|168:56|224:40,1,75.000000298023
296,8,29528,1,8
384,56,29692,1,0
296,104,29856,1,0
384,144,30019,1,0
392,200,30183,6,0,B|480:256,1,75.000000298023,8|0
328,264,30511,2,0,B|360:352|360:352,1,75.000000298023
352,336,30839,1,8
352,336,31003,1,0
256,192,31167,12,0,33790
64,56,39200,6,0,B|96:120|144:104,1,75.000000298023,0|8
48,208,39528,2,0,B|80:176|144:160,1,75.000000298023,0|8
176,176,39856,2,0,B|184:224|240:232,1,75.000000298023,0|8
176,112,40183,2,0,B|208:80|264:72,1,75.000000298023,0|8
288,40,40511,5,0
336,128,40675,1,0
408,64,40839,1,0
472,144,41003,1,0
480,232,41167,2,0,B|352:232|352:320|496:320,1,225.000000894069
352,336,41823,5,8
304,240,41987,1,0
256,336,42151,1,8
176,264,42315,1,0
72,312,42479,1,8
48,216,42642,1,0
88,128,42806,1,8
16,64,42970,2,0,B|64:0,1,75.000000298023,0|8
72,64,43298,2,0,B|160:8,1,75.000000298023,0|8
136,88,43626,2,2,B|168:136|176:160|208:128|216:112|232:80|248:56|288:72|304:112,1,225.000000894069
304,112,44282,1,0
432,32,44446,6,0,B|392:72|392:72|416:88,1,75.000000298023,8|0
504,96,44774,2,0,B|520:128|520:128|472:152,1,75.000000298023,8|0
384,160,45101,2,0,B|360:200|360:200|384:216,1,75.000000298023,8|0
488,232,45429,5,8
496,328,45593,1,0
400,320,45757,1,8
360,232,45921,1,0
240,136,46085,2,0,B|240:216,1,75.000000298023,8|0
240,208,46413,2,2,B|184:253|304:285|224:365,1,150.000000596046,0|0
24,336,46905,5,0
112,288,47069,1,8
48,224,47233,2,0,B|0:152,1,75.000000298023,0|4
24,32,47560,5,0
72,120,47724,1,8
168,88,47888,2,0,B|248:56,1,75.000000298023,0|4
272,40,48216,1,0
416,24,48380,6,0,B|360:96,1,75.000000298023,0|8
392,176,48708,6,0,B|472:224,1,75.000000298023,0|8
464,312,49036,6,0,B|416:368,1,75.000000298023,0|8
48,288,49528,6,0,B|80:336|168:336|224:272|256:312|272:336|296:360|320:360|336:344|344:336,1,300.000001192092,4|0
424,328,51167,2,0,B|480:336|496:304,1,75.000000298023
440,224,51823,1,0
456,160,52151,2,0,B|456:88|256:88|256:168|256:8,1,300.000001192092
200,56,53790,1,2
184,152,54118,1,2
256,224,54446,1,2
488,304,54774,5,0
424,232,54938,1,0
360,304,55101,1,8
288,232,55265,1,0
216,304,55429,1,0
32,336,55593,6,0,B|104:296,1,75.000000298023,0|8
40,264,55921,6,0,B|112:224,1,75.000000298023,0|0
48,200,56249,6,0,B|128:160,1,75.000000298023,0|8
56,104,56577,5,0
144,40,56741,1,0
144,40,56905,1,0
224,120,57069,1,8
224,120,57233,1,0
352,128,57397,6,2,B|512:128,1,150.000000596046
160,232,58052,2,2,B|0:232,1,150.000000596046
256,192,58708,12,0,59691
16,24,60019,6,0,B|88:40|104:72,1,75.000000298023
120,88,60347,1,0
40,136,60511,1,0
128,184,60675,1,8
112,272,60839,1,0
48,312,61003,6,0,B|72:296|128:264,1,75.000000298023
224,272,61331,1,0
304,216,61495,1,0
232,144,61659,1,8
296,64,61823,1,0
440,16,61987,6,0,B|432:40|432:40|408:88,1,75.000000298023
472,96,62315,2,0,B|432:136|432:136|400:168,1,75.000000298023
504,184,62642,6,0,B|552:240|408:296,1,150.000000596046
432,288,63134,1,0
392,208,63298,2,0,B|392:248|392:368,1,150.000000596046,0|4
304,344,63790,6,0,B|208:224,1,150.000000596046
152,296,64282,1,0
152,296,64446,1,4
32,280,64610,6,0,B|72:352,2,75.000000298023
96,208,65101,1,0
24,144,65265,1,0
96,80,65429,1,0
120,0,65593,2,0,B|160:-32|208:24,1,75.000000298023
232,96,65921,1,2
192,184,66085,1,0
328,184,66249,5,0
320,88,66413,1,0
400,32,66577,2,0,B|440:0|464:72,1,75.000000298023,0|2
456,56,66905,1,0
456,56,67069,1,0
392,128,67232,2,0,B|336:144|376:192,1,75.000000298023
464,192,67560,2,0,B|472:240|440:272,1,75.000000298023
448,264,67888,5,0
432,344,68052,1,0
360,296,68216,1,0
296,360,68380,1,0
240,288,68544,1,0
160,360,68708,1,0
104,280,68872,1,0
32,216,69036,1,0
104,152,69200,1,0
32,88,69364,1,0
104,24,69528,1,0
200,40,69692,1,0
264,112,69855,2,2,B|208:120|248:168|328:184|256:232,1,150.000000596046
48,48,70511,6,0,B|136:88|56:112,1,75.000000298023
24,176,70839,1,0
104,232,71003,1,0
24,288,71167,1,2
104,336,71331,1,0
184,352,71494,6,0,B|200:296|232:328|264:296|240:280,1,75.000000298023
336,320,71823,1,0
360,224,71987,1,0
264,216,72151,1,2
216,136,72315,1,0
224,64,72478,6,0,B|296:112,1,75.000000298023
288,32,72806,2,0,B|288:112,1,75.000000298023
408,104,73134,2,0,B|352:40|352:40|416:40|416:40,1,150.000000596046
480,32,73626,1,0
496,96,73790,6,0,B|416:224,1,150.000000596046
320,200,74282,1,0
344,296,74446,1,0
256,264,74610,1,0
208,352,74774,1,0
120,312,74938,1,0
8,216,75102,5,2
104,104,75265,1,2
200,216,75429,1,2
136,32,75757,5,0
48,72,75921,1,0
24,168,76085,2,0,B|64:240,1,75.000000298023
104,320,76413,1,2
192,272,76576,1,0
160,184,76740,5,0
208,96,76905,1,0
288,152,77069,2,0,B|320:160|320:120|336:88|352:88,1,75.000000298023
344,24,77397,1,2
344,24,77560,1,0
448,16,77724,6,0,B|400:40|416:80,1,75.000000298023
496,112,78052,2,0,B|520:152|504:192,1,75.000000298023
424,224,78380,2,0,B|480:296|464:336|368:272,1,150.000000596046
320,192,78872,5,0
280,144,79036,1,0
208,88,79200,1,0
104,80,79364,1,0
32,160,79527,1,0
160,272,79692,6,2,B|144:344|80:320|40:256,1,150.000000596046,0|0
48,136,80183,2,2,B|72:88|96:40|176:160,1,150.000000596046,0|0
256,192,80675,1,4
256,192,80839,1,4
256,192,81003,12,0,83626
296,24,91495,6,0,B|320:48|352:80,1,75.000000298023,0|0
480,88,91823,2,0,B|448:120|424:144,1,75.000000298023,0|0
296,160,92151,2,0,B|320:184|360:216,1,75.000000298023,0|0
480,216,92479,2,0,B|456:240|424:272,1,75.000000298023,0|0
336,248,92806,5,0
376,328,92970,1,0
280,320,93134,1,0
280,320,93298,1,0
224,240,93462,1,0
224,240,93626,1,0
160,312,93790,1,0
160,312,93954,1,0
72,272,94117,6,0,B|8:320,1,75.000000298023,0|0
24,192,94445,1,0
24,192,94527,1,0
24,192,94609,1,0
112,136,94773,5,0
112,136,94855,1,0
112,136,94937,1,0
40,64,95101,5,0
40,64,95183,1,0
40,64,95265,1,0
208,16,95429,6,0,B|160:80,1,75.000000298023,0|0
208,112,95757,2,0,B|160:176,1,75.000000298023,0|0
256,176,96085,6,0,B|320:232,1,75.000000298023,0|0
256,264,96413,2,0,B|320:320,1,75.000000298023,0|0
456,16,96741,5,8
376,72,96904,1,0
464,112,97069,1,8
384,168,97232,1,0
472,208,97397,1,8
480,304,97560,1,0
392,272,97724,1,8
336,344,97888,1,0
336,344,98052,1,8
280,264,98216,1,0
280,264,98380,1,8
272,128,98544,6,0,B|272:176|216:176,1,75.000000298023,0|8
216,216,98872,6,0,B|160:216|160:296,1,75.000000298023,0|8
160,296,99200,6,0,B|160:344|104:344,1,75.000000298023,0|8
40,312,99527,5,0
56,280,99610,1,0
80,256,99692,1,0
96,200,99855,5,0
24,136,100019,1,0
48,56,100183,1,2
144,32,100347,1,0
176,128,100511,1,0
232,208,100675,1,2
320,168,100839,1,0
384,56,101003,5,0
384,56,101167,1,2
448,192,101331,5,0
448,192,101494,1,0
360,312,101658,5,2
360,312,101823,1,0
32,112,112479,6,0,B|128:40,1,112.500000447034
136,152,113134,2,0,B|216:240,1,112.500000447034
256,112,113790,6,0,B|352:40,1,112.500000447034
360,152,114446,2,0,B|440:240,1,112.500000447034
488,48,115101,6,0,B|488:112|488:160|488:176,1,112.500000447034
432,224,115757,2,0,B|432:248|432:280|432:344,1,112.500000447034
336,328,116413,6,0,B|352:264|232:240|224:264,1,150.000000596046
176,328,117396,1,0
80,304,117724,2,0,B|0:296|48:176,1,150.000000596046
48,112,118708,1,0
88,32,119035,6,0,B|152:80,1,75.000000298023
192,160,119691,2,0,B|264:200,1,75.000000298023
272,24,120347,2,0,B|272:48|256:112|304:112|352:56|360:112|424:56|384:112|384:144|384:192|432:192,1,262.50000104308
256,192,121658,12,0,122970
48,336,125593,6,0,B|136:280,1,75.000000298023
32,232,125921,1,8
88,152,126085,1,0
16,88,126249,1,0
104,16,126413,1,0
200,32,126576,6,0,B|128:96,1,75.000000298023,8|0
184,168,126905,1,0
256,104,127068,1,0
336,160,127232,1,8
360,48,127397,1,0
456,32,127560,6,0,B|408:56|424:104,1,75.000000298023
512,128,127888,2,0,B|496:176|448:168,1,75.000000298023,8|0
360,168,128216,2,2,B|480:256|480:256,1,150.000000596046
483,260,128708,1,0
392,272,128872,6,0,B|360:336|288:352|280:296|304:240|288:208|232:248|232:256,1,225.000000894069
232,336,129528,2,0,B|144:288,1,75.000000298023
96,352,129856,2,0,B|32:312,1,75.000000298023,8|0
24,256,130183,1,0
24,256,130347,1,0
48,176,130511,1,8
48,176,130675,1,0
24,40,130839,6,0,B|-8:104|48:128,1,75.000000298023
104,56,131167,1,8
120,144,131331,1,0
200,80,131495,1,0
224,176,131658,1,0
304,176,131822,6,0,B|344:176|360:104,1,75.000000298023,8|0
352,32,132150,1,0
432,56,132315,1,0
488,104,132479,1,8
504,176,132642,1,0
408,176,132806,6,0,B|496:240,1,75.000000298023
328,192,133134,2,0,B|424:216,1,75.000000298023,8|0
272,264,133462,2,2,B|424:240,1,150.000000596046
496,264,134118,6,2,B|504:320|448:344|440:224|352:272|360:328|352:344|288:344,1,225.000000894069
320,340,134773,1,8
248,352,134937,2,0,B|176:312,1,75.000000298023
208,240,135265,2,0,B|288:288,1,75.000000298023,0|8
280,192,135593,1,0
216,120,135757,1,0
272,40,135921,1,0
448,32,136085,6,0,B|488:80|488:128,1,75.000000298023,8|0
504,192,136413,1,0
504,192,136577,1,0
448,272,136740,1,8
448,272,136904,1,0
408,184,137068,6,0,B|360:192|344:256,1,75.000000298023,0|0
296,144,137396,1,8
264,56,137560,1,0
176,96,137724,1,0
128,16,137888,1,0
64,24,138052,6,0,B|8:72,3,75.000000298023,8|0|0|0
104,96,138708,1,8
8,144,138872,1,0
96,184,139035,1,0
192,216,139199,6,0,B|112:256,1,75.000000298023,0|8
32,280,139527,1,0
32,280,139691,1,0
64,344,139855,6,0,B|160:304,1,75.000000298023,0|8
200,352,140183,2,0,B|264:296,1,75.000000298023
256,302,140511,1,0
296,216,140675,1,8
360,288,140839,1,0
424,216,141003,1,0
488,144,141167,1,0
488,48,141331,5,8
392,24,141494,1,0
368,120,141658,2,0,B|344:192,1,75.000000298023,0|0
280,248,141986,1,8
200,192,142151,5,0
280,136,142315,1,0
200,80,142479,1,0
128,16,142642,2,8,B|72:88,1,75.000000298023,8|0
83,76,142970,1,0
83,76,143134,1,0
24,112,143298,6,0,B|16:152|40:192,1,75.000000298023,8|0
136,168,143626,2,0,B|136:224|104:240,1,75.000000298023,0|0
160,304,143954,5,8
160,304,144117,1,2
240,216,144281,5,8
240,216,144445,1,2
312,304,144609,5,8
312,304,144773,1,2
384,216,144937,5,8
384,216,145101,1,2
448,192,145265,6,0,B|344:192,1,75.000000298023,2|4
64,192,145593,2,4,B|152:192,1,75.000000298023,2|4
256,32,145921,2,0,B|256:112,1,75.000000298023,2|4
256,352,146249,2,0,B|256:272,1,75.000000298023,2|4
256,192,146576,12,0,149199
