osu file format v9

[General]
AudioFilename: Cruel Clocks.mp3
AudioLeadIn: 0
PreviewTime: 220027
Countdown: 0
SampleSet: Soft
StackLeniency: 0.7
Mode: 0
LetterboxInBreaks: 0

[Editor]
DistanceSpacing: 0.6
BeatDivisor: 4
GridSize: 4

[Metadata]
Title:Cruel Clocks
Artist:Hatsune Miku
Creator:Nyquill
Version:Full Revolution
Source:CON
Tags:Makar8000 xcherry vocaloid Yuy CHRIS Makar Xakyrie

[Difficulty]
HPDrainRate:6
CircleSize:4
OverallDifficulty:7
ApproachRate:9
SliderMultiplier:2
SliderTickRate:1

[Events]
//Background and Video events
0,0,"bg.png"
Video,0,"rawr.avi"
//Break Periods
2,110659,117495
2,118431,119676
2,190096,193859
//Storyboard Layer 0 (Background)
//Storyboard Layer 1 (Fail)
//Storyboard Layer 2 (Pass)
//Storyboard Layer 3 (Foreground)
//Storyboard Sound Samples
//Background Colour Transformations
3,100,163,162,255

[TimingPoints]
11187,272.727272727273,4,2,2,60,1,0
11459,-133.333333333333,4,2,2,60,0,0
17596,-100,4,1,1,60,0,0
39823,-100,4,1,1,15,0,0
40096,-100,4,1,1,60,0,0
71596,-133.333333333333,4,1,1,60,0,0
72141,-100,4,1,1,60,0,0
76641,-133.333333333333,4,2,1,60,0,0
77732,-200,4,2,1,60,0,0
84277,-133.333333333333,4,2,2,60,0,0
84959,-133.333333333333,4,1,1,60,0,0
85368,-100,4,1,1,60,0,0
93959,-100,4,1,2,80,0,1
97641,-100,4,1,2,80,0,1
99959,-100,4,1,2,80,0,1
100641,-100,4,1,2,80,0,1
108823,-100,4,1,2,80,0,1
109232,-100,4,1,1,60,0,0
110459,-100,4,1,1,15,0,0
118096,-100,4,1,1,60,0,0
135550,-133.333333333333,4,2,1,60,0,0
143187,-100,4,1,1,60,0,0
152869,-100,4,1,2,80,0,1
185732,-100,4,1,1,60,0,0
194459,-100,4,1,1,60,0,0
203596,-133.333333333333,4,1,1,60,0,0
211914,-100,4,1,1,60,0,0
220096,-100,4,1,1,15,0,0
220505,-86.9565217391304,4,1,2,90,0,1
252277,-100,4,1,1,60,0,0
254868,-100,4,2,1,15,0,0
255073,-100,4,1,1,90,0,0
270823,272.727272727273,3,1,1,90,1,0

[Colours]
Combo1 : 111,50,49
Combo2 : 87,87,87

[HitObjects]
132,60,11186,1,0
212,52,11323,1,0
272,104,11459,2,0,B|352:92,1,74.9999977648259,2|0
200,328,11732,2,0,B|120:340,1,74.9999977648259,2|0
272,104,12277,2,0,B|352:92,1,74.9999977648259,2|0
200,328,12550,2,0,B|120:340,1,74.9999977648259,2|0
348,344,12959,1,2
348,344,13096,1,2
348,344,13232,1,2
216,188,13505,5,0
284,128,13641,2,0,B|312:32,1,74.9999977648259,2|0
156,256,13914,2,0,B|128:352,1,74.9999977648259,2|0
284,128,14459,2,0,B|312:32,1,74.9999977648259,2|0
156,256,14732,2,0,B|128:352,1,74.9999977648259,2|0
348,344,15141,1,2
348,344,15277,1,2
348,344,15414,1,2
436,264,15550,5,8
436,264,15823,2,0,B|360:264|280:224|252:128|296:48,2,299.999991059304
472,200,17050,1,0
400,332,17323,1,0
328,316,17459,1,8
256,336,17596,1,0
256,336,17664,1,0
256,336,17732,6,0,B|262:285|234:237|186:209|130:209,1,200,8|0
72,272,18141,1,0
104,136,18277,2,0,B|112:88|100:28,2,100,0|8|8
72,272,18687,2,0,B|140:280|184:256|208:208|204:144,1,200
204,140,19027,1,0
200,120,19096,1,8
264,40,19232,1,0
432,188,19505,1,0
256,336,19777,1,4
256,336,20050,5,0
180,356,20187,2,0,B|168:288|220:248|280:240|332:300,1,200,8|0
372,352,20596,2,0,B|388:240,1,100,0|8
172,60,21005,1,0
104,124,21141,2,0,B|128:240,1,100,0|8
192,276,21414,1,0
256,336,21550,1,0
312,264,21687,1,0
312,264,21755,1,0
312,264,21823,2,0,B|328:152,1,100,8|0
326,165,22232,5,0
352,344,22368,2,0,B|408:344|456:304|472:252|464:200,1,200,8|0
422,94,22777,1,0
387,209,22914,1,8
387,209,22982,1,0
387,209,23050,2,0,B|257:160,1,100
184,216,23323,1,0
136,328,23459,1,8
136,328,23527,1,0
136,328,23596,2,0,B|248:308,1,100
236,224,23868,1,0
260,48,24005,1,8
236,224,24141,2,0,B|304:220|336:184|356:132|340:84,1,200
120,212,24550,6,0,B|104:264|128:320,1,100,8|0
236,224,24823,2,0,B|256:172|232:120,1,100
84,56,25096,1,8
48,152,25232,2,0,B|104:160|148:124,1,100
240,16,25505,1,0
304,72,25641,2,0,B|412:72,1,100,8|0
476,108,25914,1,0
464,208,26050,1,0
368,248,26187,1,8
280,192,26323,6,0,B|212:188|172:216|156:264|164:316,1,200
128,180,26732,2,0,B|140:124|128:72,2,100,8|0|0
56,256,27141,2,0,B|44:312|56:364,2,100,0|8|0
36,176,27550,1,0
56,88,27687,1,0
124,44,27823,1,8
192,184,27959,1,0
192,184,28027,1,0
192,184,28096,2,0,B|304:180,2,100
272,108,28505,6,0,B|368:80|420:176|368:240,1,200,0|0
196,320,28914,2,0,B|172:268|196:208,1,100,8|0
304,272,29187,2,0,B|328:316|312:372,2,100,0|0|8
272,200,29596,1,0
244,128,29732,2,0,B|128:128,1,100
92,60,30005,1,8
144,128,30141,2,0,B|220:160|244:244|212:304,1,200,0|0
136,340,30550,1,8
60,312,30687,1,0
36,236,30823,6,0,B|80:200|144:220,1,100
208,260,31096,2,0,B|324:256,2,100,8|0|8
156,192,31505,2,0,B|128:140|144:88,1,100
308,32,31777,1,0
388,16,31914,2,0,B|428:56|416:108,1,100,8|0
272,236,32187,2,0,B|232:196|244:132,1,100,8|0
352,192,32459,1,0
424,256,32596,2,0,B|424:360,2,100,0|8|0
172,12,33141,5,0
224,72,33277,2,0,B|252:140|364:160|408:92,1,200,8|0
436,40,33687,1,0
393,109,33823,2,0,B|376:160|400:212,1,100,8|0
356,268,34096,2,0,B|404:296|452:268,2,100,0|0|8
300,208,34505,2,0,B|252:140|144:152|108:224,1,200
96,276,34914,1,8
140,344,35050,6,0,B|224:352|276:272|248:196,1,200,0|0
200,156,35459,1,8
200,156,35596,1,0
132,116,35732,2,0,B|136:32|228:-4|296:36,1,200,0|8
340,76,36141,1,0
280,212,36277,2,0,B|256:268|296:320,1,100
424,244,36550,2,0,B|448:188|416:148,1,100,8|0
340,76,36823,5,8
200,156,36959,1,8
200,156,37232,1,4
256,192,37368,12,0,39823
260,88,40232,5,0
332,56,40368,1,8
384,120,40505,1,0
340,188,40641,1,0
264,168,40777,1,0
264,168,40846,1,0
264,168,40914,2,0,B|224:272,1,100
304,344,41187,2,0,B|336:248,1,100,8|0
140,272,41459,2,0,B|92:384,1,100,8|0
24,292,41732,5,0
60,200,41868,1,0
60,200,42005,2,0,B|88:160|160:144|228:192|220:264,2,200,8|0|8
368,227,42823,2,0,B|420:212|452:168|448:100|405:69,1,200,0|8
272,200,43232,2,0,B|268:252|284:296|340:332|404:312,1,200
192,304,43641,2,0,B|172:176,1,100,8|0
256,28,43914,5,0
256,28,44050,1,0
196,104,44187,2,0,B|312:112,1,100,8|0
376,140,44459,1,0
436,192,44596,1,0
388,256,44732,1,8
328,204,44868,1,0
328,204,45005,2,0,B|272:200|232:152|232:100|256:48,1,200,0|8
232,248,45414,2,0,B|28:248,1,200,0|0
64,348,45823,2,0,B|168:348,1,100,8|0
264,328,46096,5,0
264,328,46232,1,0
344,296,46368,2,0,B|364:248|360:196|328:148|328:148|356:100,1,200,8|0
428,136,46777,1,0
424,52,46914,2,0,B|384:12|316:12|268:40|252:88,1,200,8|0
254,81,47459,5,8
304,240,47596,2,0,B|244:256|204:252|156:224|124:172,1,200
52,196,48005,1,8
52,196,48277,2,0,B|72:300,1,100
140,336,48550,1,8
288,72,49096,1,8
364,360,49641,1,8
224,312,49777,6,0,B|248:208,1,100
396,192,50050,1,0
344,264,50186,2,0,B|368:380,1,100,8|0
480,256,50459,2,0,B|452:136,1,100
380,104,50732,1,8
380,104,51005,2,0,B|336:136|264:116|232:72|232:20,1,200,0|8
144,84,51414,1,0
100,164,51550,2,0,B|124:252|88:372,1,200,0|8
208,192,51959,2,0,B|216:80,1,100
172,260,52232,2,0,B|160:368,1,100,0|8
160,360,52641,5,0
252,316,52777,1,0
352,344,52914,2,0,B|408:340|464:300|464:232|456:180,1,200,8|0
400,144,53323,1,0
320,140,53459,2,0,B|256:160|208:140|164:104|160:52,1,200,8|0
80,124,53868,2,0,B|48:248,1,100,0|8
128,300,54141,1,0
128,300,54414,1,0
228,232,54550,2,0,B|276:224|328:232,1,100,8|0
480,292,54823,6,0,B|504:240|504:176|488:136|444:96,1,200,0|8
376,88,55232,1,0
376,88,55505,1,0
264,132,55641,2,0,B|208:140|156:124,1,100,8|0
36,84,55914,2,0,B|28:192,1,100,0|0
96,348,56187,2,0,B|104:240,1,100,8|0
103,248,56596,1,0
216,296,56732,2,0,B|268:312|336:284,1,100,8|0
404,216,57005,6,0,B|416:100,1,100
480,256,57277,2,0,B|468:372,1,100,8|0
288,136,57687,2,0,B|272:20,2,100,0|8|0
64,252,58232,2,0,B|48:368,2,100,0|8|0
144,192,58641,2,0,B|104:148|36:156,1,100
152,284,58914,1,8
152,284,59050,6,0,B|220:288|264:248|272:204|268:136,1,200,4|0
360,192,59459,2,0,B|336:68,2,100,8|0|0
432,248,59868,2,0,B|416:356,2,100,0|8|0
340,292,60277,2,0,B|288:316|232:300|192:256|200:188,1,200,0|8
328,172,60687,2,0,B|328:232|328:232|300:292|300:292|300:372,1,200
256,200,61096,2,0,B|256:76,1,100,8|0
256,100,61505,5,0
176,216,61641,2,0,B|128:244|68:232|24:184|48:112,1,200,8|0
336,216,62187,2,0,B|384:244|444:232|488:184|464:112,1,200,8|0
256,100,62732,1,8
256,100,62868,2,0,B|256:312,1,200
332,80,63414,6,0,B|316:28|256:0|192:32|180:84,1,200
168,176,63823,2,0,B|160:288,1,100,8|0
351,275,64096,2,0,B|344:176,1,100,0|0
292,328,64368,1,8
292,328,64505,2,0,B|324:364|372:364|412:344|432:328|436:256,1,200
264,132,64914,2,0,B|240:180|264:232,1,100,8|0
368,160,65187,2,0,B|392:112|368:60,1,100,0|0
288,20,65459,1,8
264,132,65596,6,0,B|196:132|196:132|136:112|136:112|48:112,1,200
32,180,66005,2,0,B|20:300,1,100,8|0
188,324,66277,2,0,B|200:204,1,100,0|0
68,272,66550,2,0,B|56:392,1,100,8|0
280,232,66823,2,0,B|304:180|292:120|252:84|188:88,1,200,0|8
208,300,67368,6,8,B|316:300,1,100,8|8
308,300,67777,1,4
376,56,68186,5,8
344,128,68323,1,0
424,124,68459,2,0,B|464:140|468:180|468:180|440:220|440:220|428:264|476:288,1,200,0|8
392,356,68868,1,0
308,300,69005,2,0,B|268:268|208:260|156:288|128:336,1,200,0|8
232,344,69414,2,0,B|264:272|240:212|240:212|208:204|168:164,1,200
60,276,69823,2,0,B|56:148,1,100,8|0
56,176,70232,5,0
96,360,70368,2,0,B|144:336|176:292|188:248|168:192,1,200,8|0
343,193,70914,2,0,B|324:248|336:292|368:336|416:360,1,200,8|0
256,152,71459,1,8
256,152,71596,2,0,B|256:4,1,149.999995529652
288,264,72141,6,0,B|280:316|244:344|184:360|128:332,1,200
320,184,72550,2,0,B|336:300,1,100,8|0
196,260,72823,1,0
136,200,72959,2,0,B|160:104,2,100,0|8|0
196,260,73368,6,0,B|220:208|272:188|328:184|368:212,1,200,0|8
156,332,73777,2,0,B|128:220,1,100
256,316,74050,1,0
320,370,74187,2,0,B|340:272,1,100,8|0
416,136,74459,6,0,B|392:92|336:72|284:80|244:120,1,200,4|8
300,180,74868,1,0
272,264,75005,2,0,B|231:304|179:312|123:292|99:248,1,200,4|8
36,176,75414,1,0
192,12,75550,5,0
144,92,75687,1,0
144,92,75755,1,0
144,92,75823,2,0,B|164:228,1,100,8|0
364,362,76096,2,0,B|408:272,1,100,8|0
104,272,76368,2,0,B|148:364,1,100,8|0
256,292,76641,6,0,B|349:292|409:212|409:212|409:113|409:113|349:43|236:52,1,449.999986588955,2|0
236,216,77732,2,0,B|296:220|328:186,1,100,2|0
272,124,78277,2,0,B|216:120|176:156,1,100,2|0
412,276,78823,2,0,B|440:236|460:176|436:120|400:76,1,200,2|0
320,276,79641,1,0
376,352,79914,2,0,B|432:360|472:328,1,100,2|0
304,120,80459,1,2
304,120,81005,6,0,B|228:112|152:164|148:232|164:312|192:336,1,300,2|0
40,360,82096,2,0,B|80:260,1,100,2|0
44,92,82641,2,0,B|0:196,1,100,2|0
160,48,83187,2,0,B|140:140|228:188|324:176|356:72,1,300,2|0
376,192,84277,5,0
332,252,84414,1,8
332,252,84482,1,8
332,252,84550,2,8,B|352:352,1,74.9999977648259
420,340,84823,1,0
252,304,84959,5,0
248,288,85027,1,0
244,268,85096,1,0
240,248,85164,1,0
236,232,85232,1,0
232,212,85300,1,0
228,192,85368,2,0,B|224:120|184:80|120:72|68:104,1,200,0|8
128,216,85914,1,0
324,300,86050,1,0
188,320,86187,1,8
352,176,86323,1,0
352,176,86391,1,0
352,176,86459,6,0,B|372:64,1,100
180,168,86732,2,8,B|204:265,1,100
256,120,87005,2,0,B|224:25,1,100
68,132,87277,2,8,B|88:229,1,100
208,292,87550,6,0,B|264:276|296:232|304:176|272:120,1,200,0|8
128,348,88096,1,0
224,380,88232,1,0
304,320,88368,1,8
292,220,88505,1,0
192,220,88641,1,0
192,220,88709,1,0
192,220,88777,1,0
216,136,88914,2,0,B|200:64,2,50
132,288,89187,2,0,B|116:360,2,50
60,96,89459,2,0,B|44:24,2,50
256,52,89732,1,4
256,192,89868,12,0,93005
332,168,93550,5,0
384,72,93687,1,0
368,56,93959,6,0,B|328:16|276:12|220:36|208:100,1,200
428,192,94368,2,0,B|464:92|464:92,1,100,8|0
332,168,94640,2,0,B|280:288,1,100
440,232,94913,2,0,B|484:124,1,100,8|0
400,360,95186,2,0,B|348:356|300:304|308:236|368:196,1,200,0|8
424,296,95596,2,0,B|356:296|356:296|316:284|316:284|208:284,1,200
268,364,96004,1,8
160,348,96140,6,0,B|134:297|128:232|176:198|231:182,1,200,0|0
332,216,96549,1,8
332,216,96686,2,0,B|358:266|356:316|316:365|244:364,1,200,0|0
296,128,97095,1,8
296,128,97232,2,0,B|360:100|408:116|448:152|448:208,1,200
240,184,97641,2,0,B|216:72,1,100,8|0
172,256,97914,2,0,B|156:356,1,100,0|0
272,224,98186,1,8
272,224,98322,6,0,B|264:172|208:144|144:152|112:188,1,200
216,304,98731,1,8
216,304,98868,2,0,B|272:96,1,200
328,228,99277,2,0,B|388:232|444:192|456:136|428:60|428:60,2,200,8|0|8
268,160,99959,2,0,B|168:144,1,100
76,304,100231,2,0,B|176:276,1,100,0|8
252,236,100504,5,0
356,356,100640,2,0,B|416:368|460:336|480:280|456:228,1,200,0|8
348,148,101049,2,0,B|288:136|244:168|224:224|248:276,1,200,0|0
320,228,101459,1,8
320,228,101595,1,0
152,196,101731,2,0,B|52:196,2,100,0|0|8
216,128,102140,1,0
216,128,102413,5,0
288,176,102549,1,8
312,88,102687,2,0,B|416:88,1,100
216,128,102959,1,0
288,176,103095,1,8
312,88,103231,2,0,B|350:63|410:75|462:107|466:163,1,200
332,296,103640,1,8
332,296,103777,1,0
260,344,103913,2,0,B|212:320|192:240|232:184|272:164,1,200,0|8
344,216,104322,2,0,B|268:276|268:276|168:248,1,200
328,332,104731,2,0,B|416:260,1,100,8|0
252,188,105004,6,0,B|152:156|152:156|104:68,1,200,0|8
208,88,105413,2,0,B|304:120,1,100
76,184,105686,2,8,B|32:96,1,100,0|8
134,274,105959,2,0,B|150:322|199:358|262:334|298:282,1,200
360,188,106368,2,0,B|464:160,2,100,8|0|0
264,152,106777,2,0,B|160:124,2,100,0|8|0
400,212,107186,6,0,B|424:164|404:92,1,100
273,54,107459,2,0,B|249:102|269:174,1,100,8|0
312,360,107731,2,0,B|336:312|316:240,1,100,8|0
184,168,108004,2,0,B|160:216|180:288,1,100,8|0
80,300,108277,1,0
96,200,108413,1,0
60,108,108549,1,8
140,48,108686,1,8
228,96,108822,2,0,B|344:104,2,100
200,192,109231,1,4
256,192,109299,12,0,110459
380,64,118095,5,4
352,164,118231,1,4
132,320,120276,5,4
160,220,120413,1,4
160,220,121776,5,0
160,220,121845,1,0
160,220,121913,1,0
236,148,122049,1,0
236,148,122322,1,0
268,292,122458,6,0,B|312:312|384:304|416:264|432:212,2,200,0|0|8
176,152,123276,1,0
100,224,123413,1,0
100,224,123481,1,0
100,224,123549,2,0,B|8:168,2,100
100,224,124095,1,8
100,224,124367,1,0
200,236,124504,1,0
288,180,124640,6,0,B|328:132|316:72|280:32|232:16,1,200
160,160,125049,1,0
200,236,125187,2,8,B|320:232,1,100
244,336,125458,2,0,B|116:340,1,100,0|8
88,152,125731,6,0,B|204:148,1,100,8|0
252,92,126004,1,0
264,72,126072,1,0
276,52,126140,1,0
288,32,126208,1,0
300,8,126276,1,8
332,96,126413,1,0
332,96,126687,6,0,B|384:96|428:136|444:192|428:248,1,200
320,248,127096,2,0,B|268:224|204:232|168:268|148:328,1,200,8|0
64,264,127505,2,0,B|56:148,1,100,0|8
448,120,127914,2,0,B|456:236,1,100,0|0
352,244,128187,1,8
296,336,128323,2,0,B|248:328|192:300|184:236|204:180,1,200
304,120,128732,1,8
368,60,128868,6,0,B|400:96|404:152|368:208|304:204,1,200
184,56,129277,2,0,B|128:48|84:72|60:128|80:184,1,200,8|0
276,348,129687,2,0,B|300:300|276:244,1,100,0|8
156,148,129959,2,0,B|136:200|160:248,1,100
380,208,130232,1,0
400,124,130368,1,8
380,208,130505,2,0,B|360:264|380:320|440:348|504:328,1,200
464,248,130914,1,8
444,164,131050,6,0,B|448:108|424:60|376:28|304:36,1,200
272,168,131459,2,0,B|336:216|336:216|392:160|368:120|336:108,1,200,8|0
348,113,132005,1,8
248,252,132141,2,0,B|184:204|184:204|120:244|176:320,1,200,0|0
304,312,132550,1,8
360,232,132687,1,0
360,232,132755,1,0
360,232,132823,1,0
304,136,132959,1,0
212,104,133096,2,0,B|88:28,1,100
92,220,133368,6,0,B|36:218|-4:160|12:84|64:56,1,200,0|0
172,232,133777,1,0
224,296,133914,2,0,B|279:294|320:236|304:160|252:132,1,200,8|0
152,336,134323,2,0,B|68:332|32:280|48:192|80:184,1,200,0|0
64,200,134664,1,0
64,200,134732,1,0
224,296,134868,1,0
256,372,135005,2,0,B|336:362|376:304|360:228|308:200,1,200,0|0
356,100,135550,6,0,B|292:116|292:116|292:156|252:188|252:188|212:156|212:116|212:116|136:104,1,299.999991059304,2|0
72,144,136368,1,0
152,192,136640,2,0,B|172:256|252:300|252:300|328:264|356:184,1,299.999991059304,2|0
452,164,137459,1,0
420,264,137731,6,0,B|348:232|360:136|360:136|324:64|324:64|244:64,1,299.999991059304,2|0
256,168,138550,1,0
256,272,138822,2,0,B|188:272|188:272|152:200|152:200|164:104|92:72,1,299.999991059304,2|0
52,168,139640,1,0
52,168,139913,6,0,B|116:128|192:132|192:132|256:168|348:128,1,299.999991059304,2|0
308,32,140731,1,0
412,56,141004,2,0,B|476:108|472:204,1,149.999995529652,2|0
352,352,141550,2,0,B|288:300|292:204,1,149.999995529652,2|0
368,184,142095,6,0,B|384:104|316:88|316:88|264:140|264:140|152:140,1,299.999991059304,2|0
68,108,142913,1,0
48,244,143186,5,0
216,336,143322,1,0
228,316,143390,1,0
240,296,143459,1,0
252,276,143527,1,0
264,252,143595,1,0
276,232,143663,1,0
288,208,143731,2,0,B|334:119,1,100
182,33,144004,2,0,B|132:120,1,100
240,112,144277,6,0,B|296:100|344:112|388:152|388:228,1,200,0|8
256,324,144822,1,0
184,276,144959,2,0,B|168:164,1,100,0|8
344,84,145231,1,0
344,84,145300,1,0
344,84,145368,2,0,B|316:212,1,100
256,224,145640,1,8
328,268,145777,1,0
184,176,145913,2,0,B|208:72,1,100
328,268,146186,2,0,B|304:376,1,100,8|0
164,264,146459,6,0,B|112:256|64:224|56:160|96:96,1,200,0|8
256,224,147004,1,0
340,276,147140,1,0
432,236,147277,1,8
452,136,147413,1,0
452,136,147481,1,0
452,136,147550,2,0,B|328:136,1,100
256,224,147822,2,0,B|372:224,1,100,8|0
232,108,148095,2,0,B|128:108,1,100
48,304,148368,2,0,B|160:304,1,100,8|0
252,376,148640,6,0,B|312:372|344:336|352:276|320:228,1,200,0|8
408,216,149050,1,0
356,144,149186,2,0,B|348:88,2,50
320,228,149459,1,0
320,228,149527,1,0
320,228,149595,1,0
256,120,149731,6,0,B|248:64,2,50
216,240,150004,1,0
216,240,150072,1,0
216,240,150140,1,0
156,92,150277,6,0,B|148:36,2,50
132,272,150550,1,0
132,272,150618,1,0
132,272,150686,1,0
72,64,150822,6,0,B|64:8,2,50
36,308,151095,1,0
36,308,151163,1,0
36,308,151231,1,0
60,192,151368,5,0
84,192,151436,1,0
108,192,151504,1,0
132,192,151572,1,0
156,192,151640,1,0
180,192,151709,1,0
204,192,151777,1,0
228,192,151845,1,0
252,192,151913,1,0
300,192,152459,5,0
392,264,152595,1,0
404,280,152868,6,0,B|412:336|364:376|284:384|252:320,1,200
376,192,153277,2,0,B|432:188|468:220|500:272|488:336,1,200,8|0
300,192,153686,2,0,B|276:80,1,100,0|8
140,208,153958,1,0
104,280,154095,2,0,B|164:300|216:272|232:208|204:164,1,200,0|8
20,240,154504,2,0,B|0:292|24:352|56:384|144:380,1,200
140,208,154913,1,8
84,144,155049,6,0,B|130:106|184:116|229:149|228:212,1,200
140,208,155458,1,8
40,224,155595,2,0,B|-16:192|-20:120|8:68|68:60,1,200
140,208,156004,1,8
160,288,156140,2,0,B|212:300|268:288|300:248|304:184,1,200
252,40,156549,2,0,B|236:156,1,100,8|0
380,260,156822,2,0,B|396:144,1,100
312,320,157095,1,8
240,368,157231,6,0,B|160:340|160:272|160:272|224:204,1,200
268,144,157640,1,8
300,284,157777,2,0,B|316:360|395:363|395:363|444:317,1,200
316,204,158186,2,0,B|260:204|224:252,1,100,8|0
380,260,158458,2,0,B|412:220|392:164,1,100
316,204,158731,1,8
300,284,158868,2,0,B|240:292|192:268|168:216|176:160,1,200
324,108,159277,1,8
412,160,159413,1,0
380,260,159549,6,0,B|388:316|360:360|304:388|224:344,1,200,0|8
316,204,159958,2,0,B|356:164|424:168|472:208|464:280,1,200
300,284,160368,1,8
240,232,160504,2,0,B|208:132|208:132|252:24,1,200
336,32,160913,2,0,B|300:128,1,100,8|0
164,259,161186,2,0,B|136:164,1,100,0|0
300,284,161458,6,0,B|264:380,2,100,8|0|0
364,208,161868,2,0,B|388:320,1,100,0|8
280,144,162140,2,0,B|320:104|376:104|432:124|452:180,1,200
188,200,162549,2,0,B|200:88,1,100,8|0
268,220,162822,2,0,B|288:280|256:332|204:352|140:328,1,200,0|8
188,200,163231,2,0,B|204:148|256:120|324:132|352:192,1,200
200,300,163641,2,0,B|140:304|112:232,1,100,8|0
212,176,163913,6,0,B|268:180|316:208|332:256|316:324,1,200,0|8
388,360,164322,2,0,B|436:360|500:360,2,100
244,336,164731,1,8
164,348,164868,2,0,B|109:344|89:308|89:308|112:200,1,200
200,88,165277,2,0,B|304:84,1,100,8|0
368,264,165549,2,0,B|264:268,1,100
376,160,165822,2,0,B|480:156,1,100,8|0
380,72,166095,6,0,B|316:76|276:112|264:168|284:232,1,200,0|8
40,276,166640,1,0
124,328,166777,1,0
132,232,166913,1,8
256,76,167186,1,0
416,196,167458,1,8
256,316,167731,1,0
92,200,168004,1,8
256,76,168277,6,0,B|372:72,1,100
428,40,168549,1,8
428,40,168686,1,0
304,188,168822,2,0,B|420:184,1,100
476,152,169095,1,8
396,340,169231,6,0,B|340:348|280:328|244:280|252:208,1,200
252,236,169572,1,0
252,236,169640,1,8
80,212,169777,1,0
80,212,169845,1,0
80,212,169913,1,8
240,144,170049,1,0
240,144,170118,1,0
240,144,170186,1,8
108,135,170322,6,0,B|80:164|56:204|64:280|112:312,1,200,0|0
164,244,170731,2,0,B|216:224|272:232|308:256|336:308,1,200,8|0
196,324,171140,1,0
112,312,171277,2,0,B|64:280|56:204|80:164|112:132,1,200,8|0
304,120,171686,1,0
364,200,171822,1,8
268,224,171958,2,0,B|196:220|168:176|156:112|196:72,1,200,0|0
304,120,172368,1,8
364,204,172504,6,0,B|392:252|368:316|320:344|256:336,1,200
144,184,172913,1,8
144,184,173049,2,0,B|128:128|148:72,1,100
256,132,173322,2,0,B|272:180|256:236,1,100,0|8
76,372,173595,2,0,B|32:328|28:268|36:220|60:180,1,200
152,320,174004,2,0,B|208:332|260:312,1,100,8|0
312,144,174277,2,0,B|256:132|204:152,1,100,0|0
264,220,174549,1,8
264,220,174686,6,0,B|324:240|380:216|404:176|404:120,1,200,0|0
252,128,175095,1,8
184,172,175231,2,0,B|152:224|152:276|216:328|280:320,1,200
352,248,175641,2,0,B|368:144,1,100,8|0
432,284,175914,2,0,B|416:388,1,100,0|0
500,180,176186,1,8
500,180,176322,2,0,B|516:120|484:76|432:44|364:80,1,200
260,104,176732,2,0,B|196:112|144:96,1,100,8|0
24,76,177005,2,0,B|24:156|32:300,1,200,0|8
116,160,177414,2,0,B|108:52,1,100
196,220,177687,2,0,B|204:328,1,100,0|8
288,184,177958,2,0,B|268:124|216:104|152:104|108:140,1,200
80,216,178368,1,8
148,324,178504,1,0
148,324,178777,5,0
224,216,178913,1,8
88,128,179050,2,0,B|40:132|-8:168|-14:232|20:280,1,200
168,188,179459,2,0,B|156:64,1,100,8|0
352,84,179732,2,0,B|342:183,1,100
256,112,180005,2,0,B|256:-4,1,100,8|0
432,184,180277,2,0,B|410:239|378:263|326:279|270:271,1,200,0|8
328,152,180686,2,0,B|372:368,1,200
256,228,181095,6,0,B|232:116,1,100,8|0
136,160,181368,2,0,B|92:192|76:248|96:312|152:344,1,200,0|8
216,152,181777,2,0,B|276:140|328:152|356:196|372:260,1,200
260,240,182186,1,8
216,152,182322,2,0,B|220:104|236:44|292:16|356:20,1,200
384,84,182731,2,0,B|496:84,1,100,8|0
340,184,183004,2,0,B|456:184,1,100
276,280,183277,2,0,B|392:280,1,100,8|0
184,328,183549,6,0,B|140:296|132:240|156:184|216:164,1,200,0|8
288,208,183958,1,0
288,208,184027,1,0
288,208,184095,2,0,B|348:224|400:208,2,100,0|0|8
232,136,184504,1,0
232,136,184572,1,0
232,136,184640,2,0,B|176:116|120:140,2,100,0|0|8
380,120,185049,1,0
380,120,185118,1,0
380,120,185186,2,0,B|432:140|500:124,2,100,0|0|8
300,88,185595,5,0
236,28,185731,1,0
236,28,185868,1,0
148,160,194459,6,0,B|260:136,1,100
176,60,194731,1,0
268,232,194868,2,0,B|396:272,2,100,0|8|0
268,232,195413,1,0
332,172,195549,1,0
248,328,195686,2,0,B|152:364,2,100,0|8|0
480,352,196231,1,0
480,352,196368,1,8
480,352,196504,1,0
204,88,196777,5,0
272,144,196913,2,0,B|236:180|180:172,1,100,0|0
204,88,197186,1,8
152,248,197322,2,0,B|216:264|264:248|312:228|336:184,1,200
404,128,197731,2,0,B|428:252,1,100,0|0
272,144,198004,2,0,B|256:24,1,100,8|0
112,172,198413,1,0
112,172,198549,1,8
112,172,198686,1,0
136,80,198958,6,0,B|24:80,2,100
196,148,199367,2,0,B|304:148,1,100,8|0
360,336,199777,2,0,B|472:336,2,100
300,268,200186,2,0,B|192:268,1,100,8|0
440,116,200595,1,0
440,116,200731,1,8
440,116,200867,1,0
308,60,201140,5,0
256,128,201277,2,0,B|140:124,1,100
308,60,201549,1,8
344,132,201686,2,0,B|352:180|328:232|264:264|204:248,1,200
152,188,202095,1,4
132,284,202231,1,0
132,284,202299,1,0
132,284,202367,1,0
212,344,202504,1,0
304,304,202640,2,0,B|408:304,1,100
344,200,202913,2,0,B|232:200,1,100
152,188,203187,5,0
152,188,203596,1,0
92,144,203732,1,0
48,204,203868,1,0
116,340,204141,1,0
172,292,204277,2,0,B|256:288,1,74.9999977648259
300,232,204550,1,0
448,220,204823,5,0
460,200,204891,1,0
464,180,204959,1,0
460,156,205027,1,0
448,136,205096,1,0
428,124,205164,1,0
404,124,205232,2,0,B|312:120,1,74.9999977648259
200,168,205777,5,0
124,176,205914,1,0
76,120,206050,1,0
76,120,206323,1,0
140,80,206459,2,0,B|232:72,1,74.9999977648259
276,28,206732,1,0
416,148,207005,5,0
428,164,207073,1,0
432,188,207141,1,0
428,208,207209,1,0
420,224,207277,1,0
404,236,207346,1,0
388,244,207414,2,0,B|348:308,1,74.9999977648259
176,260,207959,5,0
136,196,208096,1,0
168,128,208232,1,0
168,128,208505,1,0
252,232,208641,2,0,B|288:248|328:228,1,74.9999977648259
380,140,208914,2,0,B|344:124|304:144,1,74.9999977648259
384,280,209187,2,0,B|420:296|460:276,1,74.9999977648259
512,96,209459,2,0,B|476:80|436:100,1,74.9999977648259
460,196,209732,6,0,B|412:208|372:204|336:188|304:160|284:124|284:88|288:56|312:24,1,299.999991059304
164,52,210550,1,0
92,76,210687,1,8
88,152,210823,1,0
144,204,210959,1,8
220,176,211096,1,0
220,176,211368,5,0
200,316,211505,1,0
184,308,211573,1,0
164,308,211641,1,0
148,312,211709,1,0
128,316,211777,1,0
108,312,211846,1,0
96,304,211914,6,0,B|44:304|12:260|0:184|68:152,1,200,0|8
236,68,212459,1,0
288,152,212596,1,0
388,168,212732,1,8
464,104,212868,1,0
464,104,212937,1,0
464,104,213005,2,0,B|496:224,1,100
416,268,213277,2,0,B|360:256|304:268|264:300|256:372,1,200,8|0
184,296,213687,2,0,B|168:180,2,100,0|8|0
112,360,214096,6,0,B|56:356|24:308|12:232|48:192,1,200,0|8
208,96,214641,1,0
292,40,214777,1,0
376,96,214914,1,8
380,196,215050,1,0
380,196,215118,1,0
380,196,215187,2,0,B|440:292|440:292,1,100
336,264,215459,2,0,B|292:240|228:232|184:264|152:328,1,200,8|0
80,256,215868,2,0,B|52:156,2,100,0|8|0
184,156,216277,5,8
232,232,216414,2,0,B|296:256|344:212,1,100
488,216,216687,1,8
440,344,216823,2,8,B|388:360|328:332,1,100,8|0
184,156,217096,1,8
232,232,217232,2,8,B|284:248|344:220,1,100,8|0
412,28,217505,5,8
364,104,217641,2,0,B|300:128|252:84,1,100
456,112,217914,2,0,B|472:160|460:216,1,100
300,260,218187,2,0,B|284:212|296:156,1,100
364,104,218459,1,0
392,212,218596,1,0
352,312,218732,1,0
352,312,219005,1,0
300,228,219141,1,0
192,216,219277,1,0
120,296,219414,1,0
44,228,219550,1,0
144,120,220096,5,0
132,92,220505,6,0,B|72:112|36:160|32:232|100:288,1,230.000007539988
180,216,220914,2,0,B|236:196|296:212|340:264|336:352,1,230.000007539988,8|0
168,348,221323,1,0
100,248,221459,1,8
120,140,221595,1,0
180,280,221732,2,0,B|152:332|92:352|12:312|12:244,1,230.000007539988,0|8
40,104,222141,2,0,B|68:52|128:32|208:72|208:140,1,230.000007539988,0|8
272,204,222550,1,8
232,280,222686,6,0,B|176:280|112:240|96:168|116:112,1,230.000007539988
352,204,223095,1,8
388,288,223232,2,0,B|364:364|284:360|284:360|176:360,1,230.000007539988
176,172,223641,1,8
196,88,223777,2,0,B|268:96|300:144|308:208|260:256,1,230.000007539988
120,108,224186,2,0,B|160:-8,2,115.000003769994,8|0|0
120,108,224595,1,0
244,208,224732,1,8
284,308,224868,6,0,B|324:352|408:344|452:308|456:232,1,230.000007539988
364,240,225277,1,8
284,308,225414,2,0,B|232:336|156:312|124:272|124:196,1,230.000007539988
336,32,225823,2,0,B|364:84|332:144,1,115.000003769994,8|0
224,240,226095,2,0,B|184:184|216:108,1,115.000003769994
320,216,226368,1,8
320,216,226505,2,0,B|328:276|284:344|192:352|140:312,1,230.000007539988
112,188,226914,1,8
96,272,227050,1,0
192,152,227186,6,0,B|236:100|308:104|364:120|392:184,1,230.000007539988,0|8
112,188,227595,2,0,B|112:60,2,115.000003769994
112,188,228005,1,8
28,220,228141,2,0,B|-24:176|-20:104|-4:48|60:20,1,230.000007539988,0|0
124,80,228550,1,8
216,104,228686,1,0
216,104,228959,5,0
224,200,229095,1,8
124,80,229232,2,0,B|156:28|216:-4|292:12|328:68,1,230.000007539988
320,144,229641,1,8
240,300,229777,2,0,B|188:268|156:208|172:132|216:104,1,230.000007539988
336,232,230186,2,0,B|268:232|268:232|188:204|188:204|88:208,1,230.000007539988,8|0
116,288,230595,1,0
24,184,230732,1,8
128,112,230868,1,0
244,180,231005,2,0,B|368:132,1,115.000003769994
356,252,231277,2,8,B|244:300,1,115.000003769994,8|0
244,180,231550,6,0,B|248:120|292:72|384:68|424:112,1,230.000007539988,0|8
308,256,231959,2,0,B|252:296|180:296|128:256|112:192,1,230.000007539988
224,64,232368,1,8
296,20,232505,2,0,B|360:68|348:140|304:188|244:180,1,230.000007539988,0|0
132,136,232914,2,0,B|12:116,1,115.000003769994,8|0
216,272,233186,2,0,B|336:300,1,115.000003769994
124,60,233459,2,0,B|-12:40,1,115.000003769994,8|0
228,192,233732,6,0,B|296:196|360:160|380:116|376:48,1,230.000007539988,0|8
376,56,234277,1,0
276,92,234414,1,0
172,40,234550,1,8
80,84,234686,1,0
76,200,234823,2,0,B|80:256|128:308,1,115.000003769994
308,232,235095,2,0,B|324:168|315:117,1,115.000003769994,8|0
196,116,235368,2,0,B|187:170|203:230,1,115.000003769994
388,300,235641,2,0,B|436:256|444:192,1,115.000003769994,8|0
412,120,235914,5,0
336,56,236050,1,0
248,68,236186,1,8
208,152,236323,1,0
184,240,236459,2,0,B|184:360,2,115.000003769994,0|0|8
132,180,236868,2,0,B|116:116|156:64|224:40|288:84,1,230.000007539988
312,92,237209,1,0
340,112,237277,1,0
360,140,237345,1,0
372,172,237414,1,0
372,208,237482,1,0
368,244,237550,1,0
344,268,237618,1,0
313,275,237686,1,0
280,280,237755,1,0
247,274,237823,1,0
213,261,237891,1,0
192,236,237959,6,0,B|192:160|192:160|164:92|164:92|164:8,1,230.000007539988
212,156,238368,2,0,B|176:220|112:236|60:228|12:180,1,230.000007539988,8|0
296,64,238777,2,0,B|296:200,1,115.000003769994,0|8
256,264,239050,1,0
336,348,239186,2,0,B|336:256|336:256|368:216|368:216|368:120,1,230.000007539988,0|8
236,368,239595,2,8,B|196:352|160:312|148:260|156:216|180:168,1,230.000007539988,0|0
348,244,240005,2,0,B|356:304|316:356,1,115.000003769994,8|0
260,196,240277,6,0,B|296:152|360:136|432:172|456:240,1,230.000007539988,0|8
244,276,240686,2,8,B|204:260|168:220|156:168|164:124|188:76,1,230.000007539988,0|0
344,44,241095,1,8
392,104,241232,2,0,B|360:224,1,115.000003769994,0|0
200,268,241505,2,0,B|232:148,1,115.000003769994,0|8
356,36,241777,1,0
404,100,241914,2,0,B|372:220,1,115.000003769994
304,256,242186,1,8
476,300,242323,6,0,B|424:300|424:300|348:336|348:336|252:336,1,230.000007539988
304,256,242732,1,8
448,376,242868,2,0,B|492:336|504:268|488:200|444:156,1,230.000007539988
240,120,243277,2,0,B|260:0,2,115.000003769994,8|0|0
44,232,243686,2,0,B|60:360,2,115.000003769994,0|8|0
112,108,244095,1,0
112,108,244232,1,0
152,288,244368,2,0,B|280:276,1,115.000003769994,8|0
396,352,244641,6,0,B|396:256|396:256|372:200|372:200|372:104,1,230.000007539988,0|8
128,40,245050,2,0,B|128:136|128:136|152:192|152:192|152:288,1,230.000007539988
216,104,245459,1,8
264,304,245595,1,0
308,116,245732,2,0,B|364:84|436:92|484:116|520:180,1,230.000007539988,0|8
384,368,246141,2,0,B|332:324|320:256|344:188|412:168,1,230.000007539988
468,248,246550,1,8
468,248,246686,1,0
268,272,246823,6,0,B|260:344|204:368|132:384|80:304,1,230.000007539988,0|8
156,96,247232,2,0,B|224:111|248:191|216:255|172:275,1,230.000007539988
24,248,247641,2,0,B|24:116,1,115.000003769994,8|0
125,53,247914,2,0,B|169:29|237:29|285:73|298:147,1,230.000007539988,0|8
172,304,248323,2,0,B|112:268|104:180|152:132|204:124,1,230.000007539988
240,380,248732,2,0,B|108:376,1,115.000003769994,8|0
48,224,249005,6,0,B|127:180|211:268|270:221,1,230.000007539988,0|8
216,152,249414,2,0,B|164:188|136:256|164:320|212:364,1,230.000007539988
408,256,249823,1,8
432,164,249959,2,0,B|408:104|348:88|348:88|232:88,1,230.000007539988
328,172,250368,2,0,B|200:172,1,115.000003769994,8|0
36,220,250641,2,0,B|120:220|120:220|176:244|176:244|260:244,1,230.000007539988,0|8
212,172,251050,1,0
144,320,251186,6,0,B|84:308|32:232|64:156|132:124,1,230.000007539988,0|8
240,92,251595,1,0
260,200,251732,2,0,B|218:246|158:246,1,115.000003769994
64,64,252005,2,0,B|107:19|167:19,1,115.000003769994
240,92,252277,1,0
240,92,253232,5,4
256,192,253368,12,0,255005
192,84,255277,5,8
120,28,255414,1,0
120,28,255686,6,0,B|100:84|120:132,1,100,0|8
208,304,255959,1,0
284,216,256095,1,0
284,216,256164,1,0
284,216,256232,2,0,B|312:164|280:112,1,100,0|8
120,28,256505,1,0
44,112,256641,5,0
44,112,256709,1,0
44,112,256777,2,0,B|16:164|48:216,1,100,0|8
340,368,257050,1,0
416,280,257186,1,0
416,280,257255,1,0
416,280,257323,2,0,B|444:228|412:176,1,100,0|8
264,92,257595,1,0
264,92,257868,5,0
348,116,258005,2,0,B|360:224|336:316,1,200,8|0
256,352,258414,1,0
416,280,258550,2,0,B|424:224|420:176,1,100,8|0
272,128,258823,2,0,B|256:76|268:8,2,100,0|0|8
200,284,259232,2,0,B|216:332|196:392,2,100
52,156,259641,1,8
52,156,259777,6,0,B|104:132|160:124|208:140|260:164,1,200
276,240,260186,2,0,B|376:256,1,100,8|0
448,112,260459,2,0,B|340:92,1,100
460,320,260732,2,0,B|480:272|460:216,1,100,8|0
400,172,261005,1,0
320,180,261141,1,0
248,148,261277,1,8
176,184,261414,1,0
176,184,261482,1,0
176,184,261550,2,0,B|72:196,1,100
336,344,261959,6,0,B|400:352|440:312|464:276|448:212,1,200
236,76,262368,2,0,B|212:128|232:184,1,100,8|0
352,264,262641,2,0,B|376:212|356:156,1,100,0|0
140,248,262914,2,0,B|120:292|152:360,1,100,8|0
256,124,263186,2,0,B|256:16,2,100,0|0|8
256,204,263595,1,0
256,284,263732,2,0,B|256:392,2,100,0|0|8
256,204,264141,1,0
256,204,264414,5,0
388,352,264550,2,0,B|448:364|484:324|508:268|472:212,1,200,8|8
252,68,264959,1,8
192,128,265095,1,0
192,128,265164,1,0
192,128,265232,2,0,B|168:180|196:232,1,100,0|8
300,320,265505,1,8
360,260,265641,1,0
360,260,265709,1,0
360,260,265777,2,0,B|384:208|356:156,1,100,0|8
292,104,266050,1,0
236,280,266186,1,8
192,364,266323,6,0,B|136:368|88:332|72:272|96:212,1,200,4|0
284,288,266732,2,0,B|308:336|288:388,1,100,8|0
180,220,267005,2,0,B|152:180|168:120,1,100
360,24,267277,2,0,B|384:72|364:124,1,100,8|0
227,225,267550,2,0,B|252:128,1,100
332,248,267823,2,0,B|344:356,2,100,8|0|0
288,128,268232,2,0,B|324:36,2,100,0|8|0
288,128,268777,5,0
228,340,268914,2,0,B|172:332|132:292|124:232|152:184,1,200,8|0
340,88,269323,1,0
416,56,269459,1,8
416,56,269527,1,0
416,56,269595,2,0,B|436:104|436:104|420:148,1,100
292,336,269868,1,0
216,368,270005,1,8
216,368,270073,1,0
216,368,270141,2,0,B|196:320|196:320|212:276,1,100
264,172,270414,1,0
496,152,270823,6,0,B|468:36,2,100
432,240,271232,2,0,B|408:364,1,100
412,338,271504,1,0
396,152,271641,6,0,B|368:36,2,100
336,240,272050,2,0,B|312:364,1,100
316,338,272322,1,0
308,152,272459,6,0,B|280:36,2,100
244,240,272868,2,0,B|220:364,1,100
224,338,273140,1,0
208,152,273277,6,0,B|180:36,2,100
148,240,273686,2,0,B|124:364,1,100
128,338,273958,1,0
120,152,274095,6,0,B|92:36,2,100
60,240,274504,2,0,B|36:364,1,100
40,338,274776,1,0
