osu file format v12

[General]
AudioFilename: chameleonBGM.mp3
AudioLeadIn: 0
PreviewTime: 54541
Countdown: 0
SampleSet: Normal
StackLeniency: 0.7
Mode: 0
LetterboxInBreaks: 1

[Editor]
Bookmarks: 21170,33305,54878,85384,87238,98024,107462,108474,130384,141170,162743,173530,184316,195103
DistanceSpacing: 1.6
BeatDivisor: 4
GridSize: 4

[Metadata]
Title:Chameleon
TitleUnicode:Chameleon
Artist:Hatsune Miku
ArtistUnicode:Hatsune Miku
Creator:kokono_tan
Version:Insane
Source:nana (Sevencolors)
Tags:Vocaloid Drum'n'bass
BeatmapID:139473
BeatmapSetID:44538

[Difficulty]
HPDrainRate:7
CircleSize:4
OverallDifficulty:7
ApproachRate:9
SliderMultiplier:1.9
SliderTickRate:1

[Events]
//Background and Video events
0,0,"romioto24.jpg",0,0
//Break Periods
2,87438,96676
2,162943,172930
//Storyboard Layer 0 (Background)
//Storyboard Layer 1 (Fail)
//Storyboard Layer 2 (Pass)
//Storyboard Layer 3 (Foreground)
//Storyboard Sound Samples
//Background Colour Transformations
3,100,163,162,255

[TimingPoints]
946,337.078651685393,4,1,0,30,1,0
22434,-200,4,1,0,30,0,0
25131,-133.333333333333,4,1,0,35,0,0
27828,-133.333333333333,4,1,0,40,0,0
31535,-133.333333333333,4,2,1,40,0,0
33221,-100,4,1,1,50,0,0
44049,-100,4,1,2,60,0,0
52097,-100,4,1,1,60,0,0
52266,-100,4,2,0,60,0,0
52434,-100,4,1,1,60,0,0
52603,-100,4,2,0,60,0,0
52771,-100,4,1,1,60,0,0
52940,-100,4,2,0,60,0,0
53108,-100,4,1,1,60,0,0
53277,-100,4,2,0,60,0,0
53445,-100,4,1,1,50,0,0
54794,-100,4,1,1,70,0,1
76367,-100,4,1,0,50,0,1
76535,-100,4,1,0,50,0,0
97940,-100,4,1,0,50,0,0
107378,-100,4,2,0,60,0,0
108094,-100,4,1,0,60,0,0
108431,-100,4,1,0,60,0,0
108726,-100,4,1,2,60,0,0
116816,-100,4,1,1,60,0,0
127603,-100,4,1,1,60,0,0
130299,-133.333333333333,4,2,0,60,0,0
134344,-133.333333333333,4,2,0,30,0,0
135524,-133.333333333333,4,2,0,60,0,0
138137,-133.333333333333,4,2,1,60,0,0
138389,-133.333333333333,4,1,1,60,0,0
138558,-133.333333333333,4,2,0,60,0,0
138726,-133.333333333333,4,1,1,60,0,0
138895,-133.333333333333,4,2,0,60,0,0
139063,-133.333333333333,4,1,1,60,0,0
139232,-133.333333333333,4,2,0,60,0,0
139401,-133.333333333333,4,1,1,60,0,0
139569,-133.333333333333,4,2,0,60,0,0
139738,-100,4,1,1,60,0,0
140917,-100,4,1,0,60,0,0
141086,-100,4,1,1,70,0,1
162828,-100,4,1,1,70,0,0
173445,-100,4,1,1,70,0,1
184232,-100,4,1,0,50,0,0

[Colours]
Combo1 : 255,159,15
Combo2 : 128,255,255
Combo3 : 128,255,0
Combo4 : 162,68,255

[HitObjects]
392,328,22519,2,0,B|440:272,1,47.5,4|0,0:0|0:0,0:0:0:0:
392,220,22856,2,0,B|332:164,1,47.5
392,120,23193,2,0,B|452:72,1,47.5
300,60,23698,5,0,0:0:0:0:
228,56,23867,1,0,0:0:0:0:
264,108,24204,1,0,0:0:0:0:
204,160,24372,1,0,0:0:0:0:
264,164,24710,1,0,0:0:0:0:
248,248,24878,1,0,0:0:0:0:
100,56,25215,6,0,B|148:112,1,71.2499978765846
100,164,25552,2,0,B|40:220,1,71.2499978765846
100,264,25889,2,0,B|160:312,1,71.2499978765846
296,320,26395,5,0,0:0:0:0:
296,248,26563,1,0,0:0:0:0:
324,288,26901,1,0,0:0:0:0:
324,208,27070,1,0,0:0:0:0:
356,248,27406,1,0,0:0:0:0:
356,164,27575,1,0,0:0:0:0:
300,44,27912,6,0,B|220:44,1,71.2499978765846
248,112,28249,2,0,B|168:112,1,71.2499978765846
200,180,28586,2,0,B|116:180,1,71.2499978765846
212,296,29092,5,0,0:0:0:0:
276,268,29260,1,0,0:0:0:0:
236,256,29597,1,0,0:0:0:0:
296,204,29766,1,0,0:0:0:0:
248,208,30103,1,0,0:0:0:0:
300,140,30271,1,0,0:0:0:0:
408,64,30608,6,0,B|440:152,1,71.2499978765846
364,112,30945,2,0,B|340:188,1,71.2499978765846
300,140,31283,2,0,B|220:168,1,71.2499978765846
256,192,31620,12,4,32631,0:0:0:0:
216,232,32968,5,4,0:0:0:0:
272,136,33305,6,0,B|208:36|104:48,1,190,4|0,0:0|0:0,0:0:0:0:
56,268,33979,2,0,B|4:248|0:192,2,95,0|0|8,0:0|0:0|0:0,0:0:0:0:
204,96,34653,2,0,B|277:62|322:67|341:104|333:186,1,190
56,268,35496,1,0,0:0:0:0:
56,268,35664,1,2,0:0:0:0:
192,340,36002,6,0,B|248:324|256:268,1,95
164,204,36339,2,0,B|192:152|252:164,1,95
342,217,36676,1,0,0:0:0:0:
242,163,36844,1,0,0:0:0:0:
255,276,37013,1,0,0:0:0:0:
396,136,37181,5,0,0:0:0:0:
396,136,37350,2,0,B|216:56,1,190
224,60,37856,2,0,B|420:36,1,190
412,36,38361,1,0,0:0:0:0:
424,340,38698,5,0,0:0:0:0:
380,236,38867,1,0,0:0:0:0:
316,328,39035,1,0,0:0:0:0:
264,228,39204,2,0,B|204:132,2,95,0|0|8,0:0|0:0|0:0,0:0:0:0:
56,344,39878,5,0,0:0:0:0:
136,292,40046,1,0,0:0:0:0:
216,132,40383,1,0,0:0:0:0:
136,180,40551,1,0,0:0:0:0:
56,96,40889,1,8,0:0:0:0:
136,48,41057,1,0,0:0:0:0:
132,232,41563,5,0,0:0:0:0:
148,136,41732,1,0,0:0:0:0:
220,196,41901,1,0,0:0:0:0:
128,176,42069,5,0,0:0:0:0:
144,80,42238,1,0,0:0:0:0:
216,140,42407,1,0,0:0:0:0:
148,136,42575,5,0,0:0:0:0:
244,124,42743,2,0,B|288:88,2,47.5
332,156,43080,2,0,B|304:192,3,47.5
320,232,43417,2,0,B|356:268,3,47.5
340,312,43754,2,0,B|304:344,3,47.5
256,348,44092,6,0,B|196:336|192:272,1,95,4|0,0:0|0:0,0:0:0:0:
256,188,44429,2,0,B|228:128|176:132,1,95,8|0,0:0|0:0,0:0:0:0:
185,131,44766,1,0,0:0:0:0:
76,156,44934,1,0,0:0:0:0:
120,52,45103,1,8,0:0:0:0:
185,131,45271,1,0,0:0:0:0:
244,48,45440,6,0,B|344:32,1,95
332,148,45777,2,0,B|384:128|412:188,1,95,8|0,0:0|0:0,0:0:0:0:
472,88,46114,2,0,B|428:44,2,47.5
476,204,46451,1,8,0:0:0:0:
472,88,46620,1,0,0:0:0:0:
388,164,46788,6,0,B|312:232,1,95
340,340,47125,1,8,0:0:0:0:
317,227,47294,1,0,0:0:0:0:
204,240,47462,2,0,B|112:192,1,95
20,248,47799,1,8,0:0:0:0:
119,196,47968,1,0,0:0:0:0:
116,80,48137,6,0,B|92:32,2,47.5
232,80,48474,2,0,B|232:20,2,47.5,8|0|0,0:0|0:0|0:0,0:0:0:0:
348,80,48811,2,0,B|372:40,2,47.5
232,80,49148,5,8,0:0:0:0:
348,80,49316,1,0,0:0:0:0:
444,140,49485,6,0,B|416:320|224:304,2,285
444,140,50665,1,0,0:0:0:0:
332,164,50833,2,0,B|312:224|232:208,2,95
444,140,51339,2,0,B|424:260|320:296,2,190
444,140,52181,5,2,0:0:0:0:
312,132,52350,1,0,0:0:0:0:
400,244,52519,1,2,0:0:0:0:
288,172,52687,1,0,0:0:0:0:
296,292,52856,1,2,0:0:0:0:
240,172,53024,1,0,0:0:0:0:
176,288,53193,1,2,0:0:0:0:
204,160,53361,1,0,0:0:0:0:
264,96,53530,6,0,B|312:72,3,47.5
348,112,53867,2,0,B|336:176,3,47.5
284,180,54204,2,0,B|252:128,4,47.5,0|0|0|0|4,0:0|0:0|0:0|0:0|0:0,0:0:0:0:
300,124,54878,6,0,B|348:28,1,95,4|0,0:0|0:0,0:0:0:0:
360,172,55215,2,0,B|404:76,1,95
416,220,55552,2,0,B|460:120,1,95
480,264,55889,2,0,B|516:164,1,95,8|0,0:0|0:0,0:0:0:0:
480,264,56226,5,0,0:0:0:0:
416,220,56395,1,0,0:0:0:0:
360,172,56563,1,0,0:0:0:0:
300,124,56732,1,0,0:0:0:0:
300,124,57069,5,0,0:0:0:0:
212,224,57238,1,0,0:0:0:0:
120,124,57406,1,0,0:0:0:0:
120,124,57575,6,0,B|24:172,1,95
168,184,57912,2,0,B|72:228,1,95
216,240,58249,2,0,B|116:284,1,95
260,304,58586,2,0,B|160:340,1,95,8|0,0:0|0:0,0:0:0:0:
260,304,58923,5,0,0:0:0:0:
216,240,59092,1,0,0:0:0:0:
168,184,59260,1,0,0:0:0:0:
120,124,59429,1,0,0:0:0:0:
184,40,59766,5,0,0:0:0:0:
260,148,59934,1,0,0:0:0:0:
344,44,60103,1,0,0:0:0:0:
392,168,60271,5,0,0:0:0:0:
260,148,60440,2,0,B|260:256,1,95
128,168,60777,1,0,0:0:0:0:
252,148,60945,2,0,B|252:256,1,95
392,168,61283,5,8,0:0:0:0:
268,148,61451,2,0,B|268:256,1,95
128,168,61788,1,0,0:0:0:0:
260,148,61956,2,0,B|260:256,1,95
372,320,62294,2,0,B|456:284|472:132,1,190
467,165,62799,5,0,0:0:0:0:
416,60,62968,1,0,0:0:0:0:
348,172,63137,1,0,0:0:0:0:
467,165,63305,1,8,0:0:0:0:
408,284,63474,1,0,0:0:0:0:
276,264,63642,2,0,B|176:200,1,95
272,104,63979,2,0,B|200:32,1,95,8|0,0:0|0:0,0:0:0:0:
72,60,64316,5,0,0:0:0:0:
152,164,64485,1,0,0:0:0:0:
208,40,64653,1,0,0:0:0:0:
72,60,64822,1,0,0:0:0:0:
152,164,64990,2,0,B|60:193|60:193|66:321,1,190
345,250,65665,5,4,0:0:0:0:
256,102,65833,2,0,B|245:28,2,47.5
102,186,66170,1,0,0:0:0:0:
184,344,66339,2,0,B|124:332|65:358,2,95,0|0|8,0:0|0:0|0:0,0:0:0:0:
182,345,66844,1,0,0:0:0:0:
345,250,67013,5,0,0:0:0:0:
256,102,67181,1,0,0:0:0:0:
102,186,67350,1,0,0:0:0:0:
182,345,67519,1,0,0:0:0:0:
256,104,67856,6,0,B|248:56|248:56|200:20,2,95
115,166,68361,5,0,0:0:0:0:
256,275,68530,2,0,B|266:337|266:337|328:368,2,95
365,140,69035,2,0,B|443:140,2,47.5
230,30,69372,1,8,0:0:0:0:
230,30,69541,1,0,0:0:0:0:
365,140,69710,5,0,0:0:0:0:
256,275,69878,1,0,0:0:0:0:
115,166,70047,1,0,0:0:0:0:
230,30,70215,1,0,0:0:0:0:
228,32,70552,6,0,B|208:80|148:96,2,95
368,84,71058,1,0,0:0:0:0:
368,84,71226,2,0,B|416:116|408:180,1,95,0|8,0:0|0:0,0:0:0:0:
300,240,71563,2,0,B|324:288|388:292,1,95
408,164,71901,1,0,0:0:0:0:
408,164,72069,2,0,B|356:188|316:148,1,95,8|0,0:0|0:0,0:0:0:0:
232,52,72406,5,0,0:0:0:0:
319,151,72575,1,0,0:0:0:0:
232,264,72743,1,8,0:0:0:0:
320,336,72912,1,0,0:0:0:0:
232,264,73080,2,0,B|228:160|132:92,1,190
56,108,73586,6,0,B|68:212,2,95
132,220,74092,2,0,B|72:304,2,95
216,320,74597,2,0,B|196:216,2,95,0|8|0,0:0|0:0|0:0,0:0:0:0:
300,216,75103,5,0,0:0:0:0:
216,320,75271,1,0,0:0:0:0:
168,196,75440,2,0,B|128:160,2,47.5
300,216,75777,2,0,B|336:176,4,47.5
300,216,76451,6,0,B|296:272|356:284,1,95,4|0,0:0|0:0,0:0:0:0:
468,272,76788,2,0,B|448:212|400:208,1,95
376,96,77125,2,0,B|408:48,2,47.5
404,208,77462,1,0,0:0:0:0:
312,140,77631,1,0,0:0:0:0:
224,208,77799,6,0,B|224:148|160:120,1,95
100,212,78137,2,0,B|80:92,1,95
172,44,78474,1,0,0:0:0:0:
84,118,78642,1,0,0:0:0:0:
24,24,78811,1,0,0:0:0:0:
200,140,79148,6,0,B|148:156|152:224,1,95
264,232,79485,2,0,B|264:288|200:308,1,95
104,268,79822,2,0,B|58:235|80:171,2,95
212,304,80328,1,0,0:0:0:0:
104,336,80496,2,0,B|172:264,1,95
240,176,80833,2,0,B|328:136,1,95
428,84,81170,5,0,0:0:0:0:
328,136,81339,1,0,0:0:0:0:
428,84,81507,2,0,B|480:52,2,47.5
428,320,81844,5,0,0:0:0:0:
364,224,82013,1,0,0:0:0:0:
296,132,82181,2,0,B|288:80,2,47.5
364,224,82519,1,0,0:0:0:0:
250,245,82688,5,0,0:0:0:0:
139,272,82856,2,0,B|96:324,2,47.5
184,168,83193,2,0,B|136:140|84:160,2,95
116,76,83698,1,0,0:0:0:0:
220,28,83867,2,0,B|312:0|424:60,1,190
256,112,84541,5,0,0:0:0:0:
338,190,84710,1,0,0:0:0:0:
256,272,84879,2,0,B|290:306,2,47.5
256,272,85215,1,0,0:0:0:0:
174,190,85384,1,0,0:0:0:0:
256,112,85552,2,0,B|288:68,2,47.5
356,104,85889,5,0,0:0:0:0:
460,56,86058,1,0,0:0:0:0:
388,144,86226,1,0,0:0:0:0:
480,212,86395,1,0,0:0:0:0:
368,192,86563,5,0,0:0:0:0:
380,216,86648,1,0,0:0:0:0:
392,240,86732,1,0,0:0:0:0:
404,268,86816,1,0,0:0:0:0:
416,292,86901,1,0,0:0:0:0:
440,344,87238,5,4,0:0:0:0:
224,304,98024,6,0,B|188:340|120:324,2,95,4|0|0,0:0|0:0|0:0,0:0:0:0:
280,204,98530,2,0,B|227:116|120:116,2,190
224,304,99372,1,0,0:0:0:0:
340,304,99541,1,0,0:0:0:0:
280,204,99710,1,0,0:0:0:0:
392,204,99878,2,0,B|469:136|451:30,2,190
392,204,100721,5,0,0:0:0:0:
340,304,100889,1,0,0:0:0:0:
280,204,101058,1,0,0:0:0:0:
340,304,101226,2,0,B|292:336|240:312,1,95
136,328,101563,2,0,B|80:336|56:292,2,95
108,216,102069,2,0,B|80:164|16:160,2,95
148,108,102575,1,0,0:0:0:0:
108,216,102743,1,0,0:0:0:0:
44,120,102912,2,0,B|56:72|108:52,1,95
228,168,103417,6,0,B|280:184|324:136,1,95
272,40,103754,2,0,B|308:76|376:40,1,95
360,47,104092,1,0,0:0:0:0:
428,140,104260,1,0,0:0:0:0:
344,216,104429,2,0,B|316:168,2,47.5
416,304,104766,6,0,B|308:352|208:300,1,190
232,312,105271,2,0,B|167:212|55:202,2,190
256,228,106114,6,0,B|212:132,1,95
400,240,106451,2,0,B|452:160,1,95
256,120,106788,2,0,B|212:28,1,95
400,116,107125,2,0,B|440:28,1,95
324,72,107462,2,0,B|324:16,12,47.5
288,72,108811,6,0,B|344:84|360:148,1,95,4|0,0:0|0:0,0:0:0:0:
312,236,109148,2,0,B|252:232|244:172,1,95,8|0,0:0|0:0,0:0:0:0:
288,72,109485,1,0,0:0:0:0:
180,104,109653,1,0,0:0:0:0:
76,60,109822,2,0,B|36:100,2,47.5,8|0|0,0:0|0:0|0:0,0:0:0:0:
180,104,110159,6,0,B|180:212,2,95,0|0|8,0:0|0:0|0:0,0:0:0:0:
268,180,110665,2,0,B|336:260,2,95,0|0|0,0:0|0:0|0:0,0:0:0:0:
160,216,111170,1,8,0:0:0:0:
180,104,111339,1,0,0:0:0:0:
264,72,111507,6,0,B|292:120|360:116,1,95
456,92,111844,2,0,B|404:48,2,47.5,8|0|0,0:0|0:0|0:0,0:0:0:0:
396,188,112181,2,0,B|392:248|324:256,1,95
296,360,112519,2,0,B|237:374|209:312,1,95,8|0,0:0|0:0,0:0:0:0:
220,212,112856,5,0,0:0:0:0:
260,112,113024,1,0,0:0:0:0:
148,124,113193,1,8,0:0:0:0:
92,24,113361,1,0,0:0:0:0:
148,124,113530,1,0,0:0:0:0:
220,212,113698,1,0,0:0:0:0:
164,312,113867,2,0,B|60:344,1,95,8|0,0:0|0:0,0:0:0:0:
56,228,114204,6,0,B|24:180|48:120,1,95
108,44,114541,2,0,B|152:16|216:64,1,95,8|0,0:0|0:0,0:0:0:0:
312,48,114878,2,0,B|364:32,2,47.5
388,132,115215,2,0,B|440:108|440:40,1,95,8|0,0:0|0:0,0:0:0:0:
464,168,115552,5,0,0:0:0:0:
364,220,115721,1,0,0:0:0:0:
460,284,115889,1,8,0:0:0:0:
464,168,116058,1,0,0:0:0:0:
460,284,116226,1,0,0:0:0:0:
364,220,116394,1,0,0:0:0:0:
460,284,116563,2,0,B|436:340|368:332,1,95,8|0,0:0|0:0,0:0:0:0:
272,328,116901,5,2,0:0:0:0:
228,224,117069,2,0,B|208:164|140:160,2,95,0|10|0,0:0|0:0|0:0,0:0:0:0:
228,224,117575,1,2,0:0:0:0:
228,112,117743,2,0,B|208:52|140:48,2,95,0|10|0,0:0|0:0|0:0,0:0:0:0:
228,112,118249,5,2,0:0:0:0:
260,220,118417,1,0,0:0:0:0:
292,112,118586,1,10,0:0:0:0:
320,220,118754,1,0,0:0:0:0:
368,168,118923,2,0,B|168:164,1,190,0|8,0:0|0:0,0:0:0:0:
80,308,119597,6,0,B|124:276|180:328,1,95,4|0,0:0|0:0,0:0:0:0:
280,300,119934,2,0,B|344:292|352:228,1,95,8|0,0:0|0:0,0:0:0:0:
456,208,120271,1,0,0:0:0:0:
348,244,120440,1,0,0:0:0:0:
456,208,120608,2,0,B|496:164|464:112,1,95,8|0,0:0|0:0,0:0:0:0:
372,56,120945,6,0,B|320:28|256:44,2,95,0|0|8,0:0|0:0|0:0,0:0:0:0:
352,168,121451,1,0,0:0:0:0:
352,168,121620,1,0,0:0:0:0:
352,168,121788,1,0,0:0:0:0:
240,144,121957,2,0,B|180:140|164:80,1,95,8|0,0:0|0:0,0:0:0:0:
52,96,122294,6,0,B|72:48|136:40,1,95
240,52,122631,2,0,B|296:48|320:104,1,95,8|0,0:0|0:0,0:0:0:0:
428,68,122968,2,0,B|408:124,2,47.5
428,184,123305,2,0,B|368:220,2,47.5,8|0|0,0:0|0:0|0:0,0:0:0:0:
428,300,123642,2,0,B|340:360,2,95,0|0|8,0:0|0:0|0:0,0:0:0:0:
312,300,124148,2,0,B|196:336,2,95
428,300,124653,1,8,0:0:0:0:
360,208,124822,1,0,0:0:0:0:
360,208,124990,6,0,B|352:148|284:140,1,95
212,68,125328,2,0,B|156:76|160:140,1,95,8|0,0:0|0:0,0:0:0:0:
240,220,125665,2,0,B|248:272|196:312,1,95
92,324,126002,2,0,B|40:348,2,47.5,8|0|0,0:0|0:0|0:0,0:0:0:0:
204,304,126339,5,0,0:0:0:0:
92,324,126507,1,0,0:0:0:0:
132,216,126676,1,8,0:0:0:0:
224,148,126844,2,0,B|128:96,2,95
176,44,127350,2,0,B|264:96,1,95,8|0,0:0|0:0,0:0:0:0:
260,92,127687,5,2,0:0:0:0:
260,92,127856,1,0,0:0:0:0:
344,164,128024,1,2,0:0:0:0:
344,164,128193,1,0,0:0:0:0:
348,276,128361,1,2,0:0:0:0:
348,276,128530,1,0,0:0:0:0:
260,352,128698,1,10,0:0:0:0:
260,352,128867,1,0,0:0:0:0:
176,276,129035,6,0,B|144:232,3,47.5
148,208,129372,2,0,B|168:160,3,47.5
156,136,129710,2,0,B|116:96,4,47.5
156,136,130384,6,0,B|244:56|364:128,2,213.749993629754,4|0|0,0:0|0:0|0:0,0:0:0:0:
332,232,131732,2,0,B|272:297|202:283,1,142.499995753169
206,283,132238,1,0,0:0:0:0:
206,283,132575,1,0,0:0:0:0:
132,216,132743,1,0,0:0:0:0:
132,216,133080,6,0,B|88:220|76:272,2,71.2499978765846
116,116,133586,2,0,B|89:80|38:98,2,71.2499978765846
208,152,134092,2,0,B|250:136|248:82,1,71.2499978765846
256,192,134429,12,4,135440,0:0:0:0:
112,68,135777,6,0,B|344:68,1,213.749993629754
404,252,136788,1,0,0:0:0:0:
404,252,136956,1,0,0:0:0:0:
404,252,137125,6,0,B|172:252,1,213.749993629754
190,252,137968,1,0,0:0:0:0:
120,112,138474,5,2,0:0:0:0:
280,112,138643,1,0,0:0:0:0:
356,184,138811,1,2,0:0:0:0:
196,184,138980,1,0,0:0:0:0:
124,256,139148,1,2,0:0:0:0:
284,256,139317,1,0,0:0:0:0:
360,328,139485,1,2,0:0:0:0:
200,328,139654,1,0,0:0:0:0:
356,256,139822,5,0,0:0:0:0:
356,256,139906,1,0,0:0:0:0:
356,256,139990,1,0,0:0:0:0:
356,256,140075,1,0,0:0:0:0:
356,256,140159,1,0,0:0:0:0:
356,256,140243,1,0,0:0:0:0:
356,256,140328,1,0,0:0:0:0:
356,256,140412,1,0,0:0:0:0:
356,256,140496,2,0,B|288:188,2,95
472,252,141002,1,8,0:0:0:0:
380,172,141170,6,0,B|416:84,1,95,4|0,0:0|0:0,0:0:0:0:
380,172,141507,2,0,B|280:116,1,95
380,172,141844,2,0,B|460:222,1,95
380,172,142181,2,0,B|333:254,1,95,8|0,0:0|0:0,0:0:0:0:
333,254,142519,5,0,0:0:0:0:
460,224,142687,1,0,0:0:0:0:
416,84,142856,1,0,0:0:0:0:
300,128,143024,1,0,0:0:0:0:
108,60,143361,6,0,B|108:112|108:112|56:160,2,95
192,164,143867,1,0,0:0:0:0:
272,272,144035,2,0,B|216:264|180:308,1,95,0|8,0:0|0:0,0:0:0:0:
192,164,144372,1,0,0:0:0:0:
192,164,144541,2,0,B|200:108|276:96,1,95
388,88,144878,2,0,B|424:132|392:188,1,95,8|0,0:0|0:0,0:0:0:0:
396,312,145215,2,0,B|424:356|484:344,3,95
420,192,146058,5,0,0:0:0:0:
420,192,146226,1,0,0:0:0:0:
420,192,146395,1,0,0:0:0:0:
288,188,146563,2,0,B|288:288,2,95
192,284,147069,2,0,B|192:189,2,95
100,188,147575,2,0,B|100:288,2,95,8|0|0,0:0|0:0|0:0,0:0:0:0:
100,188,148080,5,0,0:0:0:0:
192,288,148249,1,0,0:0:0:0:
288,188,148417,1,0,0:0:0:0:
188,100,148586,2,0,B|272:56,2,95,0|0|8,0:0|0:0|0:0,0:0:0:0:
100,188,149092,5,0,0:0:0:0:
132,316,149260,2,0,B|172:348|232:320,1,95
324,240,149597,2,0,B|272:260|224:204,1,95,8|0,0:0|0:0,0:0:0:0:
264,88,149934,2,0,B|268:40,2,47.5
236,220,150271,2,0,B|240:168,2,47.5,8|0|0,0:0|0:0|0:0,0:0:0:0:
184,140,150608,5,0,0:0:0:0:
316,168,150777,1,0,0:0:0:0:
184,140,150945,1,0,0:0:0:0:
316,168,151114,1,0,0:0:0:0:
424,92,151283,2,0,B|492:184|412:288,1,190
320,296,151957,5,4,0:0:0:0:
208,320,152125,1,0,0:0:0:0:
276,240,152294,1,0,0:0:0:0:
164,232,152462,1,0,0:0:0:0:
260,172,152631,1,0,0:0:0:0:
152,132,152799,1,0,0:0:0:0:
260,104,152968,1,8,0:0:0:0:
164,40,153137,1,0,0:0:0:0:
164,40,153305,5,0,0:0:0:0:
152,132,153474,1,0,0:0:0:0:
164,232,153642,1,0,0:0:0:0:
208,320,153811,1,0,0:0:0:0:
432,280,154148,5,0,0:0:0:0:
432,280,154316,1,0,0:0:0:0:
432,280,154485,1,0,0:0:0:0:
368,188,154653,2,0,B|364:132,2,47.5
280,260,154990,2,0,B|224:252|212:188,1,95,8|0,0:0|0:0,0:0:0:0:
288,108,155328,2,0,B|248:64|200:72,1,95
120,148,155665,2,0,B|76:176,2,47.5,8|0|0,0:0|0:0|0:0,0:0:0:0:
164,252,156002,5,0,0:0:0:0:
164,252,156170,1,0,0:0:0:0:
240,340,156339,1,0,0:0:0:0:
240,340,156507,1,0,0:0:0:0:
432,312,156844,5,0,0:0:0:0:
432,312,157013,1,0,0:0:0:0:
432,312,157181,1,0,0:0:0:0:
432,312,157350,2,0,B|324:296|264:224,1,190
268,228,157856,2,0,B|276:119|344:54,1,190
340,56,158361,2,0,B|448:72|508:144,1,190
504,140,158867,2,0,B|495:248|427:313,1,190
432,312,159372,2,0,B|410:224|320:163,1,190,0|0,0:0|0:0,0:0:0:0:
320,163,159878,5,0,0:0:0:0:
208,180,160047,2,0,B|212:232|168:268,1,95
88,188,160384,2,0,B|32:200,2,47.5,8|0|0,0:0|0:0|0:0,0:0:0:0:
208,180,160721,2,0,B|218:125|279:104,1,95
364,52,161058,2,0,B|416:32,2,47.5,8|0|0,0:0|0:0|0:0,0:0:0:0:
424,148,161395,5,0,0:0:0:0:
312,144,161563,1,0,0:0:0:0:
380,236,161732,1,0,0:0:0:0:
240,172,161901,1,0,0:0:0:0:
148,236,162069,2,0,B|124:192,4,47.5
168,124,162575,2,0,B|173:62|233:53,1,95,0|4,0:0|0:0,0:0:0:0:
256,192,173530,6,0,B|256:96,1,95
256,192,173867,2,0,B|352:192,1,95
256,192,174204,2,0,B|256:304,1,95
256,192,174541,2,0,B|144:192,1,95,8|0,0:0|0:0,0:0:0:0:
161,192,174878,5,0,0:0:0:0:
256,288,175047,1,0,0:0:0:0:
352,192,175215,1,0,0:0:0:0:
256,96,175384,1,0,0:0:0:0:
392,68,175721,5,0,0:0:0:0:
392,68,175889,1,0,0:0:0:0:
392,68,176058,1,0,0:0:0:0:
460,160,176226,2,0,B|472:220|420:248,1,95
320,276,176563,2,0,B|318:222|360:184,1,95,8|0,0:0|0:0,0:0:0:0:
460,160,176901,5,0,0:0:0:0:
460,160,177069,1,0,0:0:0:0:
392,68,177238,1,8,0:0:0:0:
392,68,177406,1,0,0:0:0:0:
276,68,177575,2,0,B|204:136,1,95
292,208,177912,2,0,B|216:292,1,95
80,64,178417,5,0,0:0:0:0:
80,64,178586,1,0,0:0:0:0:
80,64,178754,1,0,0:0:0:0:
84,168,178923,6,0,B|156:228,2,95
192,124,179429,1,0,0:0:0:0:
84,168,179597,1,0,0:0:0:0:
56,280,179766,1,0,0:0:0:0:
168,300,179934,6,0,B|228:216,2,95,8|0|0,0:0|0:0|0:0,0:0:0:0:
56,280,180440,1,0,0:0:0:0:
168,300,180609,1,0,0:0:0:0:
280,276,180777,1,0,0:0:0:0:
356,192,180945,2,0,B|408:100,2,95,0|0|8,0:0|0:0|0:0,0:0:0:0:
256,192,181451,12,4,183979,0:0:0:0:
256,96,184316,6,0,B|192:88|176:144,1,95
212,244,184653,2,0,B|144:248|120:200,1,95
64,116,184990,2,0,B|16:120,2,47.5
128,212,185328,2,0,B|144:160,2,47.5
132,324,185665,1,0,0:0:0:0:
212,244,185833,6,0,B|261:248|307:203,1,95
412,212,186170,1,0,0:0:0:0:
376,128,186339,2,0,B|480:128,1,95
420,28,186676,2,0,B|304:28,1,95
220,56,187013,5,0,0:0:0:0:
236,168,187181,1,0,0:0:0:0:
132,120,187350,2,0,B|100:176|144:232,1,95
236,168,187687,1,0,0:0:0:0:
328,100,187856,2,0,B|284:48,2,47.5
400,188,188193,1,0,0:0:0:0:
328,276,188361,6,0,B|296:320|312:368,1,95
196,368,188698,2,0,B|180:322|212:278,1,95
236,168,189035,2,0,B|128:168,1,95
180,60,189372,2,0,B|288:60,1,95
368,64,189710,5,0,0:0:0:0:
432,156,189878,1,0,0:0:0:0:
368,252,190047,2,0,B|336:288|272:276,2,95
432,156,190552,1,0,0:0:0:0:
316,156,190721,2,0,B|272:116,2,47.5
368,252,191058,6,0,B|324:296|272:264,1,95
316,156,191395,2,0,B|256:152|224:196,1,95
176,292,191732,2,0,B|72:292,1,95
136,192,192069,2,0,B|236:192,1,95
304,296,192406,5,0,0:0:0:0:
312,180,192575,1,0,0:0:0:0:
212,124,192743,2,0,B|168:84|120:120,1,95
312,180,193080,5,0,0:0:0:0:
212,124,193249,1,0,0:0:0:0:
320,88,193417,2,0,B|348:48|408:72,1,95
464,176,193754,5,0,0:0:0:0:
452,204,193839,1,0,0:0:0:0:
440,228,193923,1,0,0:0:0:0:
420,248,194007,1,0,0:0:0:0:
392,260,194092,5,0,0:0:0:0:
364,264,194176,1,0,0:0:0:0:
336,268,194260,1,0,0:0:0:0:
308,272,194344,1,0,0:0:0:0:
288,252,194429,5,0,0:0:0:0:
264,236,194513,1,0,0:0:0:0:
236,224,194597,1,0,0:0:0:0:
208,232,194681,1,0,0:0:0:0:
184,248,194766,6,0,B|136:280|164:336,2,95,0|0|4,0:0|0:0|0:0,0:0:0:0:
