osu file format v5

[General]
AudioFilename: Caramel Dansen - Hatsune Miku.mp3
AudioLeadIn: 0
PreviewTime: -1
Countdown: 1
SampleSet: Normal
StackLeniency: 0.9
Mode: 0
LetterboxInBreaks: 1

[Metadata]
Title:Caramel Dansen
Artist:Hatsune Miku
Creator:Rexus64
Version:Normal
Source:
Tags:

[Difficulty]
HPDrainRate:5
CircleSize:5
OverallDifficulty:5
SliderMultiplier:1.4
SliderTickRate:1

[Events]
//Background and Video events
//Break Periods
//Storyboard Layer 0 (Background)
//Storyboard Layer 1 (Failing)
//Storyboard Layer 2 (Passing)
//Storyboard Layer 3 (Foreground)
//Storyboard Sound Samples
//Background Colour Transformations
3,100,163,162,255

[TimingPoints]
0,750,4,1,0,100,1
0,-100,4,1,0,100,0

[Colours]
Combo1 : 0,0,255
Combo2 : 255,255,0
Combo3 : 0,0,0
Combo4 : 255,128,0

[HitObjects]
256,192,1406,1,0
256,192,4125,1,0
224,128,5437,2,0,L|256:128,15,17.5
203,132,7593,2,0,L|139:132,3,52.5
251,188,9656,1,0
128,96,14062,1,0
128,96,14437,1,0
128,96,14718,1,0
320,64,15093,1,0
320,64,15468,1,0
320,64,15843,1,0
320,64,16125,1,0
320,96,16500,1,0
320,96,16875,1,0
320,96,17156,1,0
320,96,17531,1,0
320,96,17906,1,0
320,128,18281,1,0
320,128,18562,1,0
320,128,18843,1,0
320,128,19218,1,0
320,160,19593,1,0
320,160,19875,1,0
320,160,20250,1,0
256,192,20625,1,0
256,192,21000,1,0
256,192,21281,1,0
256,192,21562,1,0
192,192,21937,1,0
192,192,22312,1,0
192,192,22687,1,0
192,192,22968,1,0
128,128,23343,1,0
128,128,23718,1,0
128,128,24093,1,0
128,128,24375,1,0
224,160,24656,2,8,L|256:160,15,17.5
256,192,27468,12,8,28875
128,192,30656,6,8,L|160:192,10,17.5
256,192,33281,1,8
256,192,33937,1,8
256,192,34687,1,8
256,192,35812,12,8,36750
256,192,37031,6,8,L|288:192,15,17.5
160,256,39750,2,8,L|160:160,3,87.5
32,128,42562,1,8
192,128,43031,1,8
480,96,44250,1,8
480,96,44906,1,8
416,96,46968,1,8
320,160,47343,1,8
224,192,47718,1,8
128,224,48000,1,8
64,64,49031,1,8
224,64,49687,1,8
96,64,50437,1,8
224,64,51187,1,8
96,64,51750,1,8
224,64,52500,1,8
96,64,53156,1,8
128,160,53812,1,8
128,160,54562,1,8
128,160,55218,1,8
128,160,55968,1,8
128,160,56625,1,8
128,160,57281,1,8
64,160,57937,1,8
64,160,58406,1,8
64,160,58687,1,8
192,160,59343,5,8
192,160,60000,1,8
96,160,60656,1,8
96,160,61312,1,8
64,256,62062,1,8
96,256,62718,1,8
192,256,63468,1,8
192,256,64125,1,8
224,128,64781,1,8
224,128,65531,1,8
96,128,66187,1,8
96,128,66843,1,8
64,256,67687,1,8
64,256,68625,6,4,L|128:224,4,70
64,256,71343,6,10,L|64:0,3,245
256,160,78187,6,10,L|128:192,2,122.5
96,192,79968,2,10,L|288:288,1,210
257,191,81656,5,0
171,161,82312,1,0
125,92,82968,5,0
128,96,83718,2,8,L|352:64|320:256|256:288,1,490
256,192,89156,5,8
96,128,90656,2,8,L|128:128,10,17.5
160,192,92625,2,8,L|352:64|352:320|160:288|192:64,2,892.5
128,160,102843,1,8
192,160,103593,1,8
128,160,104250,1,8
192,160,104906,1,8
288,160,105562,1,8
192,160,106312,1,8
288,160,106968,1,8
192,160,107625,1,8
192,256,108281,1,8
192,160,109031,5,8
192,256,109687,1,8
192,160,110437,1,8
96,160,111093,1,8
192,160,111750,1,8
96,160,112500,1,8
192,160,113156,1,8
256,192,113906,12,8,119343
256,192,120750,5,8
128,96,122062,1,8
320,96,123468,1,8
256,192,124781,6,8,L|384:96|96:288|480:192,2,892.5
256,192,135843,1,8
256,192,141281,6,8,L|288:192,30,17.5
160,256,146718,6,8,L|160:32|352:32|352:64,1,437.5
256,192,149437,6,8,L|224:192,16,17.5
256,192,152156,2,8,L|288:192,16,17.5
256,192,154781,2,8,L|256:160,17,17.5
256,192,157687,2,8,L|256:224,15,17.5
160,192,159375,2,8,L|320:192,1,157.5
303,185,160500,2,8,L|448:192|352:32|192:320|384:320|128:96|96:288,1,1382.5
435,257,169968,6,8,L|416:256,16,17.5
12,351,172687,6,0,L|21:20|481:28|468:358|6:344|18:12|481:22|469:357|10:343|383:88|374:268|330:290,1,3850
256,192,194718,12,0,196125
