osu file format v14

[General]
AudioFilename: Hatsune-Miku---Buriki39s-Dance---Vocaloid(filka.info).mp3
AudioLeadIn: 0
PreviewTime: -1
Countdown: 1
SampleSet: None
StackLeniency: 0.7
Mode: 3
LetterboxInBreaks: 1
SpecialStyle: 0
WidescreenStoryboard: 0

[Editor]
DistanceSpacing: 1
BeatDivisor: 4
GridSize: 4
TimelineZoom: 0.9000001

[Metadata]
Title:Buriki no Dance - Miku
TitleUnicode:Buriki no Dance - Miku
Artist:Hatsune Miku
ArtistUnicode:Hatsune Miku
Creator:Kira_Chan_
Version:Easy (Non-Stop)
Source:
Tags:hatsune miku
BeatmapID:734374
BeatmapSetID:331516

[Difficulty]
HPDrainRate:5
CircleSize:4
OverallDifficulty:6
ApproachRate:5
SliderMultiplier:1.4
SliderTickRate:1

[Events]
//Background and Video events
0,0,"vocaloid-glance-girls.jpg",0,0
//Break Periods
2,153130,162803
//Storyboard Layer 0 (Background)
//Storyboard Layer 1 (Fail)
//Storyboard Layer 2 (Pass)
//Storyboard Layer 3 (Foreground)
//Storyboard Sound Samples

[TimingPoints]
7848.00299885453,348.756103231807,4,1,1,56,1,0

[HitObjects]
448,192,1396,5,8,0:0:0:0:
320,192,1744,1,8,0:0:0:0:
192,192,2093,1,8,0:0:0:0:
448,192,2442,1,8,0:0:0:0:
192,192,2791,1,8,0:0:0:0:
448,192,3139,1,8,0:0:0:0:
320,192,3488,1,0,0:0:0:0:
192,192,3662,1,0,0:0:0:0:
320,192,4098,1,0,0:0:0:0:
448,192,4273,1,0,0:0:0:0:
192,192,4622,1,0,0:0:0:0:
448,192,4883,1,0,0:0:0:0:
64,192,5232,1,0,0:0:0:0:
320,192,5668,1,0,0:0:0:0:
192,192,5842,1,0,0:0:0:0:
64,192,6017,1,0,0:0:0:0:
448,192,6191,1,0,0:0:0:0:
320,192,6365,1,0,0:0:0:0:
192,192,6540,1,0,0:0:0:0:
64,192,6714,1,0,0:0:0:0:
448,192,7063,1,0,0:0:0:0:
320,192,7237,1,0,0:0:0:0:
64,192,7324,1,0,0:0:0:0:
448,192,7760,1,0,0:0:0:0:
64,192,8109,1,0,0:0:0:0:
320,192,8283,1,0,0:0:0:0:
448,192,8632,1,8,0:0:0:0:
320,192,8807,1,8,0:0:0:0:
192,192,8981,1,8,0:0:0:0:
448,192,9330,1,8,0:0:0:0:
320,192,9504,1,8,0:0:0:0:
192,192,9678,1,8,0:0:0:0:
320,192,9940,1,0,0:0:0:0:
448,192,10114,1,0,0:0:0:0:
448,192,10550,1,0,0:0:0:0:
64,192,10899,1,0,0:0:0:0:
320,192,11073,1,0,0:0:0:0:
448,192,11422,1,8,0:0:0:0:
320,192,11597,1,8,0:0:0:0:
192,192,11771,1,8,0:0:0:0:
448,192,12120,1,8,0:0:0:0:
320,192,12294,1,8,0:0:0:0:
192,192,12469,1,8,0:0:0:0:
320,192,12730,1,0,0:0:0:0:
448,192,12904,1,0,0:0:0:0:
448,192,13340,1,0,0:0:0:0:
64,192,13689,1,0,0:0:0:0:
320,192,13864,1,0,0:0:0:0:
448,192,14212,1,8,0:0:0:0:
320,192,14387,1,8,0:0:0:0:
192,192,14561,1,0,0:0:0:0:
448,192,14910,1,8,0:0:0:0:
320,192,15084,1,8,0:0:0:0:
192,192,15259,1,8,0:0:0:0:
320,192,15520,1,0,0:0:0:0:
448,192,15695,1,0,0:0:0:0:
448,192,16130,1,0,0:0:0:0:
64,192,16479,1,0,0:0:0:0:
320,192,16654,1,0,0:0:0:0:
448,192,17002,1,8,0:0:0:0:
320,192,17177,1,8,0:0:0:0:
192,192,17351,1,8,0:0:0:0:
448,192,17700,1,8,0:0:0:0:
320,192,17874,1,8,0:0:0:0:
192,192,18049,1,8,0:0:0:0:
320,192,18310,1,0,0:0:0:0:
448,192,18485,1,8,0:0:0:0:
320,192,18921,1,0,0:0:0:0:
64,192,19095,1,0,0:0:0:0:
448,192,19269,1,0,0:0:0:0:
192,192,19444,1,0,0:0:0:0:
64,192,19618,1,0,0:0:0:0:
448,192,19792,1,0,0:0:0:0:
320,192,20141,1,0,0:0:0:0:
192,192,20490,1,0,0:0:0:0:
320,192,20577,1,0,0:0:0:0:
448,192,21013,1,0,0:0:0:0:
320,192,21187,1,0,0:0:0:0:
192,192,21362,1,0,0:0:0:0:
64,192,21623,128,0,22931:0:0:0:0:
192,192,22234,128,0,22931:0:0:0:0:
448,192,23106,1,0,0:0:0:0:
320,192,23280,1,0,0:0:0:0:
192,192,23454,1,0,0:0:0:0:
448,192,23629,1,0,0:0:0:0:
192,192,23803,1,0,0:0:0:0:
448,192,23977,1,0,0:0:0:0:
64,192,24152,1,0,0:0:0:0:
448,192,24501,1,0,0:0:0:0:
192,192,24675,1,0,0:0:0:0:
320,192,24849,1,0,0:0:0:0:
448,192,25024,128,0,25721:0:0:0:0:
320,192,25372,128,0,25721:0:0:0:0:
192,192,26070,1,0,0:0:0:0:
448,192,26244,1,0,0:0:0:0:
64,192,26593,1,0,0:0:0:0:
448,192,26768,1,0,0:0:0:0:
192,192,26942,1,0,0:0:0:0:
448,192,27203,1,0,0:0:0:0:
64,192,27378,1,0,0:0:0:0:
320,192,27552,1,0,0:0:0:0:
448,192,27988,1,0,0:0:0:0:
320,192,28075,1,0,0:0:0:0:
64,192,28250,1,0,0:0:0:0:
192,192,28337,1,0,0:0:0:0:
448,192,28686,1,0,0:0:0:0:
192,192,28860,1,0,0:0:0:0:
64,192,29034,1,0,0:0:0:0:
448,192,29209,1,0,0:0:0:0:
192,192,29383,1,0,0:0:0:0:
448,192,29558,1,0,0:0:0:0:
64,192,29732,1,0,0:0:0:0:
320,192,30081,1,8,0:0:0:0:
192,192,30429,1,8,0:0:0:0:
64,192,30778,1,8,0:0:0:0:
448,192,32871,1,0,0:0:0:0:
64,192,33220,1,0,0:0:0:0:
320,192,33394,1,0,0:0:0:0:
448,192,33743,1,8,0:0:0:0:
320,192,33917,1,8,0:0:0:0:
192,192,34091,1,8,0:0:0:0:
448,192,34440,1,8,0:0:0:0:
320,192,34615,1,8,0:0:0:0:
192,192,34789,1,8,0:0:0:0:
320,192,35050,1,0,0:0:0:0:
448,192,35225,1,0,0:0:0:0:
448,192,35661,1,0,0:0:0:0:
64,192,36010,1,0,0:0:0:0:
320,192,36184,1,0,0:0:0:0:
448,192,36533,1,8,0:0:0:0:
320,192,36707,1,8,0:0:0:0:
192,192,36881,1,8,0:0:0:0:
448,192,37230,1,8,0:0:0:0:
320,192,37405,1,8,0:0:0:0:
192,192,37579,1,8,0:0:0:0:
320,192,37841,1,0,0:0:0:0:
448,192,38015,1,0,0:0:0:0:
448,192,38451,1,0,0:0:0:0:
64,192,38800,1,0,0:0:0:0:
320,192,38974,1,0,0:0:0:0:
448,192,39323,1,8,0:0:0:0:
320,192,39497,1,8,0:0:0:0:
192,192,39671,1,8,0:0:0:0:
448,192,40020,1,8,0:0:0:0:
320,192,40195,1,8,0:0:0:0:
192,192,40369,1,8,0:0:0:0:
320,192,40631,1,0,0:0:0:0:
448,192,40805,1,0,0:0:0:0:
320,192,41241,1,0,0:0:0:0:
64,192,41415,1,0,0:0:0:0:
448,192,41590,1,0,0:0:0:0:
192,192,41764,1,0,0:0:0:0:
64,192,41938,1,0,0:0:0:0:
448,192,42113,1,0,0:0:0:0:
320,192,42462,1,0,0:0:0:0:
192,192,42810,1,0,0:0:0:0:
320,192,42897,1,0,0:0:0:0:
448,192,43333,1,0,0:0:0:0:
320,192,43508,1,0,0:0:0:0:
192,192,43682,1,0,0:0:0:0:
64,192,43944,128,4,45252:0:0:0:0:
192,192,44554,128,4,45252:0:0:0:0:
448,192,45426,1,0,0:0:0:0:
320,192,45600,1,0,0:0:0:0:
192,192,45775,1,0,0:0:0:0:
448,192,45949,1,0,0:0:0:0:
192,192,46123,1,0,0:0:0:0:
448,192,46298,1,0,0:0:0:0:
64,192,46472,1,0,0:0:0:0:
448,192,46821,1,0,0:0:0:0:
192,192,46995,1,0,0:0:0:0:
320,192,47170,1,0,0:0:0:0:
448,192,47344,128,4,48042:0:0:0:0:
320,192,47693,128,4,48042:0:0:0:0:
192,192,48390,1,0,0:0:0:0:
448,192,48565,1,0,0:0:0:0:
64,192,48914,1,0,0:0:0:0:
448,192,49088,1,0,0:0:0:0:
192,192,49262,1,0,0:0:0:0:
448,192,49524,1,0,0:0:0:0:
64,192,49698,1,0,0:0:0:0:
320,192,49873,1,0,0:0:0:0:
448,192,50309,1,0,0:0:0:0:
320,192,50396,1,0,0:0:0:0:
64,192,50570,1,0,0:0:0:0:
192,192,50657,1,0,0:0:0:0:
448,192,51006,1,0,0:0:0:0:
192,192,51180,1,0,0:0:0:0:
64,192,51355,1,0,0:0:0:0:
448,192,51529,1,0,0:0:0:0:
192,192,51704,1,0,0:0:0:0:
448,192,51878,1,0,0:0:0:0:
64,192,52052,1,0,0:0:0:0:
320,192,52401,1,8,0:0:0:0:
192,192,52750,1,8,0:0:0:0:
64,192,53099,1,8,0:0:0:0:
192,192,53447,1,4,0:0:0:0:
320,192,53622,1,4,0:0:0:0:
448,192,53796,1,4,0:0:0:0:
448,192,54145,1,0,0:0:0:0:
192,192,54319,1,0,0:0:0:0:
448,192,54494,1,0,0:0:0:0:
320,192,54668,1,0,0:0:0:0:
192,192,54842,1,0,0:0:0:0:
448,192,55191,1,8,0:0:0:0:
64,192,55540,1,8,0:0:0:0:
320,192,55889,1,8,0:0:0:0:
192,192,56237,1,0,0:0:0:0:
320,192,56412,1,0,0:0:0:0:
192,192,56586,1,0,0:0:0:0:
448,192,56935,1,0,0:0:0:0:
192,192,57109,1,0,0:0:0:0:
448,192,57284,1,0,0:0:0:0:
192,192,57458,1,0,0:0:0:0:
320,192,57632,1,0,0:0:0:0:
448,192,57894,1,8,0:0:0:0:
64,192,58243,1,8,0:0:0:0:
320,192,58592,1,8,0:0:0:0:
192,192,58940,1,0,0:0:0:0:
320,192,59115,1,0,0:0:0:0:
448,192,59289,1,0,0:0:0:0:
448,192,59638,1,0,0:0:0:0:
192,192,59812,1,0,0:0:0:0:
448,192,59987,1,0,0:0:0:0:
320,192,60161,1,0,0:0:0:0:
192,192,60335,1,0,0:0:0:0:
64,192,60597,1,0,0:0:0:0:
192,192,60771,1,0,0:0:0:0:
448,192,61120,1,0,0:0:0:0:
320,192,61294,1,0,0:0:0:0:
192,192,61469,1,0,0:0:0:0:
192,192,61818,1,0,0:0:0:0:
320,192,61992,1,0,0:0:0:0:
64,192,62166,1,0,0:0:0:0:
448,192,62341,1,0,0:0:0:0:
320,192,62515,1,0,0:0:0:0:
64,192,62777,128,6,63474:0:0:0:0:
320,192,63561,1,8,0:0:0:0:
448,192,63823,1,0,0:0:0:0:
320,192,63997,1,0,0:0:0:0:
192,192,64172,1,0,0:0:0:0:
320,192,64346,1,0,0:0:0:0:
448,192,64520,1,0,0:0:0:0:
320,192,64869,1,0,0:0:0:0:
192,192,65131,1,0,0:0:0:0:
448,192,65305,1,0,0:0:0:0:
64,192,65479,1,0,0:0:0:0:
320,192,65654,1,0,0:0:0:0:
192,192,65828,1,0,0:0:0:0:
448,192,66003,1,0,0:0:0:0:
320,192,66351,1,0,0:0:0:0:
448,192,66613,1,0,0:0:0:0:
320,192,66787,1,0,0:0:0:0:
64,192,67049,1,0,0:0:0:0:
320,192,67223,1,0,0:0:0:0:
192,192,67398,1,0,0:0:0:0:
448,192,67572,1,0,0:0:0:0:
320,192,67746,1,0,0:0:0:0:
192,192,67921,1,0,0:0:0:0:
448,192,68095,1,0,0:0:0:0:
64,192,68269,1,0,0:0:0:0:
320,192,68357,128,12,68880:0:0:0:0:
64,192,69054,1,0,0:0:0:0:
448,192,69403,1,0,0:0:0:0:
320,192,69577,1,0,0:0:0:0:
192,192,69752,1,0,0:0:0:0:
320,192,69926,1,0,0:0:0:0:
448,192,70100,1,0,0:0:0:0:
320,192,70449,1,0,0:0:0:0:
192,192,70711,1,0,0:0:0:0:
448,192,70885,1,0,0:0:0:0:
64,192,71060,1,0,0:0:0:0:
320,192,71234,1,0,0:0:0:0:
192,192,71408,1,0,0:0:0:0:
448,192,71583,1,0,0:0:0:0:
320,192,71931,1,0,0:0:0:0:
448,192,72193,1,0,0:0:0:0:
320,192,72367,1,0,0:0:0:0:
64,192,72629,1,0,0:0:0:0:
320,192,72803,1,0,0:0:0:0:
192,192,72978,1,0,0:0:0:0:
448,192,73152,1,0,0:0:0:0:
320,192,73326,1,0,0:0:0:0:
64,192,73501,1,0,0:0:0:0:
448,192,73675,1,0,0:0:0:0:
192,192,73850,1,0,0:0:0:0:
448,192,74024,128,12,74547:0:0:0:0:
192,192,74634,1,8,0:0:0:0:
448,192,74896,1,0,0:0:0:0:
320,192,75070,1,0,0:0:0:0:
192,192,75245,1,0,0:0:0:0:
320,192,75419,1,0,0:0:0:0:
448,192,75593,1,0,0:0:0:0:
320,192,75942,1,0,0:0:0:0:
192,192,76204,1,0,0:0:0:0:
448,192,76378,1,0,0:0:0:0:
64,192,76552,1,0,0:0:0:0:
320,192,76727,1,0,0:0:0:0:
192,192,76901,1,0,0:0:0:0:
448,192,77076,1,0,0:0:0:0:
320,192,77424,1,0,0:0:0:0:
448,192,77686,1,0,0:0:0:0:
320,192,77860,1,0,0:0:0:0:
64,192,78122,1,0,0:0:0:0:
320,192,78296,1,0,0:0:0:0:
192,192,78471,1,0,0:0:0:0:
448,192,78645,1,0,0:0:0:0:
320,192,78819,1,0,0:0:0:0:
192,192,78994,1,0,0:0:0:0:
448,192,79168,1,0,0:0:0:0:
64,192,79343,1,0,0:0:0:0:
320,192,79517,128,12,80040:0:0:0:0:
64,192,80127,1,8,0:0:0:0:
448,192,80389,1,0,0:0:0:0:
320,192,80563,1,0,0:0:0:0:
192,192,80738,1,0,0:0:0:0:
320,192,80912,1,0,0:0:0:0:
448,192,81086,1,0,0:0:0:0:
320,192,81435,1,0,0:0:0:0:
192,192,81697,1,0,0:0:0:0:
448,192,81871,1,0,0:0:0:0:
64,192,82045,1,0,0:0:0:0:
320,192,82220,128,10,83179:0:0:0:0:
192,192,83179,1,10,0:0:0:0:
64,192,83353,1,10,0:0:0:0:
448,192,83353,1,10,0:0:0:0:
320,192,83528,128,10,84225:0:0:0:0:
192,192,83528,128,10,84225:0:0:0:0:
448,192,84487,1,0,0:0:0:0:
320,192,84661,1,0,0:0:0:0:
192,192,84835,1,0,0:0:0:0:
64,192,85010,128,0,85882:0:0:0:0:
448,192,85882,1,0,0:0:0:0:
64,192,86230,1,0,0:0:0:0:
320,192,86405,1,0,0:0:0:0:
448,192,86754,1,8,0:0:0:0:
320,192,86928,1,8,0:0:0:0:
192,192,87102,1,8,0:0:0:0:
448,192,87451,1,8,0:0:0:0:
320,192,87625,1,8,0:0:0:0:
192,192,87800,1,8,0:0:0:0:
320,192,88061,1,0,0:0:0:0:
448,192,88236,1,0,0:0:0:0:
448,192,88672,1,0,0:0:0:0:
64,192,89020,1,0,0:0:0:0:
320,192,89195,1,0,0:0:0:0:
448,192,89544,1,8,0:0:0:0:
320,192,89718,1,8,0:0:0:0:
192,192,89892,1,8,0:0:0:0:
448,192,90241,1,8,0:0:0:0:
320,192,90416,1,8,0:0:0:0:
192,192,90590,1,8,0:0:0:0:
320,192,90851,1,0,0:0:0:0:
448,192,91026,1,0,0:0:0:0:
448,192,91462,1,0,0:0:0:0:
64,192,91811,1,0,0:0:0:0:
320,192,91985,1,0,0:0:0:0:
448,192,92334,1,8,0:0:0:0:
320,192,92508,1,8,0:0:0:0:
192,192,92682,1,8,0:0:0:0:
448,192,93031,1,8,0:0:0:0:
320,192,93206,1,8,0:0:0:0:
192,192,93380,1,8,0:0:0:0:
320,192,93642,1,0,0:0:0:0:
448,192,93816,1,0,0:0:0:0:
448,192,94252,1,0,0:0:0:0:
64,192,94601,1,0,0:0:0:0:
320,192,94775,1,0,0:0:0:0:
448,192,95124,1,8,0:0:0:0:
320,192,95298,1,8,0:0:0:0:
192,192,95472,1,8,0:0:0:0:
448,192,95821,1,8,0:0:0:0:
320,192,95996,1,8,0:0:0:0:
192,192,96170,1,8,0:0:0:0:
320,192,96432,1,0,0:0:0:0:
448,192,96606,1,0,0:0:0:0:
320,192,96955,1,0,0:0:0:0:
64,192,97129,1,0,0:0:0:0:
448,192,97303,1,0,0:0:0:0:
192,192,97478,1,0,0:0:0:0:
64,192,97652,1,0,0:0:0:0:
448,192,97827,1,0,0:0:0:0:
320,192,98175,1,0,0:0:0:0:
192,192,98524,1,0,0:0:0:0:
320,192,98611,1,0,0:0:0:0:
448,192,99047,1,0,0:0:0:0:
320,192,99222,1,0,0:0:0:0:
192,192,99396,1,0,0:0:0:0:
64,192,99658,128,0,100965:0:0:0:0:
192,192,100355,128,0,100965:0:0:0:0:
448,192,101140,1,0,0:0:0:0:
320,192,101314,1,0,0:0:0:0:
192,192,101489,1,0,0:0:0:0:
448,192,101663,1,0,0:0:0:0:
192,192,101837,1,0,0:0:0:0:
448,192,102012,1,0,0:0:0:0:
64,192,102186,1,0,0:0:0:0:
448,192,102535,1,0,0:0:0:0:
192,192,102709,1,0,0:0:0:0:
320,192,102884,1,0,0:0:0:0:
448,192,103058,128,0,103755:0:0:0:0:
320,192,103407,128,0,103755:0:0:0:0:
192,192,104104,1,0,0:0:0:0:
448,192,104279,1,0,0:0:0:0:
64,192,104627,1,0,0:0:0:0:
448,192,104802,1,0,0:0:0:0:
192,192,104976,1,0,0:0:0:0:
448,192,105238,1,0,0:0:0:0:
64,192,105412,1,0,0:0:0:0:
320,192,105586,1,0,0:0:0:0:
448,192,106022,1,0,0:0:0:0:
320,192,106110,1,0,0:0:0:0:
64,192,106284,1,0,0:0:0:0:
192,192,106371,1,0,0:0:0:0:
448,192,106720,1,0,0:0:0:0:
192,192,106894,1,0,0:0:0:0:
64,192,107069,1,0,0:0:0:0:
448,192,107243,1,0,0:0:0:0:
192,192,107417,1,0,0:0:0:0:
448,192,107592,1,0,0:0:0:0:
64,192,107766,1,0,0:0:0:0:
320,192,108115,1,0,0:0:0:0:
64,192,108289,1,0,0:0:0:0:
448,192,108464,1,0,0:0:0:0:
192,192,108638,1,0,0:0:0:0:
64,192,108812,1,0,0:0:0:0:
448,192,108987,1,0,0:0:0:0:
320,192,109336,1,0,0:0:0:0:
192,192,109684,1,0,0:0:0:0:
320,192,109771,1,0,0:0:0:0:
448,192,110207,1,0,0:0:0:0:
320,192,110382,1,0,0:0:0:0:
192,192,110556,1,0,0:0:0:0:
64,192,110818,128,0,112126:0:0:0:0:
192,192,111515,128,0,112126:0:0:0:0:
448,192,112300,1,0,0:0:0:0:
320,192,112474,1,0,0:0:0:0:
192,192,112649,1,0,0:0:0:0:
448,192,112823,1,0,0:0:0:0:
192,192,112997,1,0,0:0:0:0:
448,192,113172,1,0,0:0:0:0:
64,192,113346,1,0,0:0:0:0:
448,192,113695,1,0,0:0:0:0:
192,192,113869,1,0,0:0:0:0:
320,192,114044,1,0,0:0:0:0:
448,192,114218,128,0,114916:0:0:0:0:
320,192,114567,128,0,114916:0:0:0:0:
192,192,115264,1,0,0:0:0:0:
448,192,115439,1,0,0:0:0:0:
64,192,115788,1,0,0:0:0:0:
448,192,115962,1,0,0:0:0:0:
192,192,116136,1,0,0:0:0:0:
448,192,116398,1,0,0:0:0:0:
64,192,116572,1,0,0:0:0:0:
320,192,116747,1,0,0:0:0:0:
448,192,117183,1,0,0:0:0:0:
320,192,117270,1,0,0:0:0:0:
64,192,117444,1,0,0:0:0:0:
192,192,117531,1,0,0:0:0:0:
448,192,117880,1,0,0:0:0:0:
192,192,118054,1,0,0:0:0:0:
64,192,118229,1,0,0:0:0:0:
448,192,118403,1,0,0:0:0:0:
192,192,118578,1,0,0:0:0:0:
448,192,118752,1,0,0:0:0:0:
64,192,118926,1,0,0:0:0:0:
320,192,119275,1,8,0:0:0:0:
192,192,119624,1,8,0:0:0:0:
64,192,119973,1,8,0:0:0:0:
192,192,120321,1,0,0:0:0:0:
320,192,120496,1,0,0:0:0:0:
448,192,120670,1,0,0:0:0:0:
448,192,121019,1,0,0:0:0:0:
192,192,121193,1,0,0:0:0:0:
448,192,121368,1,0,0:0:0:0:
320,192,121542,1,0,0:0:0:0:
192,192,121716,1,0,0:0:0:0:
448,192,122065,1,0,0:0:0:0:
64,192,122414,1,0,0:0:0:0:
320,192,122763,1,0,0:0:0:0:
192,192,123111,1,0,0:0:0:0:
320,192,123286,1,0,0:0:0:0:
192,192,123460,1,0,0:0:0:0:
448,192,123809,1,0,0:0:0:0:
192,192,123983,1,0,0:0:0:0:
448,192,124158,1,0,0:0:0:0:
192,192,124332,1,0,0:0:0:0:
320,192,124506,1,0,0:0:0:0:
192,192,124681,1,0,0:0:0:0:
320,192,124855,1,8,0:0:0:0:
192,192,125204,1,8,0:0:0:0:
64,192,125553,1,8,0:0:0:0:
192,192,125901,1,0,0:0:0:0:
320,192,126076,1,0,0:0:0:0:
448,192,126250,1,0,0:0:0:0:
448,192,126599,1,0,0:0:0:0:
192,192,126773,1,0,0:0:0:0:
448,192,126948,1,0,0:0:0:0:
320,192,127122,1,0,0:0:0:0:
192,192,127296,1,0,0:0:0:0:
64,192,127471,1,0,0:0:0:0:
448,192,127645,1,0,0:0:0:0:
64,192,127994,1,0,0:0:0:0:
320,192,128343,1,0,0:0:0:0:
192,192,128691,1,0,0:0:0:0:
320,192,128866,1,0,0:0:0:0:
192,192,129040,1,0,0:0:0:0:
448,192,129389,1,6,0:0:0:0:
192,192,129563,1,6,0:0:0:0:
448,192,129738,1,6,0:0:0:0:
192,192,129912,1,6,0:0:0:0:
320,192,130087,1,6,0:0:0:0:
192,192,130261,1,6,0:0:0:0:
320,192,130435,1,6,0:0:0:0:
192,192,130610,1,8,0:0:0:0:
448,192,130871,1,0,0:0:0:0:
320,192,131046,1,0,0:0:0:0:
192,192,131220,1,0,0:0:0:0:
320,192,131394,1,0,0:0:0:0:
448,192,131569,1,0,0:0:0:0:
320,192,131917,1,0,0:0:0:0:
192,192,132179,1,0,0:0:0:0:
448,192,132353,1,0,0:0:0:0:
64,192,132528,1,0,0:0:0:0:
320,192,132702,1,0,0:0:0:0:
192,192,132877,1,0,0:0:0:0:
448,192,133051,1,0,0:0:0:0:
320,192,133400,1,0,0:0:0:0:
448,192,133661,1,0,0:0:0:0:
320,192,133836,1,0,0:0:0:0:
64,192,134097,1,0,0:0:0:0:
320,192,134272,1,0,0:0:0:0:
192,192,134446,1,0,0:0:0:0:
448,192,134620,1,0,0:0:0:0:
320,192,134795,1,0,0:0:0:0:
192,192,134969,1,0,0:0:0:0:
448,192,135143,1,0,0:0:0:0:
64,192,135318,1,0,0:0:0:0:
320,192,135405,128,12,135928:0:0:0:0:
64,192,136015,1,8,0:0:0:0:
448,192,136277,1,0,0:0:0:0:
320,192,136451,1,0,0:0:0:0:
192,192,136626,1,0,0:0:0:0:
320,192,136800,1,0,0:0:0:0:
448,192,136974,1,0,0:0:0:0:
320,192,137323,1,0,0:0:0:0:
192,192,137585,1,0,0:0:0:0:
448,192,137759,1,0,0:0:0:0:
64,192,137934,1,0,0:0:0:0:
320,192,138108,1,0,0:0:0:0:
192,192,138282,1,0,0:0:0:0:
448,192,138457,1,0,0:0:0:0:
320,192,138805,1,0,0:0:0:0:
448,192,139067,1,0,0:0:0:0:
320,192,139241,1,0,0:0:0:0:
64,192,139503,1,0,0:0:0:0:
320,192,139677,1,0,0:0:0:0:
192,192,139852,1,0,0:0:0:0:
448,192,140026,1,0,0:0:0:0:
320,192,140200,1,0,0:0:0:0:
192,192,140375,1,0,0:0:0:0:
448,192,140549,1,0,0:0:0:0:
64,192,140724,1,0,0:0:0:0:
320,192,140811,128,12,141683:0:0:0:0:
64,192,141770,1,8,0:0:0:0:
448,192,142031,1,0,0:0:0:0:
320,192,142206,1,0,0:0:0:0:
192,192,142380,1,0,0:0:0:0:
320,192,142555,1,0,0:0:0:0:
448,192,142729,1,0,0:0:0:0:
320,192,143078,1,0,0:0:0:0:
192,192,143339,1,0,0:0:0:0:
448,192,143514,1,0,0:0:0:0:
64,192,143688,1,0,0:0:0:0:
320,192,143862,1,0,0:0:0:0:
192,192,144037,1,0,0:0:0:0:
448,192,144211,1,0,0:0:0:0:
320,192,144560,1,0,0:0:0:0:
448,192,144821,1,0,0:0:0:0:
320,192,144996,1,0,0:0:0:0:
64,192,145257,1,0,0:0:0:0:
320,192,145432,1,0,0:0:0:0:
192,192,145606,1,0,0:0:0:0:
448,192,145781,1,0,0:0:0:0:
320,192,145955,1,0,0:0:0:0:
192,192,146129,1,0,0:0:0:0:
448,192,146304,1,0,0:0:0:0:
64,192,146478,1,0,0:0:0:0:
320,192,146565,128,12,147088:0:0:0:0:
64,192,147176,1,8,0:0:0:0:
448,192,147437,1,0,0:0:0:0:
320,192,147612,1,0,0:0:0:0:
192,192,147786,1,0,0:0:0:0:
320,192,147960,1,0,0:0:0:0:
448,192,148135,1,0,0:0:0:0:
320,192,148483,1,0,0:0:0:0:
192,192,148745,1,0,0:0:0:0:
448,192,148919,1,0,0:0:0:0:
64,192,149094,1,0,0:0:0:0:
320,192,149268,128,10,149966:0:0:0:0:
192,192,149966,1,10,0:0:0:0:
64,192,150227,1,0,0:0:0:0:
448,192,150227,1,0,0:0:0:0:
448,192,150402,1,10,0:0:0:0:
64,192,150402,1,10,0:0:0:0:
320,192,150576,128,10,151273:0:0:0:0:
192,192,150576,128,10,151273:0:0:0:0:
448,192,151535,1,0,0:0:0:0:
320,192,151709,1,0,0:0:0:0:
192,192,151884,1,0,0:0:0:0:
64,192,152058,128,0,152930:0:0:0:0:
320,192,164003,5,0,0:0:0:0:
192,192,164265,1,0,0:0:0:0:
448,192,164439,1,0,0:0:0:0:
64,192,164613,1,0,0:0:0:0:
320,192,164788,1,0,0:0:0:0:
192,192,164962,1,0,0:0:0:0:
448,192,165137,1,0,0:0:0:0:
320,192,165398,1,0,0:0:0:0:
192,192,165660,1,0,0:0:0:0:
64,192,165834,1,0,0:0:0:0:
448,192,166008,1,0,0:0:0:0:
192,192,166183,1,0,0:0:0:0:
448,192,166357,1,0,0:0:0:0:
192,192,166532,1,0,0:0:0:0:
64,192,166793,1,0,0:0:0:0:
320,192,167055,1,0,0:0:0:0:
448,192,167229,1,0,0:0:0:0:
192,192,167403,1,0,0:0:0:0:
64,192,167578,1,0,0:0:0:0:
448,192,167752,1,0,0:0:0:0:
192,192,167927,1,0,0:0:0:0:
448,192,168101,1,0,0:0:0:0:
64,192,168275,1,0,0:0:0:0:
320,192,168450,1,0,0:0:0:0:
192,192,168624,1,0,0:0:0:0:
320,192,168798,128,8,169409:0:0:0:0:
192,192,169234,1,8,0:0:0:0:
192,192,169409,1,8,0:0:0:0:
448,192,169583,1,0,0:0:0:0:
64,192,169845,1,0,0:0:0:0:
320,192,170019,1,0,0:0:0:0:
192,192,170193,1,0,0:0:0:0:
448,192,170455,1,0,0:0:0:0:
192,192,170542,1,0,0:0:0:0:
64,192,170717,1,0,0:0:0:0:
320,192,170978,1,0,0:0:0:0:
192,192,171240,1,0,0:0:0:0:
320,192,171414,1,0,0:0:0:0:
64,192,171588,1,0,0:0:0:0:
448,192,171763,1,0,0:0:0:0:
320,192,171937,1,0,0:0:0:0:
192,192,172112,1,0,0:0:0:0:
320,237,172460,1,0,0:0:0:0:
192,237,172722,1,0,0:0:0:0:
448,237,172896,1,0,0:0:0:0:
64,237,173158,1,0,0:0:0:0:
320,237,173332,1,0,0:0:0:0:
192,237,173507,1,0,0:0:0:0:
448,237,173681,1,0,0:0:0:0:
320,237,173855,1,0,0:0:0:0:
64,237,174030,1,0,0:0:0:0:
448,237,174204,1,0,0:0:0:0:
192,237,174379,1,0,0:0:0:0:
192,192,174727,1,8,0:0:0:0:
320,192,174727,1,8,0:0:0:0:
448,192,174727,1,8,0:0:0:0:
64,192,174727,1,8,0:0:0:0:
320,192,174902,1,8,0:0:0:0:
192,192,174902,1,8,0:0:0:0:
64,192,174902,1,8,0:0:0:0:
448,192,174902,1,8,0:0:0:0:
448,192,175250,1,0,0:0:0:0:
320,192,175425,1,0,0:0:0:0:
64,192,175599,1,0,0:0:0:0:
192,192,175774,1,0,0:0:0:0:
320,192,176035,1,0,0:0:0:0:
192,192,176210,1,0,0:0:0:0:
64,192,176558,1,0,0:0:0:0:
448,192,176820,1,0,0:0:0:0:
192,192,176994,1,0,0:0:0:0:
64,192,177081,1,0,0:0:0:0:
448,192,177256,1,0,0:0:0:0:
320,192,177430,1,0,0:0:0:0:
64,192,177692,1,0,0:0:0:0:
192,192,177953,1,0,0:0:0:0:
448,192,178215,1,0,0:0:0:0:
192,192,178389,1,0,0:0:0:0:
320,192,178564,1,0,0:0:0:0:
64,192,178738,1,0,0:0:0:0:
192,192,178912,1,0,0:0:0:0:
448,192,179087,1,0,0:0:0:0:
64,192,179261,1,0,0:0:0:0:
320,192,179523,1,0,0:0:0:0:
192,192,179697,1,0,0:0:0:0:
448,192,179871,1,0,0:0:0:0:
192,192,180046,1,0,0:0:0:0:
192,192,180656,1,0,0:0:0:0:
448,192,180918,1,0,0:0:0:0:
192,192,181092,1,0,0:0:0:0:
64,192,181266,1,0,0:0:0:0:
448,192,181441,1,0,0:0:0:0:
192,192,181615,1,0,0:0:0:0:
320,192,181877,1,0,0:0:0:0:
192,192,182051,1,0,0:0:0:0:
320,192,182138,1,0,0:0:0:0:
192,192,182487,1,0,0:0:0:0:
448,192,182661,1,0,0:0:0:0:
64,192,182836,1,0,0:0:0:0:
320,192,183272,1,0,0:0:0:0:
320,192,183621,1,0,0:0:0:0:
192,192,183882,1,0,0:0:0:0:
448,192,184144,1,0,0:0:0:0:
64,192,184318,1,0,0:0:0:0:
320,192,184492,1,0,0:0:0:0:
448,192,184754,1,0,0:0:0:0:
64,192,184928,1,0,0:0:0:0:
320,192,185103,1,0,0:0:0:0:
64,192,185452,1,4,0:0:0:0:
448,192,185452,1,4,0:0:0:0:
64,192,185626,1,4,0:0:0:0:
448,192,185626,1,4,0:0:0:0:
192,192,185887,1,10,0:0:0:0:
320,192,185887,1,10,0:0:0:0:
320,192,186062,1,10,0:0:0:0:
192,192,186062,1,10,0:0:0:0:
