osu file format v14

[General]
AudioFilename: Hatsune Miku - Bounce From 0 To Infinity [Disappearance of Hatsune Miku Novel Ver].mp3
AudioLeadIn: 0
PreviewTime: 255844
Countdown: 1
SampleSet: None
StackLeniency: 0.7
Mode: 0
LetterboxInBreaks: 1
WidescreenStoryboard: 0

[Editor]
DistanceSpacing: 0.7
BeatDivisor: 8
GridSize: 8
TimelineZoom: 2.4

[Metadata]
Title:Bounce From 0 To Infinity
TitleUnicode:Bounce From 0 To Infinity
Artist:Hatsune Miku
ArtistUnicode:Hatsune Miku
Creator:Rainbow-
Version:Infinity
Source:cosMo
Tags:Hatsune Miku Hard Disapperance Hyperlation Infinity
BeatmapID:546106
BeatmapSetID:235648

[Difficulty]
HPDrainRate:7
CircleSize:4
OverallDifficulty:6
ApproachRate:9
SliderMultiplier:1.6
SliderTickRate:1

[Events]
//Background and Video events
0,0,"hqdefault (1).jpg",0,0
//Break Periods
//Storyboard Layer 0 (Background)
//Storyboard Layer 1 (Fail)
//Storyboard Layer 2 (Pass)
//Storyboard Layer 3 (Foreground)
//Storyboard Sound Samples

[TimingPoints]
5094,666.666666666667,4,2,0,100,1,0
15720,333.333333333333,4,1,0,100,1,0
26553,-200,4,1,0,100,0,0
28719,-100,4,1,0,100,0,0
63886,-83.3333333333333,4,1,0,100,0,0
64219,-71.4285714285714,4,1,0,100,0,0
64553,-62.5,4,1,0,100,0,0
64886,-100,4,1,0,100,0,0
89386,-83.3333333333333,4,1,0,100,0,0
89886,-100,4,1,0,100,0,0
98303,-200,4,2,0,100,0,0
100719,-100,4,1,0,100,0,0
103719,-200,4,2,0,100,0,0
114386,-100,4,1,0,100,0,0
223553,-200,4,1,0,100,0,0
233053,-100,4,1,0,100,0,0
255719,-100,4,1,0,100,0,1
295053,-100,4,1,0,100,0,0

[Colours]
Combo1 : 128,255,255
Combo2 : 0,0,128
Combo3 : 128,0,255
Combo4 : 0,0,255
Combo5 : 64,0,128
Combo6 : 192,192,192

[HitObjects]
40,128,5094,6,0,P|64:168|152:192,1,120
192,272,6094,1,0,0:0:0:0:
192,272,6427,2,0,B|224:224|224:224|272:216|272:216|304:152,1,160
240,128,7427,1,0,0:0:0:0:
272,264,7760,2,0,B|240:216|240:216|192:208|192:208|160:144,1,160
168,160,8594,1,0,0:0:0:0:
168,160,8760,2,0,L|272:160,1,80
136,304,9427,5,0,0:0:0:0:
224,88,9760,1,0,0:0:0:0:
288,304,10094,1,0,0:0:0:0:
288,304,10427,2,0,P|248:256|288:176,1,160
320,240,11427,1,0,0:0:0:0:
320,240,11760,2,0,L|192:168,1,120
215,181,12760,5,0,0:0:0:0:
208,104,13094,2,0,P|152:120|136:168,1,80
200,256,13760,2,0,P|248:256|280:224,1,80
272,232,14260,2,0,L|352:256,1,80
296,160,14760,2,0,B|248:160|248:160|208:184,1,80
220,176,15427,6,0,L|292:104,1,80
280,112,15886,1,0,0:0:0:0:
208,64,16053,1,0,0:0:0:0:
176,136,16220,1,0,0:0:0:0:
112,88,16386,1,0,0:0:0:0:
88,160,16553,1,0,0:0:0:0:
40,224,16720,2,0,P|88:256|168:200,1,160
248,208,17220,6,0,L|320:280,1,80
336,200,17553,2,0,L|416:240,1,80
448,152,18053,5,0,0:0:0:0:
448,152,18219,1,0,0:0:0:0:
112,320,18386,2,0,B|112:232|112:232|168:192|168:192|168:96,1,240
256,248,19053,1,0,0:0:0:0:
352,112,19219,2,0,B|352:196|352:196|408:236|408:236|408:324,1,240
464,320,19886,2,0,P|408:288|392:248,1,80
352,192,20219,2,0,P|320:232|320:280,1,80
352,192,20553,1,0,0:0:0:0:
176,80,20719,1,0,0:0:0:0:
104,232,20886,5,0,0:0:0:0:
56,144,21053,2,0,P|120:136|208:216,1,160
224,336,21553,5,0,0:0:0:0:
296,208,21719,1,0,0:0:0:0:
320,344,21886,1,0,0:0:0:0:
208,248,22053,1,0,0:0:0:0:
376,272,22219,1,0,0:0:0:0:
296,208,22386,6,0,P|248:168|144:184,1,160
96,248,22886,1,0,0:0:0:0:
152,176,23053,1,0,0:0:0:0:
48,312,23219,1,0,0:0:0:0:
152,176,23386,1,0,0:0:0:0:
88,128,23553,6,0,P|136:96|208:112,1,120
240,184,24053,1,0,0:0:0:0:
56,104,24219,2,0,P|104:64|136:64,1,80,0|0,0:0|0:0,0:0:0:0:
280,216,24719,1,0,0:0:0:0:
280,216,24886,6,0,L|216:280,1,80
304,320,25219,2,0,L|368:368,1,80
416,288,25553,2,0,L|504:248,1,80
384,184,25886,2,0,L|312:112,1,80
304,112,26219,1,0,0:0:0:0:
272,112,26303,1,0,0:0:0:0:
248,128,26386,1,0,0:0:0:0:
232,152,26469,1,0,0:0:0:0:
56,248,26636,6,0,B|112:192|200:208|216:296|328:328|448:232,1,420,0|0,0:0|0:0,0:0:0:0:
280,152,28719,1,0,0:0:0:0:
280,152,29053,6,0,L|192:104,1,80
144,64,29386,2,0,B|120:96|120:96|128:168,1,80
192,192,29719,1,0,0:0:0:0:
96,224,29886,2,0,P|136:272|240:272,1,160
344,208,30386,2,0,P|280:264|304:336,1,160
296,152,31053,5,0,0:0:0:0:
248,88,31219,1,0,0:0:0:0:
264,8,31386,2,0,P|192:8|96:0,1,160
88,88,31886,1,0,0:0:0:0:
32,168,32053,2,0,P|80:176|184:96,1,160
168,248,32553,1,0,0:0:0:0:
128,168,32719,2,0,P|192:168|264:256,1,160
248,320,33219,2,0,B|304:320|304:320|344:280,1,80
320,303,33553,5,0,0:0:0:0:
320,224,33719,1,0,0:0:0:0:
304,216,33803,1,0,0:0:0:0:
288,208,33886,1,0,0:0:0:0:
272,200,33969,1,0,0:0:0:0:
256,192,34053,1,0,0:0:0:0:
240,184,34136,1,0,0:0:0:0:
224,176,34219,2,0,L|144:128,1,80
128,40,34553,6,0,B|80:64|80:64|56:104,1,80
144,136,34886,1,0,0:0:0:0:
208,88,35053,1,0,0:0:0:0:
296,96,35219,1,0,0:0:0:0:
360,152,35386,1,0,0:0:0:0:
328,232,35553,2,0,P|288:248|168:224,1,160
256,144,36053,1,0,0:0:0:0:
256,144,36719,6,0,L|256:56,2,80,0|0|0,0:0|0:0|0:0,0:0:0:0:
152,128,37386,1,0,0:0:0:0:
208,240,37553,1,0,0:0:0:0:
240,160,37886,1,0,0:0:0:0:
280,80,38053,2,8,L|296:40,4,40,0|0|0|0|0,0:0|0:0|0:0|0:0|0:0,0:0:0:0:
336,256,38719,5,0,0:0:0:0:
384,80,38886,1,0,0:0:0:0:
408,176,39053,1,0,0:0:0:0:
288,80,39219,1,0,0:0:0:0:
248,176,39386,1,0,0:0:0:0:
64,120,40053,6,0,P|160:104|208:56,1,160
96,40,40553,1,0,0:0:0:0:
184,192,40719,1,0,0:0:0:0:
152,64,40886,2,0,P|200:112|288:136,1,160
286,136,41386,1,0,0:0:0:0:
360,80,41719,6,0,P|392:128|384:176,2,80,0|0|0,0:0|0:0|0:0,0:0:0:0:
336,224,42219,1,0,0:0:0:0:
240,272,42386,2,0,P|176:264|96:192,1,160
103,205,42886,1,0,0:0:0:0:
160,64,43386,5,0,0:0:0:0:
328,168,43719,2,0,P|360:128|472:136,1,160
208,168,44219,2,0,P|176:136|48:144,1,160
152,216,44719,1,0,0:0:0:0:
384,216,44886,1,0,0:0:0:0:
224,272,45053,2,0,L|312:272,1,80
256,192,45386,6,0,P|272:136|360:80,1,160
176,64,45886,1,0,0:0:0:0:
96,176,46219,2,0,L|144:256,2,80,0|0|0,0:0|0:0|0:0,0:0:0:0:
96,176,46719,1,0,0:0:0:0:
176,64,46886,1,0,0:0:0:0:
288,192,47219,6,0,L|360:128,2,80,0|0|0,0:0|0:0|0:0,0:0:0:0:
288,192,47719,2,0,L|216:112,1,80
112,64,48053,2,0,L|176:152,1,80
64,8,48553,2,0,B|32:40|48:96|48:96|104:168,1,160
88,147,49386,1,0,0:0:0:0:
240,232,49719,5,0,0:0:0:0:
200,112,49886,1,0,0:0:0:0:
320,144,50053,1,0,0:0:0:0:
240,232,50219,1,0,0:0:0:0:
248,248,50303,1,0,0:0:0:0:
256,264,50386,1,0,0:0:0:0:
320,144,50719,6,0,B|280:120|280:120|224:120,1,80
144,72,51053,2,0,B|120:112|120:112|128:160,1,80
200,208,51553,2,0,P|232:216|320:128,1,160
192,128,52053,2,0,P|136:160|136:264,1,160
216,288,52719,1,0,0:0:0:0:
280,208,52886,1,0,0:0:0:0:
272,96,53219,6,0,B|240:64|192:56|192:56|168:64|112:96,1,160
224,216,53719,1,0,0:0:0:0:
224,216,54053,2,0,L|128:160,1,80
128,96,54386,6,0,P|176:88|224:40,1,80
120,16,54886,2,0,P|64:48|80:160,1,160
80,224,55386,1,0,0:0:0:0:
168,184,55553,1,0,0:0:0:0:
256,136,55719,1,0,0:0:0:0:
280,240,56219,6,0,P|328:208|336:80,1,160
256,136,56719,1,0,0:0:0:0:
192,192,56886,1,0,0:0:0:0:
208,272,57053,1,0,0:0:0:0:
288,320,57219,1,0,0:0:0:0:
352,272,57386,2,0,P|312:240|280:232,1,80
312,160,57719,2,0,P|264:160|224:192,1,80
208,104,58053,2,0,P|176:136|160:176,1,80
88,112,58386,2,0,P|80:176|160:248,1,160
140,243,58886,6,0,P|200:224|240:112,1,160
160,144,59386,1,0,0:0:0:0:
256,192,59553,2,0,B|280:224|280:224|328:232,1,80
304,304,59886,2,0,B|264:304|264:304|232:336,1,80
208,256,60219,2,0,L|96:256,1,80
128,256,60553,2,0,L|80:208,2,40,0|0|0,0:0|0:0|0:0,0:0:0:0:
120,136,60886,2,0,L|144:96,2,40,0|0|0,0:0|0:0|0:0,0:0:0:0:
160,56,61386,5,0,0:0:0:0:
256,88,61553,1,0,0:0:0:0:
320,160,61719,1,0,0:0:0:0:
320,264,61886,1,0,0:0:0:0:
256,336,62053,1,0,0:0:0:0:
168,352,62219,2,0,P|112:304|112:200,1,160
152,64,62719,2,0,P|240:32|304:48,1,160
302,47,63219,1,0,0:0:0:0:
192,176,63386,1,0,0:0:0:0:
184,104,63553,6,0,L|264:136,1,80
192,176,63886,2,0,L|296:224,1,95.9999970703126
200,248,64219,2,0,L|320:304,1,111.999996582031
200,320,64553,2,0,L|336:384,1,128
315,374,64886,1,0,0:0:0:0:
360,312,65053,5,0,0:0:0:0:
368,240,65219,1,0,0:0:0:0:
336,176,65386,1,0,0:0:0:0:
288,120,65553,1,0,0:0:0:0:
224,96,65719,1,0,0:0:0:0:
152,104,65886,1,0,0:0:0:0:
104,160,66053,1,0,0:0:0:0:
88,232,66219,1,0,0:0:0:0:
128,296,66386,1,0,0:0:0:0:
200,304,66553,1,0,0:0:0:0:
248,248,66719,1,0,0:0:0:0:
272,184,66886,1,0,0:0:0:0:
272,184,67053,6,0,P|296:128|312:96,1,80
224,96,67386,2,0,P|256:40|368:48,1,160
312,112,68053,2,0,P|376:128|432:32,1,160
360,216,68719,1,0,0:0:0:0:
296,288,69053,1,0,0:0:0:0:
280,304,69136,1,0,0:0:0:0:
264,320,69219,1,0,0:0:0:0:
240,320,69303,1,0,0:0:0:0:
216,320,69386,1,0,0:0:0:0:
192,312,69469,5,0,0:0:0:0:
176,296,69553,1,0,0:0:0:0:
168,272,69636,1,0,0:0:0:0:
160,248,69719,1,0,0:0:0:0:
152,224,69803,1,0,0:0:0:0:
144,200,69886,1,0,0:0:0:0:
144,176,69969,1,0,0:0:0:0:
152,152,70053,1,0,0:0:0:0:
176,136,70136,1,0,0:0:0:0:
208,128,70219,5,0,0:0:0:0:
240,128,70303,1,0,0:0:0:0:
264,136,70386,1,0,0:0:0:0:
280,152,70469,1,0,0:0:0:0:
296,168,70553,1,0,0:0:0:0:
312,184,70636,1,0,0:0:0:0:
328,200,70719,1,0,0:0:0:0:
64,128,71053,6,0,P|120:120|160:152,1,80
152,240,71386,2,0,P|216:248|264:240,1,80
320,152,71719,2,0,P|272:192|280:296,1,160
344,232,72219,2,0,P|400:200|408:160,1,80
280,80,72553,2,0,B|224:80|224:80|184:112|184:112|120:112,1,160
131,112,73053,5,0,0:0:0:0:
104,216,73219,1,0,0:0:0:0:
131,112,73386,1,0,0:0:0:0:
88,288,73553,1,0,0:0:0:0:
131,112,73719,2,0,B|192:112|192:112|216:144|216:144|280:144,1,160
272,232,74386,6,0,P|328:216|336:96,1,160,0|0,0:0|0:0,0:0:0:0:
131,112,75053,2,0,P|88:160|136:256,1,160
136,264,75553,1,0,0:0:0:0:
136,264,75719,2,0,L|224:232,1,80
160,168,76053,2,0,P|224:160|288:232,1,160
286,224,76553,6,0,B|304:216|304:216|320:232|320:232|360:216,3,80,0|0|0|0,0:0|0:0|0:0|0:0,0:0:0:0:
355,217,77219,2,0,P|360:160|456:120,1,160
432,200,77803,2,0,P|424:272|328:304,1,160
272,160,78386,1,0,0:0:0:0:
256,232,78553,1,0,0:0:0:0:
240,304,78719,1,0,0:0:0:0:
224,376,78886,1,0,0:0:0:0:
160,328,79053,6,0,P|112:304|96:184,1,160
32,112,79553,1,0,0:0:0:0:
80,40,79719,2,0,P|136:40|224:208,1,240
136,208,80386,1,0,0:0:0:0:
72,288,80553,2,0,P|136:328|296:256,1,240
281,279,81219,2,0,L|305:191,2,80,0|0|0,0:0|0:0|0:0,0:0:0:0:
304,112,81719,6,0,P|256:128|224:184,1,80
128,200,82053,2,0,P|128:144|112:96,1,80
80,24,82386,2,0,P|40:48|32:104,1,80
224,80,82719,1,0,0:0:0:0:
80,24,82886,1,0,0:0:0:0:
112,136,83053,1,0,0:0:0:0:
224,168,83219,1,0,0:0:0:0:
368,248,83386,6,0,P|320:216|272:200,1,80
304,112,83719,2,0,P|256:112|208:96,1,80
208,16,84053,2,0,P|168:32|120:32,1,80
72,136,84386,2,0,P|136:144|176:248,1,160
72,232,85053,1,0,0:0:0:0:
160,312,85386,6,0,P|208:264|256:256,1,80
256,184,85886,1,0,0:0:0:0:
272,72,86219,2,0,L|176:96,1,80
8,192,86886,1,0,0:0:0:0:
96,296,87219,6,0,P|120:256|160:240,1,80
416,296,87553,2,0,P|392:256|352:240,1,80
256,224,88053,2,0,L|256:40,1,160
144,112,88719,1,0,0:0:0:0:
376,120,89053,1,0,0:0:0:0:
256,256,89386,2,0,L|256:64,1,191.999994140625
256,328,90053,1,0,0:0:0:0:
256,144,90386,1,0,0:0:0:0:
256,144,90719,6,0,P|208:96|208:8,1,160
224,136,91386,1,0,0:0:0:0:
200,256,91553,1,0,0:0:0:0:
296,176,91719,1,0,0:0:0:0:
272,256,91886,1,0,0:0:0:0:
160,184,92053,1,0,0:0:0:0:
256,328,92219,5,0,0:0:0:0:
256,248,92386,1,0,0:0:0:0:
232,328,92553,1,0,0:0:0:0:
288,232,92719,1,0,0:0:0:0:
200,344,92886,1,0,0:0:0:0:
312,216,93053,2,0,P|352:160|448:160,1,160
392,224,93553,5,0,0:0:0:0:
392,224,93719,2,0,L|328:72,1,160
280,8,94386,2,0,P|240:56|280:160,1,160
416,184,95053,2,0,P|384:248|272:280,1,160
152,184,95719,6,0,P|216:120|296:104,1,160
281,103,96219,2,0,P|288:160|392:208,1,160
368,208,96719,2,0,L|336:232,3,40,0|0|0|0,0:0|0:0|0:0|0:0,0:0:0:0:
336,232,97053,1,0,0:0:0:0:
336,232,97136,2,0,L|296:264,3,40,0|0|0|0,0:0|0:0|0:0|0:0,0:0:0:0:
304,256,97553,5,0,0:0:0:0:
240,240,97719,1,0,0:0:0:0:
224,168,97886,1,0,0:0:0:0:
248,96,98053,1,0,0:0:0:0:
312,64,98219,1,0,0:0:0:0:
384,48,98386,6,0,P|432:48|496:144,1,160
400,160,99386,1,0,0:0:0:0:
384,336,99719,2,0,P|432:336|496:240,1,160
408,256,100719,6,0,P|352:264|320:304,1,80
296,200,101053,2,0,P|264:240|256:288,1,80
192,216,101386,2,0,P|176:264|184:312,1,80
96,280,101719,2,0,P|112:336|152:360,1,80
128,352,102053,2,0,P|104:320|96:264,1,80,0|0,0:0|0:0,0:0:0:0:
184,296,102386,1,0,0:0:0:0:
264,296,102553,5,0,0:0:0:0:
304,272,102719,1,0,0:0:0:0:
320,256,102803,5,0,0:0:0:0:
328,240,102886,1,0,0:0:0:0:
336,216,102969,5,0,0:0:0:0:
336,192,103053,1,0,0:0:0:0:
328,168,103136,1,0,0:0:0:0:
312,152,103219,5,0,0:0:0:0:
288,144,103303,1,0,0:0:0:0:
272,136,103386,1,0,0:0:0:0:
256,128,103469,5,0,0:0:0:0:
240,120,103553,1,0,0:0:0:0:
232,104,103636,1,0,0:0:0:0:
232,88,103719,6,0,P|200:64|152:40,1,80
88,64,104303,2,0,P|104:112|112:128,1,60
108,120,104719,1,0,0:0:0:0:
96,256,104886,6,0,P|176:240|232:248,1,120
264,312,105719,1,0,0:0:0:0:
280,224,106053,2,0,P|304:192|312:144,1,80
312,153,106553,1,0,0:0:0:0:
312,153,106719,2,0,B|248:144|248:144|192:168,1,120
136,160,107719,5,0,0:0:0:0:
184,240,107886,2,0,P|216:248|248:288,1,80
296,208,108386,2,0,L|304:120,1,80
240,56,109053,5,0,0:0:0:0:
144,288,110386,5,0,0:0:0:0:
432,176,111719,5,0,0:0:0:0:
80,184,112386,5,0,0:0:0:0:
168,272,112886,1,0,0:0:0:0:
208,200,113053,1,0,0:0:0:0:
256,136,113219,1,0,0:0:0:0:
304,80,113386,1,0,0:0:0:0:
368,48,113553,1,0,0:0:0:0:
384,56,113636,1,0,0:0:0:0:
400,64,113719,1,0,0:0:0:0:
416,72,113803,1,0,0:0:0:0:
432,80,113886,2,0,P|472:112|472:152,1,80
376,240,114386,6,0,L|304:200,1,80
256,256,114719,2,0,L|168:216,1,80
128,272,115053,2,0,L|80:200,1,80
120,88,115386,2,0,L|176:144,1,80
240,64,115719,2,0,L|304:144,1,80
376,192,116053,2,0,L|416:104,1,80
368,48,116386,2,0,L|464:24,1,80
224,112,116719,2,0,L|128:120,1,80
96,144,117053,5,0,0:0:0:0:
104,168,117136,1,0,0:0:0:0:
120,184,117219,1,0,0:0:0:0:
136,200,117303,1,0,0:0:0:0:
160,208,117386,5,0,0:0:0:0:
184,208,117469,1,0,0:0:0:0:
208,192,117553,1,0,0:0:0:0:
224,168,117636,1,0,0:0:0:0:
240,152,117719,5,0,0:0:0:0:
264,144,117803,1,0,0:0:0:0:
288,144,117886,1,0,0:0:0:0:
312,160,117969,1,0,0:0:0:0:
328,176,118053,1,0,0:0:0:0:
344,200,118136,1,0,0:0:0:0:
360,224,118219,1,0,0:0:0:0:
376,248,118303,6,0,L|416:296,3,40,0|0|0|0,0:0|0:0|0:0|0:0,0:0:0:0:
401,278,118636,2,0,L|456:288,4,40,0|0|0|0|0,0:0|0:0|0:0|0:0|0:0,0:0:0:0:
441,285,119053,2,0,L|464:240,3,40,0|0|0|0,0:0|0:0|0:0|0:0,0:0:0:0:
459,249,119386,2,0,L|440:184,1,40
447,211,119553,2,0,L|416:176,1,40
400,168,119719,5,0,0:0:0:0:
384,152,119803,1,0,0:0:0:0:
368,136,119886,1,0,0:0:0:0:
344,128,119969,1,0,0:0:0:0:
320,128,120053,5,0,0:0:0:0:
296,136,120136,1,0,0:0:0:0:
280,152,120219,1,0,0:0:0:0:
272,176,120303,5,0,0:0:0:0:
264,200,120386,1,0,0:0:0:0:
248,216,120469,1,0,0:0:0:0:
224,224,120553,5,0,0:0:0:0:
200,224,120636,1,0,0:0:0:0:
184,208,120719,1,0,0:0:0:0:
168,192,120803,2,0,L|136:144,3,40,0|0|0|0,0:0|0:0|0:0|0:0,0:0:0:0:
168,160,121136,6,0,L|184:120,3,40,0|0|0|0,0:0|0:0|0:0|0:0,0:0:0:0:
208,128,121469,2,0,L|264:104,3,40,0|0|0|0,0:0|0:0|0:0|0:0,0:0:0:0:
264,104,121803,2,0,L|320:136,7,40,0|0|0|0|0|0|0|0,0:0|0:0|0:0|0:0|0:0|0:0|0:0|0:0,0:0:0:0:
320,136,122469,5,0,0:0:0:0:
336,152,122553,1,0,0:0:0:0:
344,176,122636,1,0,0:0:0:0:
352,200,122719,5,0,0:0:0:0:
352,224,122803,1,0,0:0:0:0:
344,248,122886,1,0,0:0:0:0:
336,272,122969,1,0,0:0:0:0:
320,296,123053,1,0,0:0:0:0:
304,312,123136,5,0,0:0:0:0:
288,328,123219,1,0,0:0:0:0:
264,344,123303,1,0,0:0:0:0:
240,352,123386,1,0,0:0:0:0:
216,352,123469,5,0,0:0:0:0:
192,344,123553,1,0,0:0:0:0:
168,336,123636,1,0,0:0:0:0:
152,320,123719,1,0,0:0:0:0:
136,304,123803,5,0,0:0:0:0:
120,288,123886,2,0,L|120:224,6,40,0|0|0|0|0|0|0,0:0|0:0|0:0|0:0|0:0|0:0|0:0,0:0:0:0:
128,264,124469,2,0,L|160:200,5,40,0|0|0|0|0|0,0:0|0:0|0:0|0:0|0:0|0:0,0:0:0:0:
168,216,124969,5,0,0:0:0:0:
192,200,125053,1,0,0:0:0:0:
216,192,125136,1,0,0:0:0:0:
240,184,125219,1,0,0:0:0:0:
264,184,125303,1,0,0:0:0:0:
288,184,125386,5,0,0:0:0:0:
312,192,125469,1,0,0:0:0:0:
336,200,125553,1,0,0:0:0:0:
352,216,125636,1,0,0:0:0:0:
368,232,125719,1,0,0:0:0:0:
384,248,125803,5,0,0:0:0:0:
400,272,125886,1,0,0:0:0:0:
400,296,125969,1,0,0:0:0:0:
392,320,126053,1,0,0:0:0:0:
376,336,126136,1,0,0:0:0:0:
352,344,126219,1,0,0:0:0:0:
328,344,126303,1,0,0:0:0:0:
312,328,126386,5,0,0:0:0:0:
304,304,126469,1,0,0:0:0:0:
304,280,126553,1,0,0:0:0:0:
304,256,126636,1,0,0:0:0:0:
312,232,126719,5,0,0:0:0:0:
320,208,126803,1,0,0:0:0:0:
328,184,126886,1,0,0:0:0:0:
336,160,126969,1,0,0:0:0:0:
336,136,127053,1,0,0:0:0:0:
328,112,127136,1,0,0:0:0:0:
312,96,127219,1,0,0:0:0:0:
296,80,127303,5,0,0:0:0:0:
280,64,127386,1,0,0:0:0:0:
256,56,127469,1,0,0:0:0:0:
232,64,127553,1,0,0:0:0:0:
208,72,127636,5,0,0:0:0:0:
192,88,127719,1,0,0:0:0:0:
184,112,127803,1,0,0:0:0:0:
176,136,127886,1,0,0:0:0:0:
176,160,127969,5,0,0:0:0:0:
184,184,128053,1,0,0:0:0:0:
192,208,128136,1,0,0:0:0:0:
208,232,128219,1,0,0:0:0:0:
224,248,128303,1,0,0:0:0:0:
240,264,128386,5,0,0:0:0:0:
264,272,128469,1,0,0:0:0:0:
288,272,128553,1,0,0:0:0:0:
312,272,128636,2,0,L|360:272,13,40,0|0|0|0|0|0|0|0|0|0|0|0|0|0,0:0|0:0|0:0|0:0|0:0|0:0|0:0|0:0|0:0|0:0|0:0|0:0|0:0|0:0,0:0:0:0:
352,248,129803,6,0,L|400:208,7,40,0|0|0|0|0|0|0|0,0:0|0:0|0:0|0:0|0:0|0:0|0:0|0:0,0:0:0:0:
384,200,130469,2,0,L|400:152,5,40,0|0|0|0|0|0,0:0|0:0|0:0|0:0|0:0|0:0,0:0:0:0:
384,144,130969,2,0,L|360:96,8,40,0|0|0|0|0|0|0|0|0,0:0|0:0|0:0|0:0|0:0|0:0|0:0|0:0|0:0,0:0:0:0:
368,128,131719,6,0,L|320:96,5,40,0|0|0|0|0|0,0:0|0:0|0:0|0:0|0:0|0:0,0:0:0:0:
328,128,132219,2,0,L|280:120,6,40,0|0|0|0|0|0|0,0:0|0:0|0:0|0:0|0:0|0:0|0:0,0:0:0:0:
304,136,132803,1,0,0:0:0:0:
280,152,132886,1,0,0:0:0:0:
264,168,132969,1,0,0:0:0:0:
248,192,133053,5,0,0:0:0:0:
248,216,133136,1,0,0:0:0:0:
256,240,133219,1,0,0:0:0:0:
272,256,133303,5,0,0:0:0:0:
296,264,133386,1,0,0:0:0:0:
320,264,133469,1,0,0:0:0:0:
344,256,133553,1,0,0:0:0:0:
360,240,133636,5,0,0:0:0:0:
368,216,133719,1,0,0:0:0:0:
376,192,133803,5,0,0:0:0:0:
384,168,133886,1,0,0:0:0:0:
392,144,133969,5,0,0:0:0:0:
400,120,134053,1,0,0:0:0:0:
416,96,134136,1,0,0:0:0:0:
432,80,134219,5,0,0:0:0:0:
432,56,134303,1,0,0:0:0:0:
408,48,134386,1,0,0:0:0:0:
384,32,134469,1,0,0:0:0:0:
360,32,134553,5,0,0:0:0:0:
336,40,134636,1,0,0:0:0:0:
320,56,134719,1,0,0:0:0:0:
304,80,134803,1,0,0:0:0:0:
304,104,134886,5,0,0:0:0:0:
312,128,134969,1,0,0:0:0:0:
320,152,135053,1,0,0:0:0:0:
328,176,135136,1,0,0:0:0:0:
312,192,135219,1,0,0:0:0:0:
288,200,135303,5,0,0:0:0:0:
264,216,135386,1,0,0:0:0:0:
256,240,135469,1,0,0:0:0:0:
256,264,135553,1,0,0:0:0:0:
264,288,135636,1,0,0:0:0:0:
272,312,135719,2,0,P|320:344|408:288,1,160
272,312,136219,6,0,B|216:304|216:304|192:272|192:272|112:272,1,160
128,184,136719,1,0,0:0:0:0:
168,120,136886,1,0,0:0:0:0:
240,96,137053,1,0,0:0:0:0:
312,104,137219,1,0,0:0:0:0:
368,144,137386,2,0,L|400:240,1,80
272,280,137719,6,0,B|224:240|224:240|224:216|200:176|152:168,1,160
136,80,138219,2,0,P|80:120|72:160,1,80
160,152,138553,2,0,P|192:128|176:16,1,160
160,224,139053,1,0,0:0:0:0:
160,224,139219,6,0,B|208:200|208:200|224:208|280:240|328:216,1,160
272,136,139719,2,0,L|216:32,1,80
336,96,140053,2,0,L|288:16,1,80
408,64,140386,2,0,L|360:0,1,80
416,72,140719,1,0,0:0:0:0:
424,80,140803,1,0,0:0:0:0:
432,88,140886,1,0,0:0:0:0:
440,96,140969,2,0,B|400:120|400:120|400:160|336:192,1,120
312,120,141386,6,0,P|248:112|200:88,1,80
240,24,141719,2,0,P|176:40|160:152,1,160
216,176,142219,2,0,P|144:128|56:160,1,160
136,216,142719,2,0,P|176:264|280:232,1,160
265,251,143219,2,0,L|304:240,2,40,0|0|0,0:0|0:0|0:0,0:0:0:0:
303,240,143553,2,0,L|352:232,2,40,0|0|0,0:0|0:0|0:0,0:0:0:0:
400,192,143886,5,0,0:0:0:0:
376,120,144053,1,0,0:0:0:0:
328,64,144219,2,0,P|288:120|168:144,1,160
204,149,144719,6,0,L|160:200,4,40,0|0|0|0|0,0:0|0:0|0:0|0:0|0:0,0:0:0:0:
112,240,145719,6,0,L|168:240,1,40
152,240,145886,2,0,L|216:240,1,40
192,240,146053,2,0,L|248:240,1,40
232,240,146219,2,0,L|288:240,1,40
272,240,146386,6,0,P|336:240|384:144,1,160,0|0,0:0|0:0,0:0:0:0:
304,160,146886,2,0,P|344:96|432:104,1,160
272,48,147386,1,0,0:0:0:0:
304,160,147553,2,0,L|336:256,1,80
256,304,147886,1,0,0:0:0:0:
96,176,148053,5,0,0:0:0:0:
104,320,148219,1,0,0:0:0:0:
304,160,148386,2,0,P|224:136|200:208,1,160
195,192,148886,1,0,0:0:0:0:
195,192,149053,2,0,L|328:304,1,160
195,192,149553,5,0,0:0:0:0:
144,120,150053,2,0,B|96:128|96:128|64:120|40:72|64:24,1,160
344,136,150719,5,0,0:0:0:0:
344,136,150886,2,0,L|288:216,2,80,0|0|0,0:0|0:0|0:0,0:0:0:0:
240,248,151386,1,0,0:0:0:0:
304,56,151719,2,0,P|352:48|392:72,1,80
240,128,152053,1,0,0:0:0:0:
152,80,152219,1,0,0:0:0:0:
64,32,152386,1,0,0:0:0:0:
64,160,152553,6,0,P|112:200|112:304,1,160
32,320,153053,1,0,0:0:0:0:
112,360,153219,1,0,0:0:0:0:
192,312,153386,1,0,0:0:0:0:
192,224,153553,6,0,B|232:200|288:208|288:208|320:136,1,160
232,120,154053,1,0,0:0:0:0:
352,264,154219,1,0,0:0:0:0:
336,120,154386,1,0,0:0:0:0:
328,32,154553,1,0,0:0:0:0:
416,72,154719,1,0,0:0:0:0:
336,120,154886,1,0,0:0:0:0:
208,256,155219,6,0,P|136:248|88:152,1,160
160,160,155719,1,0,0:0:0:0:
256,88,155886,1,0,0:0:0:0:
240,216,156053,1,0,0:0:0:0:
176,96,156219,1,0,0:0:0:0:
296,160,156386,1,0,0:0:0:0:
160,232,156553,1,0,0:0:0:0:
272,48,156719,1,0,0:0:0:0:
224,144,156886,1,0,0:0:0:0:
224,144,156969,1,0,0:0:0:0:
224,144,157053,1,0,0:0:0:0:
224,144,157219,6,0,P|280:152|320:192,1,80
328,240,157553,2,0,P|368:216|384:168,1,80
240,232,157886,1,0,0:0:0:0:
232,64,158219,2,0,P|192:72|152:184,1,160
120,256,158719,6,0,P|176:248|216:216,1,80
112,32,159053,2,0,P|64:64|48:112,1,80
152,144,159386,1,0,0:0:0:0:
240,168,159553,1,0,0:0:0:0:
248,272,159719,2,0,B|296:232|296:232|328:256|408:224,1,160
248,272,160219,2,0,B|200:232|200:232|168:256|88:224,1,160
192,168,160719,5,0,0:0:0:0:
240,112,160886,1,0,0:0:0:0:
296,160,161053,1,0,0:0:0:0:
248,216,161219,2,0,P|288:240|368:152,1,160
296,160,162053,5,0,0:0:0:0:
232,128,162219,1,0,0:0:0:0:
184,72,162386,1,0,0:0:0:0:
296,160,163053,6,0,L|200:312,1,160
264,376,163719,2,0,P|320:344|368:248,1,160
296,160,164386,2,0,L|128:112,1,160
120,184,165053,5,0,0:0:0:0:
128,288,165386,1,0,0:0:0:0:
240,304,165719,1,0,0:0:0:0:
288,216,166053,2,0,L|360:144,1,80
384,160,166886,5,0,0:0:0:0:
200,88,167219,1,0,0:0:0:0:
160,160,167386,1,0,0:0:0:0:
192,240,167553,1,0,0:0:0:0:
272,288,167719,2,0,P|328:296|432:232,1,160
384,160,168219,1,0,0:0:0:0:
440,216,168386,2,0,L|464:320,1,80
376,344,168886,1,0,0:0:0:0:
280,312,169386,6,0,P|248:264|144:200,1,160
96,168,170053,2,0,P|80:232|168:288,1,160
176,200,170719,2,0,L|304:104,1,160
400,152,171386,2,0,L|360:248,1,80
192,304,171886,5,0,0:0:0:0:
264,240,172053,1,0,0:0:0:0:
208,320,172219,1,0,0:0:0:0:
272,256,172386,1,0,0:0:0:0:
224,336,172553,1,0,0:0:0:0:
280,272,172719,1,0,0:0:0:0:
240,352,172886,1,0,0:0:0:0:
288,288,173053,1,0,0:0:0:0:
312,304,173219,6,0,P|360:280|384:232,1,80
320,152,173719,1,0,0:0:0:0:
384,200,174053,2,0,L|208:288,1,160
160,240,174719,2,0,P|112:192|104:152,1,80
176,120,175053,5,0,0:0:0:0:
256,96,175219,1,0,0:0:0:0:
296,168,175386,1,0,0:0:0:0:
360,104,175553,1,0,0:0:0:0:
432,144,175719,1,0,0:0:0:0:
432,144,175886,2,0,L|408:200,3,40,0|0|0|0,0:0|0:0|0:0|0:0,0:0:0:0:
416,180,176219,2,0,L|384:232,4,40,0|0|0|0|0,0:0|0:0|0:0|0:0|0:0,0:0:0:0:
320,272,176719,6,0,P|264:216|168:192,1,160
128,112,177219,2,0,P|96:152|88:208,1,80
184,288,177553,2,0,P|232:272|264:232,1,80
192,176,177886,1,0,0:0:0:0:
280,168,178053,2,0,L|432:256,1,160
336,104,178553,2,0,P|288:80|208:136,1,160
128,176,179053,6,0,P|168:224|208:224,1,80
264,216,179386,1,0,0:0:0:0:
128,280,179553,2,0,P|184:280|224:264,1,80
264,216,179886,1,0,0:0:0:0:
264,216,180053,2,0,L|320:216,2,40,0|0|0,0:0|0:0|0:0,0:0:0:0:
328,304,180386,5,0,0:0:0:0:
400,240,180553,1,0,0:0:0:0:
352,152,180719,1,0,0:0:0:0:
400,72,180886,1,0,0:0:0:0:
272,56,181053,6,0,P|240:72|184:96,1,80
168,104,181303,1,0,0:0:0:0:
136,120,181386,2,0,P|88:144|32:168,1,80
120,272,181719,6,0,L|176:232,1,40
184,216,181969,1,0,0:0:0:0:
256,160,182136,2,0,B|280:200|296:208|296:208|328:216|376:192,1,120
328,120,182553,1,0,0:0:0:0:
280,256,182803,2,0,L|232:336,1,80
336,312,183136,5,0,0:0:0:0:
352,232,183303,2,0,L|392:104,1,120
272,96,183719,2,0,B|232:72|216:48|216:48|184:128,1,160
112,216,184219,2,0,L|160:192,4,40,0|0|0|0|0,0:0|0:0|0:0|0:0|0:0,0:0:0:0:
216,160,184719,6,0,P|224:224|320:248,1,160
216,64,185719,1,0,0:0:0:0:
216,64,185803,1,0,0:0:0:0:
216,64,185886,1,0,0:0:0:0:
216,64,185969,1,0,0:0:0:0:
216,64,186053,1,0,0:0:0:0:
256,184,186386,6,0,B|296:224|336:224|336:224|320:248|328:296,1,160
224,304,186969,1,0,0:0:0:0:
200,296,187053,1,0,0:0:0:0:
120,264,187219,5,0,0:0:0:0:
16,168,187386,2,0,P|80:184|120:176,1,80
168,80,187719,2,0,B|176:136|192:160|192:160|256:160|256:160|272:176|296:224|320:232,1,240
360,112,188386,5,0,0:0:0:0:
360,112,188469,1,0,0:0:0:0:
360,112,188553,1,0,0:0:0:0:
360,112,188636,1,0,0:0:0:0:
360,112,188719,1,0,0:0:0:0:
360,112,188803,6,0,L|368:176,1,40
408,208,188969,2,0,L|376:280,1,40
160,240,189386,5,0,0:0:0:0:
80,224,189553,2,0,L|96:176,1,40
104,152,189719,1,0,0:0:0:0:
240,152,189886,1,0,0:0:0:0:
128,112,190053,1,0,0:0:0:0:
216,192,190219,1,0,0:0:0:0:
232,304,190386,6,0,P|296:288|320:232,2,120,0|0|0,0:0|0:0|0:0,0:0:0:0:
304,88,191053,1,0,0:0:0:0:
176,136,191219,2,0,P|120:192|104:192,1,80
48,136,191553,1,0,0:0:0:0:
48,256,191719,1,0,0:0:0:0:
48,256,191803,1,0,0:0:0:0:
48,256,191886,1,0,0:0:0:0:
136,232,192053,5,0,0:0:0:0:
216,208,192219,1,0,0:0:0:0:
288,160,192386,1,0,0:0:0:0:
288,160,192469,1,0,0:0:0:0:
288,160,192553,1,0,0:0:0:0:
320,88,192719,1,0,0:0:0:0:
384,56,192886,1,0,0:0:0:0:
432,120,193053,1,0,0:0:0:0:
432,120,193136,1,0,0:0:0:0:
432,120,193219,1,0,0:0:0:0:
432,120,193303,1,0,0:0:0:0:
432,120,193386,1,0,0:0:0:0:
400,280,193553,6,0,P|336:280|288:288,1,80
192,328,193886,2,0,P|232:344|272:344,1,80
64,320,194219,1,0,0:0:0:0:
64,320,194303,1,0,0:0:0:0:
64,320,194386,1,0,0:0:0:0:
56,224,194553,6,0,B|80:168|88:160|88:160|152:160,2,120,0|0|0,0:0|0:0|0:0,0:0:0:0:
376,216,195553,1,0,0:0:0:0:
376,216,195636,1,0,0:0:0:0:
376,216,195719,1,0,0:0:0:0:
376,216,195886,2,0,B|352:176|352:176|320:152|272:136,2,120,0|0|0,0:0|0:0|0:0,0:0:0:0:
32,176,196886,5,0,0:0:0:0:
32,176,196969,1,0,0:0:0:0:
32,176,197053,2,0,P|72:224|120:240,1,80
176,224,197386,1,0,0:0:0:0:
48,320,197553,2,0,P|112:320|144:304,1,80
176,224,197886,5,0,0:0:0:0:
176,224,198053,1,0,0:0:0:0:
176,224,198219,1,0,0:0:0:0:
176,224,198303,1,0,0:0:0:0:
176,224,198386,2,0,B|176:200|176:200|176:176|208:152|256:144|296:120|320:80|328:32,1,240
424,120,199053,5,0,0:0:0:0:
368,200,199219,1,0,0:0:0:0:
368,200,199303,1,0,0:0:0:0:
368,200,199386,1,0,0:0:0:0:
288,280,199553,1,0,0:0:0:0:
248,176,199719,1,0,0:0:0:0:
56,208,200053,6,0,P|104:248|128:248,1,80
160,176,200386,1,0,0:0:0:0:
208,312,200719,2,0,P|248:272|272:232,1,80
368,184,201053,6,0,B|360:112|328:88|328:88|272:128,2,160,0|0|0,0:0|0:0|0:0,0:0:0:0:
336,256,202053,1,0,0:0:0:0:
248,288,202219,1,0,0:0:0:0:
168,240,202386,5,0,0:0:0:0:
112,184,202553,1,0,0:0:0:0:
168,240,202719,1,0,0:0:0:0:
128,176,202886,1,0,0:0:0:0:
168,240,203053,1,0,0:0:0:0:
144,168,203219,1,0,0:0:0:0:
168,240,203386,1,0,0:0:0:0:
160,160,203553,1,0,0:0:0:0:
80,288,203719,6,0,B|128:336|168:344|168:344|216:336|360:216,1,320
304,128,204719,6,0,P|240:144|192:144,1,80
120,200,205053,2,0,P|192:216|232:216,1,80
328,264,205386,2,0,P|272:280|240:280,1,80
136,320,205719,2,0,P|192:344|232:344,1,80
72,264,206053,1,0,0:0:0:0:
16,184,206219,2,0,L|16:96,1,80
160,128,206719,6,0,B|184:176|232:208|232:208|280:208|320:208|312:216,1,160
400,224,207719,1,0,0:0:0:0:
280,320,208052,1,0,0:0:0:0:
272,208,208219,1,0,0:0:0:0:
216,296,208386,1,0,0:0:0:0:
312,264,208552,1,0,0:0:0:0:
208,232,208719,1,0,0:0:0:0:
264,264,208886,5,0,0:0:0:0:
248,232,209053,2,0,L|224:168,4,40,0|0|0|0|0,0:0|0:0|0:0|0:0|0:0,0:0:0:0:
232,192,209469,2,0,L|208:120,3,40,0|0|0|0,0:0|0:0|0:0|0:0,0:0:0:0:
152,96,209886,5,0,0:0:0:0:
88,120,210053,1,0,0:0:0:0:
48,176,210219,1,0,0:0:0:0:
48,248,210386,2,0,P|104:312|184:328,1,160
248,304,210886,1,0,0:0:0:0:
296,240,211053,1,0,0:0:0:0:
264,160,211219,6,0,B|208:160|208:160|176:192,1,80
160,248,211553,1,0,0:0:0:0:
168,344,211719,6,0,P|240:360|328:344,1,160
384,272,212386,2,0,P|392:200|376:88,1,160
312,72,212886,1,0,0:0:0:0:
248,120,213053,6,0,B|216:184|184:192|184:192|112:168,1,160
160,104,213553,1,0,0:0:0:0:
64,216,213719,2,0,B|88:272|56:320|56:320|96:296|128:296,1,160
184,224,214219,1,0,0:0:0:0:
272,312,214386,6,0,P|320:264|328:192,2,120,0|0|0,0:0|0:0|0:0,0:0:0:0:
264,136,215053,1,0,0:0:0:0:
128,80,215386,5,0,0:0:0:0:
72,136,215553,1,0,0:0:0:0:
80,216,215719,1,0,0:0:0:0:
88,320,216053,6,0,P|136:328|192:320,1,80
208,248,216386,1,0,0:0:0:0:
272,176,216553,2,0,L|376:168,1,80
160,176,216886,2,0,L|56:152,1,80
24,96,217219,1,0,0:0:0:0:
224,96,217553,6,0,B|272:32|272:32|337:116,1,160
272,176,218053,1,0,0:0:0:0:
208,288,218386,6,0,P|256:304|312:288,1,80
336,224,218719,1,0,0:0:0:0:
288,136,218886,2,0,P|248:112|184:112,1,80
120,136,219219,1,0,0:0:0:0:
48,208,219386,2,0,P|48:272|64:304,1,80
152,328,219719,6,0,B|208:328|224:272|224:272|232:224|280:208|344:216,1,240
336,216,220303,2,0,L|344:160,5,40,0|0|0|0|0|0,0:0|0:0|0:0|0:0|0:0|0:0,0:0:0:0:
341,176,220803,2,0,L|352:128,3,40,0|0|0|0,0:0|0:0|0:0|0:0,0:0:0:0:
350,137,221136,2,0,L|368:96,1,40,0|0,0:0|0:0,0:0:0:0:
88,120,223719,6,0,P|96:184|184:224,1,160
337,225,225053,6,0,P|408:195|424:120,1,160
200,112,226386,2,0,L|288:112,1,80
88,184,227053,1,0,0:0:0:0:
160,272,227386,2,0,B|200:304|200:304|216:320|232:336|232:336|256:320,1,120
256,192,228386,1,0,0:0:0:0:
256,192,228719,1,0,0:0:0:0:
176,272,229053,6,0,P|208:312|248:320,1,80
277,320,229719,2,0,P|314:304|336:272,1,80
256,192,230386,6,0,L|256:96,1,80
256,192,231053,2,0,L|256:280,1,80
189,154,231719,6,0,B|167:125|122:140|122:140|100:169|107:192|107:206|130:221,1,160
125,217,232469,2,0,L|160:320,1,100
256,272,233053,6,0,P|304:232|416:240,1,160
208,160,233553,1,0,0:0:0:0:
112,272,233719,2,0,P|56:272|24:256,2,80,0|0|0,0:0|0:0|0:0,0:0:0:0:
40,128,234219,1,0,0:0:0:0:
120,88,234386,2,0,B|168:88|168:88|192:64|224:40|256:32|280:48,1,160
280,144,234886,1,0,0:0:0:0:
184,224,235053,6,0,P|208:264|336:296,1,160
360,224,235553,1,0,0:0:0:0:
360,112,235719,1,0,0:0:0:0:
440,176,235886,1,0,0:0:0:0:
288,168,236053,1,0,0:0:0:0:
264,80,236219,2,0,P|192:56|128:112,1,160
176,256,236886,5,0,0:0:0:0:
80,256,237053,2,0,P|96:320|200:344,1,160
256,312,237553,1,0,0:0:0:0:
280,224,237719,2,0,P|312:184|424:168,1,160
488,232,238219,2,0,L|504:128,1,80
416,168,238553,2,0,L|376:72,1,80
280,80,238886,5,0,0:0:0:0:
192,128,239053,1,0,0:0:0:0:
192,128,239136,1,0,0:0:0:0:
192,128,239219,1,0,0:0:0:0:
120,184,239386,2,0,P|120:224|224:272,1,160
40,224,240053,1,0,0:0:0:0:
160,272,240386,2,0,P|208:312|304:288,1,160
320,208,241053,6,0,P|352:168|368:128,1,80
336,40,241386,2,0,P|304:80|280:128,1,80
200,88,241719,6,0,P|168:128|152:168,1,80
184,256,242052,2,0,P|216:216|240:168,1,80
288,296,242386,6,0,P|336:336|448:312,1,160
256,200,242886,1,0,0:0:0:0:
192,128,243053,2,0,P|128:112|40:168,1,160
136,192,243553,1,0,0:0:0:0:
48,256,243719,2,0,B|80:304|80:304|120:312|200:296,1,160
280,248,244219,5,0,0:0:0:0:
360,248,244386,1,0,0:0:0:0:
360,168,244553,1,0,0:0:0:0:
280,168,244719,1,0,0:0:0:0:
208,200,244886,2,0,L|104:200,1,80
128,200,245219,6,0,B|104:168|104:112|120:96,1,80
160,56,245553,1,0,0:0:0:0:
216,112,245719,1,0,0:0:0:0:
256,48,245886,1,0,0:0:0:0:
304,112,246053,1,0,0:0:0:0:
368,200,246386,6,0,B|368:280|352:312|352:312|280:344,1,160
144,200,247053,2,0,B|144:280|160:312|160:312|232:344,1,160
200,144,247719,2,0,B|224:88|256:72|256:72|256:-16,1,160
288,152,248219,1,0,0:0:0:0:
288,152,248386,2,0,L|328:192,4,40,0|0|0|0|0,0:0|0:0|0:0|0:0|0:0,0:0:0:0:
316,180,248803,1,0,0:0:0:0:
316,180,248886,2,0,L|368:224,4,40,0|0|0|0|0,0:0|0:0|0:0|0:0|0:0,0:0:0:0:
232,240,250053,6,0,P|192:288|96:296,1,160
88,224,251053,1,0,0:0:0:0:
8,168,251719,2,0,P|32:112|40:8,1,160
144,80,252386,2,0,P|208:120|312:104,1,160
184,184,253053,5,0,0:0:0:0:
248,224,253219,1,0,0:0:0:0:
304,176,253386,1,0,0:0:0:0:
240,128,253553,1,0,0:0:0:0:
160,184,253719,1,0,0:0:0:0:
248,248,253886,1,0,0:0:0:0:
336,176,254053,1,0,0:0:0:0:
240,104,254219,1,0,0:0:0:0:
240,176,254386,5,0,0:0:0:0:
240,176,254553,1,0,0:0:0:0:
240,176,254636,1,0,0:0:0:0:
240,176,254719,1,0,0:0:0:0:
240,176,254803,1,0,0:0:0:0:
240,176,254886,1,0,0:0:0:0:
240,176,254969,1,0,0:0:0:0:
240,176,255053,1,0,0:0:0:0:
240,176,255136,1,0,0:0:0:0:
240,176,255219,1,0,0:0:0:0:
240,176,255303,2,0,L|240:224,5,40,0|0|0|0|0|0,0:0|0:0|0:0|0:0|0:0|0:0,0:0:0:0:
128,288,255886,6,0,P|184:328|288:312,1,160
80,184,256386,1,0,0:0:0:0:
112,104,256553,2,0,P|184:120|224:112,1,80
352,184,256886,2,0,P|296:176|256:184,1,80
320,264,257219,1,0,0:0:0:0:
424,224,257386,2,0,P|440:168|352:96,1,160
480,80,257886,1,0,0:0:0:0:
304,96,258053,2,0,B|256:112|200:104|200:104|168:160|160:168,1,160
48,240,258553,6,0,P|96:280|144:272,1,80
160,192,258886,1,0,0:0:0:0:
248,256,259053,2,0,L|360:384,1,160
344,224,259553,1,0,0:0:0:0:
312,120,259719,1,0,0:0:0:0:
312,120,259803,1,0,0:0:0:0:
312,120,259886,1,0,0:0:0:0:
226,53,260053,2,0,B|176:53|176:53|147:103|88:103|78:112,2,160,0|0|0,0:0|0:0|0:0,0:0:0:0:
192,160,260886,1,0,0:0:0:0:
64,248,261053,6,0,P|128:280|144:296,1,80
264,360,261386,2,0,P|224:328|208:304,1,80
248,216,261719,1,0,0:0:0:0:
184,96,261886,2,0,P|128:80|48:144,1,160
160,192,262386,1,0,0:0:0:0:
288,288,262553,6,0,L|352:288|464:288,1,160
304,192,263053,1,0,0:0:0:0:
200,256,263219,2,0,P|144:296|120:296,2,80,0|0|0,0:0|0:0|0:0,0:0:0:0:
120,136,263719,2,0,P|48:112|16:112,1,80
192,176,264053,1,0,0:0:0:0:
120,216,264219,2,0,P|64:248|40:288,1,80
192,176,264553,1,0,0:0:0:0:
192,280,264719,2,0,L|280:280,2,80,0|0|0,0:0|0:0|0:0,0:0:0:0:
296,192,265219,5,0,0:0:0:0:
296,192,265303,1,0,0:0:0:0:
296,192,265386,1,0,0:0:0:0:
272,104,265553,2,0,P|232:56|184:48,1,80
112,112,265886,1,0,0:0:0:0:
88,216,266053,2,0,B|120:256|120:320|120:320|120:320|176:280|184:288,1,160
176,168,266553,1,0,0:0:0:0:
224,232,266719,6,0,P|272:272|368:232,1,160
288,184,267219,1,0,0:0:0:0:
224,88,267386,2,0,P|168:72|144:56,1,80
304,112,267719,2,0,P|344:120|384:152,1,80
224,176,268053,1,0,0:0:0:0:
152,264,268219,5,0,0:0:0:0:
152,264,268303,1,0,0:0:0:0:
152,264,268386,1,0,0:0:0:0:
152,264,268469,1,0,0:0:0:0:
152,264,268553,1,0,0:0:0:0:
240,296,268719,1,0,0:0:0:0:
320,232,268886,2,0,P|360:192|368:152,1,80
416,168,269219,6,0,L|336:88,1,80
272,80,269553,1,0,0:0:0:0:
232,168,269719,2,0,L|216:256,1,80
217,246,270053,1,0,0:0:0:0:
217,246,270136,1,0,0:0:0:0:
217,246,270220,1,0,0:0:0:0:
217,246,270303,1,0,0:0:0:0:
217,246,270386,1,0,0:0:0:0:
160,328,270553,6,0,P|112:320|80:200,1,160
16,160,271053,1,0,0:0:0:0:
68,100,271219,6,0,P|87:26|160:0,1,160
152,88,271719,1,0,0:0:0:0:
216,152,271886,2,0,P|256:176|296:192,1,80
448,240,272219,2,0,P|392:216|352:216,1,80
280,272,272553,1,0,0:0:0:0:
160,272,272719,2,0,B|112:240|48:248|48:248|48:208|16:176,1,160
128,168,273219,1,0,0:0:0:0:
80,320,273386,2,0,B|128:352|192:336|192:336|240:360|264:352,1,160
312,280,273886,1,0,0:0:0:0:
280,176,274053,6,0,P|224:128|184:112,1,80
120,96,274386,1,0,0:0:0:0:
120,96,274553,1,0,0:0:0:0:
120,96,274636,1,0,0:0:0:0:
120,96,274719,1,0,0:0:0:0:
128,256,274886,6,0,P|168:296|216:304,1,80
272,288,275219,1,0,0:0:0:0:
272,288,275386,1,0,0:0:0:0:
272,288,275469,1,0,0:0:0:0:
272,288,275553,1,0,0:0:0:0:
368,240,275719,6,0,L|344:192,3,40,0|0|0|0,0:0|0:0|0:0|0:0,0:0:0:0:
350,204,276053,1,0,0:0:0:0:
350,204,276136,2,0,L|328:160,3,40,0|0|0|0,0:0|0:0|0:0|0:0,0:0:0:0:
232,96,276553,6,0,P|176:64|136:72,1,80
80,120,276886,1,0,0:0:0:0:
184,288,277053,2,0,B|136:320|88:304|88:304|64:272|24:280,1,160
192,168,277553,1,0,0:0:0:0:
96,224,277719,2,0,B|48:200|24:192|24:192|16:152|0:104,1,160
216,360,278219,1,0,0:0:0:0:
280,264,278386,6,0,B|272:200|224:152|224:152|232:112,1,160
336,152,278886,1,0,0:0:0:0:
200,224,279053,1,0,0:0:0:0:
264,104,279219,1,0,0:0:0:0:
280,264,279386,1,0,0:0:0:0:
280,264,279553,6,0,P|264:216|264:168,2,80,0|0|0,0:0|0:0|0:0,0:0:0:0:
336,208,280053,2,0,P|328:152|328:112,2,80,0|0|0,0:0|0:0|0:0,0:0:0:0:
392,88,280553,1,0,0:0:0:0:
392,88,280636,1,0,0:0:0:0:
392,88,280719,1,0,0:0:0:0:
424,208,280886,2,0,P|400:264|296:280,1,160
336,208,281386,5,0,0:0:0:0:
336,208,281553,1,0,0:0:0:0:
312,184,281636,1,0,0:0:0:0:
288,160,281719,1,0,0:0:0:0:
264,136,281803,1,0,0:0:0:0:
240,112,281886,1,0,0:0:0:0:
216,88,281969,1,0,0:0:0:0:
192,64,282053,2,0,P|104:48|72:112,1,160
144,136,282553,5,0,0:0:0:0:
40,264,283719,2,0,P|80:328|104:336,1,80
136,256,284386,1,0,0:0:0:0:
160,120,285053,5,0,0:0:0:0:
200,200,285219,1,0,0:0:0:0:
200,48,285386,1,0,0:0:0:0:
280,216,285553,1,0,0:0:0:0:
272,8,285719,1,0,0:0:0:0:
368,200,285886,1,0,0:0:0:0:
288,120,286053,1,0,0:0:0:0:
288,120,286219,1,0,0:0:0:0:
288,120,286386,6,0,L|248:144,4,40,0|0|0|0|0,0:0|0:0|0:0|0:0|0:0,0:0:0:0:
248,120,286803,1,0,0:0:0:0:
216,112,286886,1,0,0:0:0:0:
184,104,286969,1,0,0:0:0:0:
152,96,287053,1,0,0:0:0:0:
120,80,287136,1,0,0:0:0:0:
88,56,287219,1,0,0:0:0:0:
80,112,287386,5,0,0:0:0:0:
80,136,287469,1,0,0:0:0:0:
80,168,287553,1,0,0:0:0:0:
80,192,287636,1,0,0:0:0:0:
80,216,287719,5,0,0:0:0:0:
80,248,287803,1,0,0:0:0:0:
80,272,287886,1,0,0:0:0:0:
80,296,287969,2,0,P|144:336|216:328,1,120
160,240,288386,1,0,0:0:0:0:
256,208,288553,1,0,0:0:0:0:
328,272,288719,1,0,0:0:0:0:
400,208,288886,1,0,0:0:0:0:
336,128,289053,1,0,0:0:0:0:
336,128,289136,1,0,0:0:0:0:
336,128,289219,1,0,0:0:0:0:
232,96,289386,5,0,0:0:0:0:
152,240,289553,1,0,0:0:0:0:
216,120,289719,1,0,0:0:0:0:
168,216,289886,1,0,0:0:0:0:
128,144,290053,1,0,0:0:0:0:
128,144,290136,1,0,0:0:0:0:
128,144,290219,1,0,0:0:0:0:
128,144,290303,1,0,0:0:0:0:
128,144,290386,1,0,0:0:0:0:
48,272,290553,6,0,P|80:304|144:320,1,80
320,280,290886,2,0,P|288:312|224:328,1,80
112,240,291219,1,0,0:0:0:0:
256,240,291386,1,0,0:0:0:0:
56,184,291553,1,0,0:0:0:0:
304,184,291719,1,0,0:0:0:0:
192,168,291886,5,0,0:0:0:0:
192,152,291969,1,0,0:0:0:0:
192,136,292053,1,0,0:0:0:0:
192,120,292136,1,0,0:0:0:0:
192,104,292220,1,0,0:0:0:0:
192,88,292303,1,0,0:0:0:0:
192,72,292386,1,0,0:0:0:0:
192,56,292469,1,0,0:0:0:0:
200,32,292553,2,0,L|224:24,4,20,0|0|0|0|0,0:0|0:0|0:0|0:0|0:0,0:0:0:0:
264,32,292761,2,0,L|232:24,6,20,0|0|0|0|0|0|0,0:0|0:0|0:0|0:0|0:0|0:0|0:0,0:0:0:0:
313,23,293053,2,0,L|296:32,4,20,0|0|0|0|0,0:0|0:0|0:0|0:0|0:0,0:0:0:0:
256,192,293261,12,0,295053,0:0:0:0:
