osu file format v5

[General]
AudioFilename: BRS.mp3
AudioLeadIn: 0
PreviewTime: -1
Countdown: 0
SampleSet: Normal
StackLeniency: 0.7
Mode: 0
LetterboxInBreaks: 1
EditorBookmarks: 187769
EditorDistanceSpacing: 0.800000011920929

[Metadata]
Title:Black Rock Shooter
Artist:Hatsune Miku
Creator:Shinxyn
Version:Normal
Source:Supercell
Tags:

[Difficulty]
HPDrainRate:4
CircleSize:4
OverallDifficulty:5
SliderMultiplier:0.8
SliderTickRate:0.5

[Events]
//Background and Video events
0,0,"Konachan.com - 49071 sample.jpg"
1,-64,"BRSHD.flv"
//Break Periods
2,15967,28023
2,62878,66932
2,110513,115296
//Storyboard Layer 0 (Background)
//Storyboard Layer 1 (Failing)
//Storyboard Layer 2 (Passing)
//Storyboard Layer 3 (Foreground)
//Storyboard Sound Samples
//Background Colour Transformations
3,100,163,162,255

[TimingPoints]
4048,428.571428571429,4,2,1,100,1,0
15799,363.636363636364,4,1,1,70,1,0

[Colours]
Combo1 : 143,191,205
Combo2 : 2,79,164
Combo3 : 48,48,48

[HitObjects]
88,248,4048,1,2
128,128,4905,1,0
168,248,5762,1,2
208,128,6619,1,0
280,192,7262,5,0
280,192,7476,1,2
344,192,7905,1,2
344,192,8119,1,0
408,192,8548,5,0
440,176,8762,1,2
408,160,8976,1,0
376,160,9191,2,0,B|304:96|200:176,1,160,0|2
136,192,10690,5,0
136,224,10905,1,2
208,288,11548,1,2
240,288,11762,1,2
256,160,12619,1,0
344,72,13476,1,0
256,192,14333,12,4,15787
64,160,29253,5,8
88,104,29617,1,0
136,56,29980,1,8
200,56,30344,1,0
256,88,30708,1,8
256,152,31071,1,0
312,128,31435,1,8
312,192,31799,2,0,B|312:272|360:320,1,120
346,305,32526,1,0
400,216,33071,6,0,B|416:144|360:96,1,120,0|8
344,80,33799,2,0,B|320:64|288:64,1,40
240,64,34344,5,8
176,64,34708,1,4
128,104,35071,5,8
176,152,35435,1,0
128,200,35799,1,8
176,240,36162,1,0
128,288,36526,1,8
176,336,36889,1,0
240,320,37253,1,8
304,304,37617,2,0,B|360:352|416:304,1,120
413,307,38344,1,0
412,211,38889,6,0,B|360:160|302:208,1,120
280,224,39617,1,0
280,224,39798,1,0
216,224,40162,5,8
216,160,40526,1,4
216,96,40889,6,0,B|176:48|120:88,1,80
88,104,41617,1,8
48,152,41980,1,0
112,160,42344,2,0,B|96:216|32:216,1,80,8|0
0,192,43071,1,8
58,214,43435,2,0,B|104:248|120:336,1,120,0|0
115,316,44162,1,0
242,317,44889,5,0
331,280,45435,1,0
419,240,45980,2,0,B|491:208,2,40
331,208,46889,1,0
387,184,47253,1,0
355,128,47625,5,0
355,128,47798,1,0
323,72,48162,1,0
323,72,48344,1,0
291,128,48708,2,0,B|155:128,1,120,0|0
107,128,49617,1,0
107,128,49798,1,0
107,192,50162,1,0
179,256,50708,1,0
251,192,51253,1,0
283,192,51435,1,0
408,192,52162,5,4
352,72,52889,1,0
456,144,53617,1,0
408,192,53980,1,0
360,240,54344,1,8
312,288,54708,1,0
264,248,55071,2,0,B|336:184,1,80,8|0
280,152,55799,2,0,B|208:216,2,80,8|0|8
296,88,56889,5,8
296,88,57071,1,0
296,88,57253,1,0
248,48,57617,1,4
200,88,57980,6,0,B|136:88,4,40,0|0|0|0|0
200,216,59435,1,0
200,152,59798,1,0
264,152,60162,1,0
264,216,60526,1,4
256,192,60889,12,4,62708
384,192,68162,5,0
312,80,68889,1,0
200,144,69617,1,0
200,80,69980,1,0
144,112,70344,1,0
200,144,70708,1,0
144,176,71071,1,0
256,192,71799,12,0,73980
256,64,74526,5,0
256,128,74889,1,0
256,160,75071,1,0
192,160,75435,5,0
320,160,76162,1,0
256,272,76889,1,0
128,272,77617,1,0
48,216,78162,6,0,B|48:168,1,40,0|0
112,176,78708,2,0,B|112:248,1,40,0|0
176,216,79253,2,0,B|176:152,2,40,0|0|4
272,192,80162,5,0
336,192,80526,1,0
400,192,80889,1,4
464,192,81253,5,0
352,128,81980,1,0
296,248,82708,1,0
184,192,83435,1,0
96,96,84162,5,0
96,160,84526,1,0
96,160,84708,1,0
96,224,85071,1,0
96,288,85435,1,4
192,288,85980,6,0,B|296:288,1,80,0|0
336,288,86708,2,0,B|336:176,1,80,4|4
336,80,87798,1,0
208,104,88526,1,0
216,232,89253,1,0
264,272,89617,6,0,B|240:312|176:288,1,80,0|0
152,240,90344,1,0
152,240,90526,1,0
176,176,90890,2,0,B|224:144|272:184,1,80,0|4
336,216,91799,6,0,B|416:272,1,80,0|0
440,208,92526,2,0,B|344:144,1,80,4|0
288,112,93435,1,0
240,160,93798,1,0
160,112,94344,1,0
112,160,94708,2,0,L|64:160,5,40
256,192,95798,12,4,97253
472,344,98344,5,0
424,304,98708,1,0
376,264,99071,2,0,B|328:224,1,40
296,200,99617,1,0
296,104,100162,6,0,B|200:104,2,80,0|0|0
296,104,101071,2,0,B|296:40,3,40,0|0|0|0
216,104,102162,1,0
256,184,102708,1,0
256,280,103253,2,0,B|312:280,1,40
256,280,103617,6,0,B|200:280,1,40
152,280,104162,1,0
88,280,104526,1,4
256,192,104708,12,0,107799
256,152,108889,6,0,B|256:264,4,80,0|0|0|0|4
472,40,116526,5,8
424,88,116889,1,0
472,128,117253,1,8
424,176,117617,1,0
376,216,117980,1,8
312,232,118344,1,0
248,240,118708,2,8,B|168:248|72:296,1,160
64,296,119617,1,0
32,312,119799,1,4
32,216,120344,5,0
32,184,120526,1,0
128,184,121071,1,0
160,184,121253,1,0
224,184,121617,5,8
288,184,121980,1,4
256,128,122344,5,0
224,184,122708,1,0
288,184,123071,1,8
256,240,123435,2,0,B|264:296|320:304,1,80,0|8
320,240,124162,1,0
352,184,124526,2,0,B|392:200|384:256,1,80,8|4
136,192,126344,5,0
216,88,127071,1,0
216,152,127435,5,8
216,216,127799,1,4
216,280,128162,5,0
280,280,128526,1,0
344,280,128889,2,0,B|440:280,1,80,8|0
424,216,129617,2,0,B|320:216,1,80,8|0
344,152,130344,2,0,B|448:152,3,80,8|0|8|0
344,152,131799,6,0,B|248:152,1,80,8|4
168,152,132708,1,0
72,152,133253,2,0,B|16:152,2,40
168,152,134162,1,0
168,216,134526,1,0
168,312,135071,6,0,B|264:312,1,80,0|0
280,312,135617,2,0,B|392:312,1,80,0|0
424,312,136344,1,0
424,280,136526,1,0
424,216,136889,2,0,B|424:120,1,80,0|0
424,72,137617,1,0
360,72,137980,6,8,L|360:160,3,80,8|0|8|8
360,240,139435,5,0
256,312,140162,1,0
152,240,140889,1,0
152,176,141253,6,0,B|152:104,2,40,0|0|0
216,176,141980,2,0,B|216:72,1,80,0|8
280,96,142708,1,0
344,96,143071,1,8
344,160,143435,1,0
280,160,143799,1,8
312,248,144344,1,0
312,248,144526,1,8
184,248,145253,6,0,B|128:248,2,40,8|0|8
184,248,145980,1,0
184,312,146344,1,8
240,280,146708,1,0
296,312,147071,1,8
296,248,147435,2,0,B|312:200|224:216,2,80,0|8|4
256,192,148344,12,0,149980
256,32,150889,5,0
256,32,151071,1,0
256,128,151617,1,0
256,128,151799,1,0
256,192,152162,5,0
200,160,152526,1,8
200,224,152889,1,0
256,256,153253,1,8
312,224,153617,1,0
312,160,153980,1,8
432,192,154708,1,0
360,120,155253,5,0
336,96,155435,1,0
336,192,155980,1,0
312,216,156162,1,0
184,192,156889,6,8,L|184:136,2,40,0|0|0
120,168,157617,2,8,L|120:120,2,40,0|0|0
64,192,158344,2,8,L|64:144,2,40,0|0|0
96,248,159071,5,8
136,296,159435,1,0
184,248,159799,2,0,C|336:176,1,160
256,192,161253,12,0,162344
256,192,162708,5,4
128,192,163435,1,0
256,192,164162,1,0
384,192,164889,1,0
384,288,165435,5,0
352,288,165617,1,0
288,288,165980,1,0
256,288,166162,1,0
192,288,166526,1,0
160,288,166708,1,0
128,288,166889,1,4
96,192,167435,5,0
144,144,167799,1,0
192,96,168162,1,4
216,72,168344,5,0
240,48,168526,1,0
320,96,169071,1,0
320,96,169253,1,0
240,152,169799,1,0
240,152,169980,1,0
320,192,170526,1,0
320,192,170708,1,0
240,240,171253,5,0
208,240,171435,1,0
144,240,171799,1,0
144,208,171980,1,0
80,208,172344,1,0
48,208,172526,1,0
16,208,172708,1,4
80,144,173253,6,0,B|176:144,1,80
224,144,173980,2,0,B|296:144,2,40,4|0|0
224,272,175071,1,0
224,144,175799,1,0
336,208,176526,1,0
336,112,177071,5,0
304,112,177253,1,0
240,112,177617,1,0
208,112,177799,1,0
208,176,178162,1,0
272,184,178526,1,4
360,224,179071,6,0,B|448:224,2,80,0|0|4
360,160,180162,5,0
360,288,180889,1,0
256,216,181617,1,0
256,88,182344,1,0
256,192,183071,12,0,184162
256,192,184526,12,0,185617
256,192,185980,12,0,187799
