osu file format v9

[General]
AudioFilename: Hetalia Nordic 5 Ban Ban Boo_.mp3
AudioLeadIn: 2000
PreviewTime: 70676
Countdown: 1
SampleSet: Soft
StackLeniency: 0.7
Mode: 0
LetterboxInBreaks: 1
SkinPreference:Default

[Editor]
DistanceSpacing: 0.8
BeatDivisor: 4
GridSize: 8

[Metadata]
Title:Ban Ban Boo
Artist:Hatsune Miku
Creator:Celeste76
Version:Denmark
Source:Lovely-P
Tags:Hetalia Axis Powers Nordic Norway Iceland Sweden Denmark Finland 5 Video animelover1432 APH Mint Bunny

[Difficulty]
HPDrainRate:5
CircleSize:4
OverallDifficulty:5
ApproachRate:6
SliderMultiplier:1.4
SliderTickRate:2

[Events]
//Background and Video events
0,0,"denmark_CD_character.png"
Video,1,"Hetalia_Nordic_5_Ban_Ban_Boo.avi"
//Break Periods
2,94191,97055
//Storyboard Layer 0 (Background)
//Storyboard Layer 1 (Fail)
//Storyboard Layer 2 (Pass)
//Storyboard Layer 3 (Foreground)
//Storyboard Sound Samples
//Background Colour Transformations
3,100,163,162,255

[TimingPoints]
734,342.857142857143,4,2,0,100,1,0
70676,-100,4,2,0,100,0,1
93991,-100,4,2,0,100,0,0
109419,-100,4,2,0,80,0,0
109761,-100,4,2,0,70,0,0
110104,-100,4,2,0,60,0,0
110447,-100,4,2,0,50,0,0
110790,-100,4,2,0,40,0,0
111133,-100,4,2,0,30,0,0
111476,-100,4,2,0,20,0,0
111819,-100,4,2,0,10,0,0

[Colours]
Combo1 : 0,128,255
Combo2 : 255,128,128
Combo3 : 255,128,64
Combo4 : 255,255,128
Combo5 : 128,255,0

[HitObjects]
416,56,13076,1,4
448,104,13248,1,0
448,160,13419,2,8,B|464:192|424:224,1,70,8|0
432,280,13762,1,0
392,320,13934,1,0
336,336,14105,2,0,B|296:352|248:336,1,70,8|0
216,320,14448,6,0,B|184:288|128:288,3,70,0|0|8|0
104,312,15134,1,0
56,336,15305,1,0
8,304,15476,1,8
56,272,15648,1,0
32,216,15819,6,0,B|16:184|16:144,1,70
48,104,16162,2,0,B|64:64|104:48,1,70,8|0
152,56,16505,2,0,B|144:112|168:128,1,70
218,123,16848,2,0,B|248:75|233:50,1,70,8|0
296,72,17191,5,0
344,104,17362,1,0
360,160,17534,1,8
336,208,17705,1,0
296,240,17876,1,0
392,288,18219,1,0
392,288,18391,1,8
344,328,18562,6,4,B|304:352|248:328,1,70,4|0
16,64,19934,6,4,B|40:40|88:40,1,70,4|0
464,96,21305,6,4,B|488:136|464:168,1,70,4|0
400,312,21991,2,4,B|368:336|320:328,1,70,4|0
168,344,22676,6,4,B|96:320,1,70
72,272,23019,1,4
32,232,23191,1,0
80,200,23362,1,4
40,160,23534,1,0
80,120,23705,1,4
40,80,23876,1,0
256,192,24048,12,0,25419
296,128,25591,5,2
336,88,25762,1,2
384,56,25934,1,2
432,80,26105,1,4
400,128,26276,1,2
360,168,26448,2,0,B|352:208|312:240|272:248|248:248,1,140,0|4
152,280,27134,5,8
112,320,27305,1,0
64,352,27476,1,0
40,240,27819,1,8
24,184,27991,1,0
24,128,28162,1,0
112,96,28505,2,0,B|128:56|168:32,2,70,8|0|0
160,120,29019,2,0,B|136:160|144:208,2,70,8|0|0
216,104,29534,5,8
328,104,29876,1,0
440,104,30219,1,8
440,216,30562,1,0
360,296,30905,2,8,B|312:352,1,70
264,320,31248,2,8,B|312:264,1,70
344,224,31591,1,8
232,224,31934,1,0
192,264,32105,1,0
136,272,32276,6,0,B|96:264|64:208,1,70
48,184,32619,2,0,B|32:104,1,70,8|0
80,56,32962,2,0,B|96:112|120:128,1,70,0|0
168,120,33305,2,0,B|203:73|201:44,3,70,8|0|0|0
264,64,33991,1,8
264,64,34162,1,0
320,64,34334,1,0
320,64,34505,1,0
376,64,34676,1,8
448,152,35019,6,4,B|440:200|360:288,1,140
360,160,35705,2,4,B|320:224|256:264,1,140,0|4
176,328,36391,1,4
176,328,36562,1,4
136,288,36733,2,4,B|80:240,1,70,4|0
48,200,37076,2,4,B|24:168|48:128,1,70,4|0
104,136,37419,2,4,B|128:168|104:208,1,70,4|0
104,136,37762,1,4
136,32,38105,5,8
192,40,38276,1,0
248,56,38448,1,0
360,56,38791,2,0,B|392:64|408:104,2,70,8|0|0
336,112,39305,1,0
336,112,39476,1,8
360,160,39648,2,0,B|392:192|400:240|384:296,1,140,0|8
344,328,40162,1,8
232,344,40505,6,0,B|184:360|152:336,1,70,8|0
112,320,40848,1,8
56,224,41191,2,0,B|32:192|48:144,1,70,8|0
104,152,41533,1,8
208,104,41876,2,0,B|240:64|304:56|336:72,1,140,8|8
432,128,42562,1,8
416,184,42733,1,0
440,240,42905,1,8
488,264,43076,1,0
456,312,43248,6,0,B|432:336|392:336,3,70,8|0|8|0
336,344,43933,1,8
336,344,44105,1,0
336,344,44276,1,8
224,352,44619,2,0,B|184:368|104:360|80:336,1,140,8|8
48,304,45133,1,0
64,136,45648,1,8
160,80,45991,5,4
264,32,46333,1,4
272,144,46676,1,4
368,80,47019,1,4
472,128,47362,6,4,B|496:168|456:200,1,70,0|2
416,288,47876,2,0,B|392:312|344:312,2,70,2|0|2
392,240,48391,1,0
336,248,48562,1,2
280,272,48733,1,4
168,280,49076,6,0,B|80:272,1,70,8|0
96,216,49419,2,0,B|184:224,1,70
176,168,49762,1,8
144,120,49933,1,0
192,88,50105,1,0
192,88,50276,1,0
240,56,50448,1,8
240,56,50619,1,0
296,56,50791,2,0,B|440:56,1,140,0|8
256,192,51476,12,0,52505
256,192,52848,6,8,B|296:184|304:152|296:128|272:112|256:112|240:112|216:128,1,140
128,176,53533,1,8
88,216,53705,1,8
80,272,53876,1,8
112,320,54048,1,8
160,344,54219,1,4
256,288,54562,6,0,B|264:256|272:240|312:232,1,70,8|0
344,264,54905,2,0,B|384:264|392:240|400:216,1,70
360,184,55248,2,0,B|352:136|400:112,1,70,8|0
440,120,55591,2,0,B|480:96|456:32,1,70
408,48,55933,1,8
408,48,56105,1,0
352,48,56276,2,0,B|312:64|256:64|216:48,1,140,0|8
256,192,56962,12,0,57819
256,192,57991,5,8
256,192,58162,1,8
256,192,58333,1,8
176,216,58676,2,8,B|192:264|224:280,1,70
336,216,59019,2,8,B|320:264|288:280,1,70
256,192,59362,1,8
328,112,59705,6,4,B|352:152|400:112,1,70
440,128,60048,2,0,B|480:152|488:184|472:192,1,70
448,232,60391,2,4,B|408:256|424:296,1,70
376,320,60733,2,0,B|336:336|296:320,1,70
248,320,61076,2,4,B|208:288|184:304,1,70
128,320,61419,2,0,B|80:328|48:312,1,70
24,272,61762,2,4,B|8:232|32:200,1,70
40,152,62105,1,4
112,64,62448,6,4,B|96:96|128:136,1,70
176,144,62791,2,0,B|208:128|200:72,1,70
256,64,63133,2,4,B|256:112|296:128,1,70
344,120,63476,2,0,B|368:80|408:88,1,70
416,144,63819,2,4,B|392:176|424:208,1,70
464,240,64162,1,4
440,288,64333,1,4
400,328,64505,1,4
400,328,64848,1,4
296,280,65191,5,0
248,312,65362,1,0
200,280,65533,2,4,B|208:240|160:216,1,70
152,168,65876,2,0,B|176:136|224:128,1,70
264,136,66219,1,4
264,136,66391,1,4
312,168,66562,5,0
360,192,66733,1,0
416,184,66905,1,4
456,144,67076,1,4
432,96,67248,1,0
376,88,67419,1,4
320,104,67591,1,4
256,192,67933,12,0,69305
256,192,69991,5,4
432,56,70676,6,0,B|464:96|464:152|432:192,1,140,4|8
400,288,71362,6,0,B|375:333|324:354|274:341,1,140,0|8
240,320,71876,1,0
192,344,72048,1,0
144,320,72219,1,0
96,344,72391,1,8
32,264,72733,2,0,B|8:304|40:328,1,70
32,264,73076,1,8
48,152,73419,5,0
88,112,73591,1,0
48,72,73762,1,8
152,112,74105,1,0
184,64,74276,1,0
216,112,74448,1,8
312,144,74791,6,0,B|360:120|352:80,2,70,0|0|8
312,144,75305,1,0
312,144,75476,1,0
312,144,75648,1,0
312,144,75819,1,8
400,208,76162,6,0,B|376:264|392:304|448:328,1,140,0|8
328,336,76848,2,0,B|352:280|336:240|280:216,1,140,0|8
232,224,77362,2,0,B|168:240|168:288|192:360,1,140,0|0
240,344,77876,1,8
240,344,78219,1,0
240,344,78562,1,8
176,256,78905,6,0,B|160:296|120:296,1,70,0|0
96,248,79248,1,4
104,136,79591,2,0,B|120:96|160:96,1,70
208,80,79933,1,4
280,168,80276,2,0,B|278:211|314:227,1,70,4|0
368,224,80619,2,0,B|404:201|397:161,1,70,4|0
448,136,80962,2,0,B|490:129|511:163,1,70,4|0
472,208,81305,2,0,B|473:251|437:267,1,70,4|0
384,296,81648,5,4
336,328,81819,1,0
280,312,81991,1,8
232,280,82162,2,0,B|200:264|160:288,1,70
120,312,82505,2,0,B|88:336|48:304,1,70,0|8
40,256,82848,5,0
40,256,83019,1,0
56,200,83191,1,0
56,200,83362,1,8
80,152,83533,2,0,B|120:160|144:120,1,70
184,88,83876,1,0
224,56,84048,1,8
224,56,84219,1,0
280,48,84391,6,0,B|320:32|360:56,1,70
312,96,84734,2,0,B|290:130|321:159,1,70,8|0
368,128,85076,2,0,B|408:120|424:160,1,70
408,216,85419,2,0,B|368:208|352:248,1,70,8|0
320,288,85762,5,0
320,288,85933,1,0
320,288,86105,1,8
280,320,86276,1,0
280,320,86448,1,0
280,320,86619,1,0
232,352,86791,1,8
392,56,87133,5,4
352,96,87305,1,0
56,312,88505,5,4
104,344,88676,1,0
488,48,89876,6,0,B|520:80|512:112,1,70,4|0
488,48,90219,1,4
392,152,90562,2,0,B|344:168|336:200,1,70,4|0
392,152,90905,1,4
320,272,91248,5,4
280,312,91419,1,0
232,280,91591,1,4
184,312,91762,1,0
144,280,91934,1,4
96,312,92105,1,0
56,280,92276,1,4
256,192,92619,12,4,93991
400,80,98105,5,4
352,112,98276,1,0
352,56,98448,2,0,B|304:64|296:104,1,70,8|8
272,144,98791,1,0
240,104,98962,1,0
208,152,99134,2,8,B|216:200|272:208,1,70,8|8
304,192,99476,5,0
296,248,99648,1,0
352,256,99819,2,0,B|336:296|288:296,1,70,8|8
240,280,100162,1,0
184,264,100334,1,0
192,320,100505,2,0,B|144:304|144:272,1,70,8|8
104,232,100848,5,0
56,208,101019,1,0
80,168,101191,2,0,B|48:144|0:168,1,70,8|8
16,112,101534,1,0
64,88,101705,1,0
40,40,101876,2,0,B|96:16|112:40,1,70,8|8
144,56,102219,5,4
200,56,102391,1,0
256,56,102562,2,0,B|296:32|336:48,1,70
376,64,102905,2,0,B|424:56|453:117,1,70,8|0
448,144,103248,2,0,B|471:183|439:223,1,70
400,232,103591,5,4
32,336,104962,5,4
352,80,106334,5,4
352,80,106505,1,0
384,128,106676,2,0,B|416:160|384:200,1,70,8|0
384,248,107019,2,0,B|360:280|320:280,1,70,4|0
272,280,107362,2,8,B|248:248|272:208,1,70
272,160,107705,5,4
240,112,107876,1,0
192,80,108048,1,4
136,80,108219,1,0
80,96,108391,1,4
48,144,108562,1,4
40,200,108734,1,4
256,192,109076,12,0,111819
