osu file format v12

[General]
AudioFilename: _ - Baby Maniacs __+PV.mp3
AudioLeadIn: 0
PreviewTime: 58863
Countdown: 0
SampleSet: Normal
StackLeniency: 0.7
Mode: 0
LetterboxInBreaks: 1

[Editor]
DistanceSpacing: 1
BeatDivisor: 4
GridSize: 4

[Metadata]
Title:Baby Maniacs (Short Ver.)
TitleUnicode:Baby Maniacs (Short Ver.)
Artist:Hatsune Miku
ArtistUnicode:Hatsune Miku
Creator:nold_1702
Version:Palingenetic
Source:HachiojiP
Tags:VOCALOID ertyukjh010 tutuhaha 22haha aabc271 LKs OnosakiHito Jenny
BeatmapID:149858
BeatmapSetID:43268

[Difficulty]
HPDrainRate:7
CircleSize:4
OverallDifficulty:7
ApproachRate:9
SliderMultiplier:2.49999990463257
SliderTickRate:4

[Events]
//Background and Video events
0,0,"bg.jpg",0,0
//Break Periods
2,16598,28525
//Storyboard Layer 0 (Background)
//Storyboard Layer 1 (Fail)
//Storyboard Layer 2 (Pass)
//Storyboard Layer 3 (Foreground)
Sprite,Foreground,Centre,"Black.png",320,240 F,0,0,16388,1,0 F,0,103661,107546,1
Sprite,Foreground,Centre,"bg_white.jpg",320,240 F,0,58206,60025,0,1 F,0,60025,87297,1 F,0,87297,89115,1,0
//Storyboard Sound Samples
//Background Colour Transformations
3,100,163,162,255

[TimingPoints]
35,454.545454545455,4,2,2,70,1,0
944,-83.3333333333333,4,1,2,40,0,0
2080,-83.3333333333333,4,2,1,70,0,0
5148,-83.3333333333333,4,2,0,70,0,0
5489,-83.3333333333333,4,2,1,70,0,0
8671,-62.5,4,2,2,100,0,0
9125,-83.3333333333333,4,2,1,70,0,0
12421,-62.5,4,1,1,70,0,0
14580,-62.5,4,1,2,70,0,0
14694,-62.5,4,2,0,20,0,0
15262,-83.3333333333333,4,1,0,50,0,0
15944,-62.5,4,1,0,50,0,0
16398,-62.5,4,2,0,70,0,0
28216,-62.5,4,1,2,70,0,0
30034,-83.3333333333333,4,1,2,70,0,0
30262,-62.5,4,1,2,70,0,0
30944,-83.3333333333333,4,2,0,70,0,0
31057,-83.3333333333333,4,2,2,70,0,0
31909,-83.3333333333333,4,2,0,70,0,0
32080,-83.3333333333333,4,2,2,70,0,0
32137,-83.3333333333333,4,2,2,70,0,0
33728,-83.3333333333333,4,2,0,70,0,0
33898,-83.3333333333333,4,2,2,70,0,0
33955,-83.3333333333333,4,2,2,70,0,0
36512,-83.3333333333333,4,2,0,70,0,0
36625,-83.3333333333333,4,2,2,70,0,0
36682,-83.3333333333333,4,2,2,70,0,0
37875,-83.3333333333333,4,2,0,70,0,0
38216,-83.3333333333333,4,2,2,70,0,0
43671,-83.3333333333333,4,1,1,100,0,0
44580,-125,4,2,2,70,0,0
45489,-62.5,4,1,1,100,0,0
45546,-62.5,4,1,1,70,0,0
54580,-83.3333333333333,4,1,1,70,0,0
58103,-83.3333333333333,4,1,1,100,0,0
58330,-125,4,2,2,70,0,0
60034,-62.5,4,1,1,100,0,1
60148,-62.5,4,1,1,70,0,0
66398,-83.3333333333333,4,1,1,70,0,0
67307,-62.5,4,1,1,100,0,1
67421,-62.5,4,1,1,70,0,0
73671,-125,4,1,1,70,0,0
74580,-62.5,4,1,1,100,0,1
74694,-62.5,4,1,1,70,0,0
80944,-83.3333333333333,4,1,1,70,0,0
81853,-62.5,4,1,1,100,0,1
81966,-62.5,4,1,1,70,0,0
87535,-83.3333333333333,4,1,1,70,0,0
87989,-62.5,4,1,1,70,0,0
88216,-62.5,4,1,2,70,0,0
89125,-83.3333333333333,4,2,1,70,0,0
92307,-83.3333333333333,4,2,0,70,0,0
92762,-83.3333333333333,4,2,1,70,0,0
95944,-83.3333333333333,4,2,0,70,0,0
96398,-83.3333333333333,4,2,1,70,0,0
99580,-83.3333333333333,4,2,0,70,0,0
100035,-83.3333333333333,4,2,1,70,0,0
101625,-83.3333333333333,4,1,2,70,0,0
101966,-83.3333333333333,4,1,2,70,0,0
103671,-83.3333333333333,4,1,2,17,0,1
103728,-83.3333333333333,4,1,2,20,0,0

[Colours]
Combo1 : 0,128,128
Combo2 : 128,128,128
Combo3 : 255,255,255
Combo4 : 0,128,255

[HitObjects]
112,252,1853,6,0,P|196:272|228:256,1,74.9999948501589,0|0,1:0|0:0,0:0:0:0:
272,152,2080,2,0,P|188:132|156:148,1,74.9999948501589,0|0,2:0|0:0,0:0:0:0:
272,152,2307,2,0,P|252:68|312:8,1,149.999989700318,8|0,2:0|0:0,0:0:0:0:
476,208,2762,6,0,P|412:220|384:212,1,74.9999948501589,8|0,0:0|0:0,0:0:0:0:
308,316,2989,2,0,P|376:348|472:320,1,149.999989700318,0|8,0:0|0:0,0:0:0:0:
428,140,3444,1,0,0:0:0:0:
428,140,3671,6,0,L|416:44,1,74.9999948501589,8|0,0:0|0:0,0:0:0:0:
360,20,3898,1,0,0:0:0:0:
288,36,4012,1,0,0:0:0:0:
332,96,4125,2,0,P|268:108|216:32,1,149.999989700318,8|0,0:0|0:0,0:0:0:0:
40,204,4580,5,8,0:0:0:0:
248,344,4807,1,0,0:0:0:0:
84,280,5035,5,8,0:0:0:0:
184,280,5148,5,2,0:0:0:0:
104,268,5262,37,2,0:0:0:0:
176,296,5375,5,2,0:0:0:0:
136,184,5489,6,0,L|120:96,2,74.9999948501589,8|0|0,0:0|0:0|0:0,0:0:0:0:
112,344,5830,1,0,0:0:0:0:
112,344,5944,2,0,P|200:376|248:320,1,149.999989700318,8|0,0:0|0:0,0:0:0:0:
472,344,6398,5,8,0:0:0:0:
488,272,6512,1,0,0:0:0:0:
416,292,6625,2,0,B|404:236|448:200|448:200|380:212|372:180,1,149.999989700318,0|8,0:0|0:0,0:0:0:0:
260,44,7080,1,0,0:0:0:0:
244,240,7307,6,0,L|268:344,1,74.9999948501589,8|0,0:0|0:0,0:0:0:0:
320,360,7535,2,0,P|288:384|228:376,1,74.9999948501589
168,328,7762,1,8,0:0:0:0:
212,144,7989,1,0,0:0:0:0:
32,228,8216,1,8,0:0:0:0:
108,232,8330,1,0,0:0:0:0:
356,184,8557,1,0,0:0:0:0:
432,188,8671,5,2,2:2:0:0:
428,196,9125,5,8,0:0:0:0:
316,360,9353,1,8,0:0:0:0:
152,248,9580,1,8,0:0:0:0:
264,84,9807,1,8,0:0:0:0:
192,56,9921,6,0,P|224:16|276:12,1,74.9999948501589
438,181,10262,1,8,0:0:0:0:
266,374,10489,1,8,0:0:0:0:
73,202,10716,1,8,0:0:0:0:
4,172,10830,6,0,P|36:132|88:128,1,74.9999948501589,0|8,0:0|0:0,0:0:0:0:
322,0,11171,1,8,0:0:0:0:
454,258,11398,1,8,0:0:0:0:
189,390,11625,1,8,0:0:0:0:
120,364,11739,6,0,P|152:324|204:320,1,74.9999948501589,0|8,0:0|0:0,0:0:0:0:
381,274,12080,1,8,0:0:0:0:
192,384,12307,1,8,0:0:0:0:
72,172,12535,6,0,L|56:112,1,49.9999980926514
132,32,12648,2,0,L|72:48,1,49.9999980926514,0|0,0:0|0:0,0:0:0:0:
144,192,12762,6,0,P|88:248|40:240,1,99.9999961853028,4|0,0:2|0:0,0:0:0:0:
4,208,12989,1,0,0:0:0:0:
24,288,13103,1,0,0:0:0:0:
44,364,13216,5,4,0:2:0:0:
108,316,13330,1,0,0:0:0:0:
188,308,13444,1,0,0:0:0:0:
264,332,13557,1,0,0:0:0:0:
316,272,13671,6,0,L|296:156,1,99.9999961853028,4|0,0:2|0:0,0:0:0:0:
112,40,13898,2,0,L|132:156,1,99.9999961853028,4|0,0:2|0:0,0:0:0:0:
192,364,14125,6,0,L|172:248,1,99.9999961853028,4|4,0:2|0:2,0:0:0:0:
0,164,14353,2,0,L|20:280,1,99.9999961853028,4|4,0:2|0:2,0:0:0:0:
364,352,14580,5,8,0:0:0:0:
372,344,15716,6,0,L|388:328,1,18.7499987125397
356,332,15773,2,0,L|364:310,1,18.7499987125397
336,324,15830,2,0,L|334:301,1,18.7499987125397
312,324,15887,2,0,L|301:303,1,18.7499987125397
296,340,15944,6,0,L|144:352,1,99.9999961853028
100,224,16171,2,0,L|252:212,1,99.9999961853028,0|0,0:0|0:0,0:0:0:0:
308,128,16398,5,4,0:0:0:0:
196,224,29125,5,4,0:0:0:0:
180,240,30035,6,0,L|164:256,1,18.7499987125397
196,252,30092,2,0,L|188:274,1,18.7499987125397
216,260,30149,2,0,L|218:283,1,18.7499987125397
240,260,30206,2,0,L|251:281,1,18.7499987125397
256,244,30263,6,0,P|336:224|412:336,1,199.999992370606,0|12,0:0|0:0,0:0:0:0:
448,100,30716,1,0,0:0:0:0:
368,108,30830,1,0,0:0:0:0:
288,120,30944,5,4,0:0:0:0:
176,352,31171,6,0,P|128:372|60:336,1,74.9999948501589,6|0,0:0|0:0,0:0:0:0:
88,224,31398,2,0,P|100:274|169:308,1,74.9999948501589,14|4,0:0|0:0,0:0:0:0:
256,364,31625,1,12,0:0:0:0:
256,364,31739,1,4,0:0:0:0:
244,268,31853,6,0,L|224:156,1,74.9999948501589,4|0,0:0|0:0,0:0:0:0:
300,168,32080,1,12,0:0:0:0:
168,152,32194,2,0,P|212:120|252:132,1,74.9999948501589,4|12,0:0|0:1,0:0:0:0:
176,352,32421,5,4,0:0:0:0:
256,364,32535,1,0,0:0:0:0:
336,376,32648,1,0,0:0:0:0:
492,256,32762,6,0,P|400:244|360:304,1,149.999989700318,14|4,0:0|0:0,0:0:0:0:
436,308,33103,1,0,0:0:0:0:
400,164,33216,6,0,B|388:108|388:108|420:76,1,74.9999948501589,12|4,0:0|0:0,0:0:0:0:
464,52,33444,2,0,P|380:24|344:60,1,74.9999948501589,8|0,0:0|0:0,0:0:0:0:
308,184,33671,2,0,P|248:236|164:216,1,149.999989700318,4|8,0:0|0:0,0:0:0:0:
68,308,34012,2,0,P|136:352|180:352,1,74.9999948501589,0|8,0:0|0:0,0:0:0:0:
336,320,34239,1,2,0:0:0:0:
336,320,34353,2,0,P|268:276|224:276,1,74.9999948501589,4|4,0:0|0:0,0:0:0:0:
299,110,34580,6,0,L|311:214,1,74.9999948501589,12|4,0:0|0:0,0:0:0:0:
256,360,34807,2,0,L|152:348,1,74.9999948501589,4|4,0:0|0:0,0:0:0:0:
156,192,35035,6,0,L|180:384,1,149.999989700318,14|12,0:0|0:0,0:0:0:0:
168,172,35375,1,4,0:0:0:0:
92,96,35489,6,0,P|36:84|0:100,2,74.9999948501589,4|0|12,0:0|0:0|0:0,0:0:0:0:
84,336,35944,1,2,0:0:0:0:
48,156,36171,1,2,0:0:0:0:
236,220,36398,6,0,P|156:252|148:248,1,74.9999948501589,12|2,0:0|0:0,0:0:0:0:
248,132,36625,2,0,P|216:52|220:44,1,74.9999948501589,4|4,0:0|0:0,0:0:0:0:
316,284,36853,2,0,P|284:352|312:408,1,112.499992275238,8|0,0:0|0:0,0:0:0:0:
296,384,37080,1,8,0:0:0:0:
476,320,37194,2,0,B|460:232|460:232|500:176|500:176|492:160,1,149.999989700318
