osu file format v9

[General]
AudioFilename: _ - Baby Maniacs __+PV.mp3
AudioLeadIn: 0
PreviewTime: 58863
Countdown: 0
SampleSet: Normal
StackLeniency: 0.7
Mode: 0
LetterboxInBreaks: 1

[Editor]
DistanceSpacing: 0.8
BeatDivisor: 4
GridSize: 8

[Metadata]
Title:Baby Maniacs (Short Ver.)
Artist:Hatsune Miku
Creator:nold_1702
Version:ERT Peaceable
Source:HachiojiP
Tags:VOCALOID ertyukjh010 tutuhaha 22haha aabc271 LKs OnosakiHito Jenny

[Difficulty]
HPDrainRate:2
CircleSize:3
OverallDifficulty:2
ApproachRate:3
SliderMultiplier:1
SliderTickRate:2

[Events]
//Background and Video events
0,0,"bg.jpg"
//Break Periods
2,16598,27685
//Storyboard Layer 0 (Background)
//Storyboard Layer 1 (Fail)
//Storyboard Layer 2 (Pass)
//Storyboard Layer 3 (Foreground)
Sprite,Foreground,Centre,"Black.png",320,240 F,0,0,16388,1,0 F,0,103661,107546,1
Sprite,Foreground,Centre,"bg_white.jpg",320,240 F,0,58206,60025,0,1 F,0,60025,87297,1 F,0,87297,89115,1,0
//Storyboard Sound Samples
//Background Colour Transformations
3,100,163,162,255

[TimingPoints]
35,454.545454545455,4,1,2,50,1,0
1966,-100,4,2,1,70,0,0
12421,-100,4,2,1,60,0,0
14580,-100,4,1,2,70,0,0
16171,-100,4,1,2,50,0,0
29580,-100,4,2,2,70,0,0
37534,-100,4,2,0,70,0,0
38103,-100,4,2,2,70,0,0
43444,-100,4,1,0,70,0,0
44125,-100,4,1,0,20,0,0
45034,-100,4,1,1,70,0,0
56171,-100,4,1,1,100,0,0
58444,-100,4,1,1,70,0,0
60035,-100,4,1,1,70,0,1
60148,-100,4,1,1,70,0,0
67307,-100,4,1,1,70,0,1
67421,-100,4,1,1,70,0,0
74580,-100,4,1,1,70,0,1
74694,-100,4,1,1,70,0,0
81853,-100,4,1,1,70,0,1
81966,-100,4,1,1,70,0,0
89125,-100,4,2,1,70,0,0
101625,-100,4,1,1,70,0,0
103671,-100,4,1,2,20,0,1
103728,-100,4,1,2,20,0,0

[Colours]
Combo1 : 0,128,128
Combo2 : 128,128,128
Combo3 : 255,255,255
Combo4 : 0,128,255

[HitObjects]
160,112,1853,2,0,B|256:80|256:80|352:112,1,200.000002384186,12|8
368,192,3216,1,0
352,272,3671,2,0,B|256:304|256:304|160:272,1,200.000002384186,8|8
144,192,5035,1,2
200,136,5489,6,0,B|240:96|304:112,1,100.000001192093,8|0
264,184,6398,2,0,B|320:176|360:216,1,100.000001192093,8|0
336,288,7307,5,8
392,344,7762,1,0
472,320,8216,1,8
480,240,8671,1,0
416,192,9125,6,0,B|360:200|312:184,1,100.000001192093,8|8
328,104,10035,2,0,B|285:89|229:97,1,100.000001192093,8|8
160,136,10944,5,8
112,72,11398,2,0,B|112:16,2,50.0000005960464,8|8|8
56,128,12307,1,8
256,192,12535,12,8,14580
256,144,15944,6,0,B|256:248,1,100.000001192093,0|4
256,192,29125,5,4
176,328,30035,1,10
256,344,30489,1,8
336,328,30944,6,0,B|440:320,1,100.000001192093,10|12
456,240,31853,2,0,B|356:247,1,100.000001192093,2|12
280,216,32762,1,10
264,136,33216,1,4
328,88,33671,1,2
408,104,34125,1,12
424,184,34580,6,0,B|424:240|392:280,1,100.000001192093,10|12
344,216,35489,2,0,B|320:264|264:272,1,100.000001192093,2|4
184,272,36398,1,10
120,216,36853,1,4
128,136,37307,1,2
192,88,37762,6,0,B|296:88,1,100.000001192093,6|10
360,128,38671,5,4
304,184,39125,1,2
360,240,39580,1,4
304,296,40034,2,0,B|272:336|208:320,1,100.000001192093,10|4
136,296,40944,2,0,B|88:288|64:320,2,75.0000008940696,10|0|4
160,264,41853,6,0,B|184:216|160:168,1,100.000001192093,10|4
96,216,42762,2,0,B|72:168|96:120,1,100.000001192093,10|4
168,88,43671,2,0,B|240:24|304:136|368:88,1,200.000002384186,4|0
344,256,45489,6,0,B|336:364|256:388|176:364|168:256,1,300.000003576278,6|0
144,176,47307,2,0,B|88:144|48:208|-8:168,2,150.000001788139,6|0|0
224,192,49125,6,0,B|232:84|312:60|392:84|400:192,1,300.000003576278,6|0
440,264,50944,1,6
400,336,51398,1,0
320,320,51853,1,2
240,336,52307,1,0
160,328,52762,6,0,B|48:336|0:192|128:120,1,300.000003576278,6|0
192,168,54580,2,0,B|240:200|288:168,1,100,6|0
240,104,55489,2,0,B|285:73|333:105,1,100,2|0
256,192,56398,12,4,58216
296,120,60034,6,0,B|412:100|428:192|412:284|296:264,1,300.000003576279,6|2
216,264,61853,2,0,B|101:283|85:191|101:99|217:119,1,300.000003576279,6|2
296,120,63671,6,0,B|368:48,2,100.000001192093,6|2|6
312,200,65034,1,2
272,272,65489,2,0,B|232:312|176:296,2,100.000001192093,6|2|2
352,272,66853,1,2
400,208,67307,6,0,B|468:88|316:4|244:128,1,300.000003576278,6|2
240,200,69125,2,0,B|171:318|19:234|87:114,1,300.000003576278,6|2
144,56,70944,6,0,B|192:40|192:40|248:48,1,100.000001192093,0|2
200,120,71853,2,0,B|248:128|248:128|288:160,1,100.000001192093,2|2
224,208,72762,2,0,B|264:240|264:240|272:288,2,100.000001192093,6|2|2
64,176,74580,6,0,B|0:280|80:408|208:328,1,300.000003576278,6|2
224,256,76398,2,0,B|280:232|320:296|384:272,2,150.000001788139,6|8|2
144,272,78216,6,0,B|144:168,1,100.000001192093,6|2
216,136,79125,2,0,B|216:236,1,100.000001192093,2|2
288,200,80034,2,0,B|288:100,2,100.000001192093,6|2|2
312,280,81398,1,2
368,336,81853,6,0,B|484:409|564:281|500:177,1,300.000003576278,6|2
432,136,83671,1,6
352,152,84125,1,2
328,232,84580,1,2
288,304,85034,1,2
216,336,85489,6,0,B|168:336|168:336|128:304,1,100.000001192093,6|2
192,256,86398,2,0,B|152:224|152:224|136:176,1,100.000001192093,2|2
216,168,87307,1,6
288,128,87762,2,0,B|288:72,2,50.0000005960464,2|8|2
344,192,88671,6,0,B|376:240|344:288,1,100.000001192093,2|8
288,344,89580,5,8
216,304,90034,1,8
144,344,90489,1,8
72,304,90944,6,0,B|40:256|72:208,1,100.000001192093,8|8
128,152,91853,1,8
208,168,92307,2,0,B|240:128,2,50.0000005960464,8|0|8
232,248,93216,5,8
312,264,93671,1,8
376,216,94125,1,8
368,136,94580,5,8
296,96,95035,2,0,B|192:96,1,100.000001192093,8|8
160,168,95944,2,0,B|260:168,1,100.000001192093,8|8
328,216,96853,5,8
320,296,97307,1,8
240,320,97762,1,8
168,288,98216,6,0,B|64:288,1,100.000001192093,8|8
32,216,99125,2,0,B|132:216,1,100.000001192093,8|8
152,136,100035,5,8
232,120,100489,1,8
272,192,100944,1,8
352,176,101398,1,8
368,96,101853,6,0,B|416:88|416:88|472:104,1,100.000001192093,4|2
464,184,102762,2,0,B|472:224|456:264,2,75.0000008940696,2|0|8
464,184,103671,1,8
