osu file format v9

[General]
AudioFilename: _ - Baby Maniacs __+PV.mp3
AudioLeadIn: 700
PreviewTime: 59002
Countdown: 0
SampleSet: Normal
StackLeniency: 0.7
Mode: 0
LetterboxInBreaks: 0

[Editor]
Bookmarks: 45479,103661
DistanceSpacing: 0.8
BeatDivisor: 4
GridSize: 4

[Metadata]
Title:Baby Maniacs (Short Ver.)
Artist:Hatsune Miku
Creator:TakamuraRin
Version:Normal
Source:HachiojiP
Tags:8#Prince Vocaloid q*Left Wakamura-P

[Difficulty]
HPDrainRate:2
CircleSize:4
OverallDifficulty:2
ApproachRate:4
SliderMultiplier:1.4
SliderTickRate:1

[Events]
//Background and Video events
0,0,"305911.jpg"
//Break Periods
//Storyboard Layer 0 (Background)
//Storyboard Layer 1 (Fail)
//Storyboard Layer 2 (Pass)
//Storyboard Layer 3 (Foreground)
//Storyboard Sound Samples
//Background Colour Transformations
3,100,235,235,235

[TimingPoints]
37,454.545454545455,4,1,1,60,1,0
1855,-100,4,1,1,45,0,0
2082,-100,4,1,1,60,0,0
2309,-100,4,1,1,65,0,0
2537,-100,4,1,1,60,0,0
3218,-100,4,1,1,65,0,0
3446,-100,4,1,1,60,0,0
4127,-100,4,1,1,65,0,0
4355,-100,4,1,1,60,0,0
5037,-100,4,2,1,50,0,0
5491,-100,4,1,1,60,0,0
5946,-100,4,1,1,65,0,0
6173,-100,4,1,1,60,0,0
6855,-100,4,1,1,65,0,0
7082,-100,4,1,1,60,0,0
7764,-100,4,1,1,65,0,0
7991,-100,4,1,1,60,0,0
8673,-100,4,2,1,50,0,0
9127,-100,4,1,1,60,0,0
9582,-100,4,1,1,65,0,0
9809,-100,4,1,1,60,0,0
10491,-100,4,1,1,65,0,0
10718,-100,4,1,1,60,0,0
11400,-100,4,1,1,65,0,0
11627,-100,4,1,1,60,0,0
12309,-100,4,1,1,65,0,0
12537,-100,4,1,1,60,0,0
12764,-100,4,1,1,65,0,0
13673,-100,4,1,1,70,0,0
15946,-100,4,2,1,50,0,0
16400,-100,4,1,1,70,0,0
16855,-100,4,1,1,65,0,0
17082,-100,4,1,1,70,0,0
17764,-100,4,1,1,65,0,0
17991,-100,4,1,1,70,0,0
18673,-100,4,1,1,65,0,0
18900,-100,4,1,1,70,0,0
19582,-100,4,2,1,55,0,0
20037,-100,4,1,1,70,0,0
20491,-100,4,1,1,65,0,0
20718,-100,4,1,1,70,0,0
21400,-100,4,1,1,65,0,0
21627,-100,4,1,1,70,0,0
22309,-100,4,1,1,65,0,0
22537,-100,4,1,1,70,0,0
23218,-100,4,2,1,55,0,0
23673,-100,4,1,1,70,0,0
24127,-100,4,1,1,65,0,0
24355,-100,4,1,1,70,0,0
25037,-100,4,1,1,65,0,0
25264,-100,4,1,1,70,0,0
25946,-100,4,1,1,65,0,0
26173,-100,4,1,1,70,0,0
26855,-100,4,1,1,65,0,0
27082,-100,4,1,1,70,0,0
29127,-100,4,1,1,55,0,0
30491,-100,4,2,1,50,0,0
30946,-100,4,1,1,55,0,0
31173,-100,4,1,1,65,0,0
31400,-100,4,1,1,60,0,0
31627,-100,4,1,1,65,0,0
32309,-100,4,1,1,60,0,0
32537,-100,4,1,1,65,0,0
33218,-100,4,1,1,60,0,0
33446,-100,4,1,1,65,0,0
34127,-100,4,1,1,60,0,0
34355,-100,4,1,1,65,0,0
35037,-100,4,1,1,60,0,0
35264,-100,4,1,1,65,0,0
35946,-100,4,1,1,60,0,0
36173,-100,4,1,1,65,0,0
36855,-100,4,1,1,60,0,0
37082,-100,4,1,1,65,0,0
37764,-100,4,2,1,50,0,0
38218,-100,4,1,1,55,0,0
38446,-100,4,1,1,65,0,0
38673,-100,4,1,1,60,0,0
38900,-100,4,1,1,65,0,0
39582,-100,4,1,1,60,0,0
39809,-100,4,1,1,65,0,0
40377,-100,4,1,1,60,0,0
40491,-100,4,1,1,65,0,0
41287,-100,4,1,1,60,0,0
41400,-100,4,1,1,65,0,0
42309,-100,4,1,1,60,0,0
42537,-100,4,1,1,65,0,0
43218,-100,4,1,1,60,0,0
43446,-100,4,1,1,65,0,0
43673,-100,4,2,1,50,0,0
45491,-100,4,1,1,50,0,0
45718,-100,4,1,1,70,0,0
46855,-100,4,1,1,60,0,0
47082,-100,4,1,1,70,0,0
47764,-100,4,1,1,60,0,0
47991,-100,4,1,1,70,0,0
48673,-100,4,1,1,60,0,0
48900,-100,4,1,1,70,0,0
50491,-100,4,1,1,60,0,0
50718,-100,4,1,1,70,0,0
51400,-100,4,1,1,60,0,0
51627,-100,4,1,1,70,0,0
52309,-100,4,1,1,60,0,0
52537,-100,4,1,1,70,0,0
52764,-100,4,1,1,50,0,0
52991,-100,4,1,1,70,0,0
54127,-100,4,1,1,60,0,0
54355,-100,4,1,1,70,0,0
54582,-100,4,1,1,50,0,0
54809,-100,4,1,1,70,0,0
55946,-100,4,1,1,60,0,0
56173,-100,4,1,1,70,0,0
56400,-100,4,1,1,5,0,0
58218,-100,4,1,1,50,0,0
58446,-100,4,1,1,70,0,0
59127,-100,4,2,1,45,0,0
60037,-100,4,1,1,60,0,1
60264,-100,4,1,1,80,0,1
60491,-100,4,1,1,70,0,1
60718,-100,4,1,1,80,0,1
61400,-100,4,1,1,70,0,1
61627,-100,4,1,1,80,0,1
61855,-100,4,1,1,60,0,1
62082,-100,4,1,1,80,0,1
62309,-100,4,1,1,70,0,1
62537,-100,4,1,1,80,0,1
62764,-100,4,1,1,60,0,1
62991,-100,4,1,1,80,0,1
63218,-100,4,1,1,70,0,1
63446,-100,4,1,1,80,0,1
63673,-100,4,1,1,60,0,1
63900,-100,4,1,1,80,0,1
64127,-100,4,1,1,60,0,1
64355,-100,4,1,1,80,0,1
64582,-100,4,1,1,60,0,1
64809,-100,4,1,1,80,0,1
65491,-100,4,1,1,60,0,1
65718,-100,4,1,1,80,0,1
65946,-100,4,1,1,60,0,1
66173,-100,4,1,1,80,0,1
66400,-100,4,1,1,60,0,1
66627,-100,4,1,1,80,0,1
66855,-100,4,1,1,60,0,1
67082,-100,4,1,1,80,0,1
67309,-100,4,1,1,60,0,1
67537,-100,4,1,1,80,0,1
68673,-100,4,1,1,70,0,1
68900,-100,4,1,1,80,0,1
69127,-100,4,1,1,60,0,1
69355,-100,4,1,1,80,0,1
69582,-100,4,1,1,60,0,1
70037,-100,4,1,1,80,0,1
70491,-100,4,1,1,70,0,1
70718,-100,4,1,1,80,0,1
70946,-100,4,1,1,60,0,1
71855,-100,4,1,1,80,0,1
72764,-100,4,1,1,60,0,1
73218,-100,4,1,1,70,0,1
73446,-100,4,1,1,80,0,1
74127,-100,4,1,1,70,0,1
74355,-100,4,1,1,60,0,1
74809,-100,4,1,1,80,0,1
75037,-100,4,1,1,70,0,1
75264,-100,4,1,1,80,0,1
75946,-100,4,1,1,70,0,1
76173,-100,4,1,1,80,0,1
76400,-100,4,1,1,60,0,1
76627,-100,4,1,1,70,0,1
77309,-100,4,1,1,60,0,1
78218,-100,4,1,1,80,0,1
78673,-100,4,1,1,60,0,1
78900,-100,4,1,1,80,0,1
79127,-100,4,1,1,60,0,1
79355,-100,4,1,1,70,0,1
80037,-100,4,1,1,60,0,1
80718,-100,4,1,1,80,0,1
81400,-100,4,1,1,70,0,1
81627,-100,4,1,1,80,0,1
81855,-100,4,1,1,60,0,1
82764,-100,4,1,1,80,0,1
83218,-100,4,1,1,70,0,1
83446,-100,4,1,1,60,0,1
85037,-100,4,1,1,70,0,1
85264,-100,4,1,1,60,0,1
86855,-100,4,1,1,70,0,1
87082,-100,4,1,1,80,0,1
87309,-100,4,1,1,5,0,0
88673,-100,4,1,1,60,0,0
89355,-100,4,1,1,70,0,0
90491,-100,4,1,1,60,0,0
90718,-100,4,1,1,70,0,0
92309,-100,4,2,1,50,0,0
92764,-100,4,1,1,70,0,0
94127,-100,4,1,1,60,0,0
94355,-100,4,1,1,70,0,0
95946,-100,4,2,1,50,0,0
96400,-100,4,1,1,70,0,0
96855,-100,4,1,1,60,0,0
97082,-100,4,1,1,70,0,0
97764,-100,4,1,1,60,0,0
97991,-100,4,1,1,70,0,0
98673,-100,4,1,1,60,0,0
98900,-100,4,1,1,70,0,0
99582,-100,4,2,1,50,0,0
100037,-100,4,1,1,70,0,0
100491,-100,4,1,1,60,0,0
100718,-100,4,1,1,70,0,0
101400,-100,4,1,1,60,0,0
101627,-100,4,1,1,70,0,0
101855,-100,4,1,1,75,0,0
102991,-100,4,1,1,60,0,0
103218,-100,4,1,1,50,0,0
103446,-100,4,1,1,40,0,0
103673,-100,4,1,1,30,0,0

[Colours]
Combo1 : 245,109,215
Combo2 : 74,251,242
Combo3 : 175,169,152
Combo4 : 1,162,239
SliderBorder : 255,255,255

[HitObjects]
188,96,1855,2,0,B|264:124|356:84,1,140,4|8
404,180,2764,1,0
508,220,3218,1,8
416,284,3673,6,0,B|328:256|248:296,2,140,0|8|0
432,172,5037,2,0,B|384:120,1,70,8|8
432,88,5491,6,0,B|352:88|352:88|276:64,2,140,0|8|0
348,160,6855,1,8
264,232,7309,6,0,B|344:232|344:232|420:256,2,140,0|8|0
200,324,8673,2,0,B|140:256,1,70,8|8
104,244,9127,6,0,B|116:200|95:146,2,70,2|0|8
172,156,10037,2,0,B|172:72,2,70,2|0|8
256,228,10946,6,0,B|244:272|265:326,2,70,2|0|8
340,156,11855,2,0,B|340:76,2,70,2|0|8
364,208,12537,1,0
388,260,12764,6,0,B|492:260,2,105
352,304,13673,2,0,B|220:304,2,105
388,348,14582,5,2
120,76,15946,2,0,B|120:164,1,70,8|8
104,200,16400,6,0,B|180:180|256:204,1,140,4|8
200,304,17309,1,0
256,320,17537,1,0
312,304,17764,1,8
416,260,18218,6,0,B|472:124,1,140,0|8
360,160,19127,2,0,B|396:68,2,70,0|0|8
304,172,19809,1,8
248,184,20037,6,0,B|268:260|244:336,1,140,0|8
156,260,20946,1,0
100,272,21173,1,0
44,284,21400,1,8
40,172,21855,6,0,B|104:152|104:152|104:68,1,140,0|8
200,24,22764,2,0,B|200:116,2,70,0|0|8
256,32,23446,1,8
312,24,23673,6,0,B|357:81|357:81|356:152,1,140,0|8
288,240,24582,2,0,B|364:220|440:244,1,140,0|8
368,336,25491,6,0,B|292:356|216:332,1,140,0|8
116,328,26400,2,0,B|161:270|161:270|160:200,1,140,0|8
112,104,27309,6,0,B|52:220,2,105
164,84,28218,2,0,B|216:104|288:80,2,105
164,84,29127,5,4
428,292,30491,2,0,B|428:196,1,70,8|8
376,204,30946,6,0,B|444:176|444:176|472:96,1,140,4|8
364,64,31855,1,0
256,96,32309,1,8
148,64,32764,5,0
46,113,33218,2,0,B|68:176|68:176|136:204,1,140,8|0
32,248,34127,2,0,B|112:280,1,70,8|0
88,328,34582,6,0,B|152:296|240:334,1,140,0|8
188,220,35491,2,0,B|256:256|340:214,1,140,0|8
344,112,36400,5,0
256,44,36855,1,8
168,112,37309,1,0
256,184,37764,2,0,B|256:272,1,70,8|8
256,308,38218,6,0,B|316:308|316:308|348:268|416:268,1,140,4|8
416,164,39127,2,0,B|356:164|356:164|324:204|256:204,1,140,0|8
304,92,40036,6,0,B|256:112|256:112|180:80,2,105,0|8|0
356,68,40946,2,0,B|464:68,2,105,0|8|0
356,68,41855,5,0
392,172,42309,2,0,B|244:248|104:160,1,280,8|8
100,280,43673,6,0,B|196:328,2,105,4|0|0
100,280,44582,1,0
120,56,45491,6,0,B|264:128|416:44,1,280,4|0
444,156,46855,1,8
336,188,47309,5,0
396,284,47764,1,8
436,324,47991,2,0,B|506:324,2,70
436,324,48673,1,8
324,340,49127,6,0,B|168:268|28:352,1,280
36,228,50491,1,8
32,116,50946,5,0
140,144,51400,1,8
192,128,51627,2,0,B|164:48,2,70
248,128,52309,1,8
352,80,52764,6,0,B|360:144|432:192|432:192|360:236|344:324,1,280,4|0
256,236,54127,1,8
164,300,54582,6,0,B|156:236|84:188|84:188|156:144|172:56,1,280,4|0
256,148,55946,1,8
256,192,56400,12,2,58218
256,192,59127,5,0
256,192,59582,1,2
188,280,60036,6,0,B|264:320|344:268,1,140,4|8
428,240,60946,2,0,B|464:324,2,70,0|0|8
448,128,61855,5,4
384,36,62309,1,8
276,72,62764,1,4
168,36,63218,1,8
92,120,63673,6,0,B|16:132,3,70,4|0|0|0
16,188,64582,2,0,B|80:264|80:264|80:376,1,210,4|0
128,344,65491,5,4
200,260,65946,1,12
312,260,66400,1,4
384,344,66855,1,12
312,260,67309,6,0,B|256:132|256:132|196:268,1,280,4|0
88,252,68673,1,8
140,152,69127,6,0,B|180:60,2,70,4|0|4
116,204,69809,1,0
228,236,70264,1,0
280,248,70491,1,8
328,148,70946,5,4
412,220,71400,1,12
336,304,71855,2,0,B|448:304,2,105
292,336,72764,6,4,B|192:336,1,70
176,308,73218,2,0,B|148:276|104:272,1,70
84,320,73673,1,0
140,224,74127,1,8
220,144,74582,6,0,B|292:112|368:152,2,140,4|8|0
220,144,75946,1,8
288,232,76400,6,0,B|216:264|140:224,2,140,4|8|4
256,340,77764,1,12
364,312,78218,5,0
472,336,78673,1,12
440,232,79127,2,0,B|472:160|432:80,1,140,4|8
328,76,80036,6,0,B|468:20,2,140,4|12|0
228,128,81400,1,8
300,212,81855,6,0,B|360:240|360:240|400:280,2,105,4|4|4
256,52,83218,1,8
164,116,83673,6,0,B|224:144|224:144|264:184,2,105,4|4|4
52,240,85036,1,8
136,168,85491,5,4
232,224,85946,1,12
212,332,86400,1,4
100,340,86855,1,8
100,340,87082,1,0
256,192,87309,12,8,88673
120,92,89127,6,0,B|256:148|404:88,1,280,4|0
440,192,90491,1,8
392,292,90946,6,0,B|256:236|108:296,1,280
64,192,92309,1,8
104,152,92537,1,8
124,100,92764,6,0,B|200:100|200:100|256:64|316:100|316:100|400:100,1,280
320,180,94127,1,8
397,260,94582,6,0,B|321:260|321:260|264:300|205:260|205:260|121:260,1,280
36,192,95946,2,0,B|88:128,1,70,8|8
80,80,96400,6,0,B|148:100|148:100|236:72,2,140,0|8|0
116,188,97764,1,8
152,296,98218,6,0,B|84:276|84:276|-4:304,2,140,0|8|0
256,256,99582,1,8
256,256,99809,1,8
256,256,100037,5,0
348,192,100491,2,0,B|496:192,2,140,8|0|8
256,128,101855,5,4
144,120,102309,1,4
32,112,102764,1,4
32,112,103218,2,0,B|56:204,2,70,0|8|0
