osu file format v9

[General]
AudioFilename: _ - Baby Maniacs __+PV.mp3
AudioLeadIn: 700
PreviewTime: 59002
Countdown: 0
SampleSet: Soft
StackLeniency: 0.7
Mode: 0
LetterboxInBreaks: 0

[Editor]
Bookmarks: 45479,103661
DistanceSpacing: 1.3
BeatDivisor: 4
GridSize: 4

[Metadata]
Title:Baby Maniacs (Short Ver.)
Artist:Hatsune Miku
Creator:TakamuraRin
Version:Insane
Source:HachiojiP
Tags:8#Prince Vocaloid q*Left Wakamura-P

[Difficulty]
HPDrainRate:8
CircleSize:4
OverallDifficulty:7
ApproachRate:9
SliderMultiplier:1.9
SliderTickRate:1

[Events]
//Background and Video events
0,0,"305911.jpg"
//Break Periods
//Storyboard Layer 0 (Background)
//Storyboard Layer 1 (Fail)
//Storyboard Layer 2 (Pass)
//Storyboard Layer 3 (Foreground)
//Storyboard Sound Samples
//Background Colour Transformations
3,100,235,235,235

[TimingPoints]
37,454.545454545455,4,2,1,30,1,0
2309,-100,4,1,1,45,0,0
2423,-100,4,1,1,30,0,0
3218,-100,4,1,1,45,0,0
3332,-100,4,1,1,30,0,0
4127,-100,4,1,1,45,0,0
4241,-100,4,1,1,30,0,0
5037,-100,4,2,1,45,0,0
5150,-100,4,2,1,40,0,0
5377,-100,4,2,1,45,0,0
5491,-100,4,1,1,30,0,0
5946,-100,4,1,1,45,0,0
6059,-100,4,1,1,30,0,0
6855,-100,4,1,1,45,0,0
6968,-100,4,1,1,30,0,0
7764,-100,4,1,1,45,0,0
7877,-100,4,1,1,30,0,0
8673,-100,4,2,1,45,0,0
8787,-100,4,2,1,40,0,0
9014,-100,4,2,1,45,0,0
9127,-100,4,1,1,40,0,0
9241,-100,4,1,1,50,0,0
9582,-100,4,1,1,55,0,0
9696,-100,4,1,1,50,0,0
10037,-100,4,1,1,60,0,0
10491,-100,4,1,1,65,0,0
10605,-100,4,1,1,60,0,0
10946,-100,4,1,1,70,0,0
11400,-100,4,1,1,75,0,0
11627,-100,4,1,1,80,0,0
12309,-100,4,1,1,85,0,0
15946,-100,4,2,1,45,0,0
16059,-100,4,2,1,40,0,0
16173,-100,4,2,1,45,0,0
16287,-100,4,2,1,40,0,0
16400,-100,4,1,1,70,0,0
16855,-100,4,1,1,65,0,0
16968,-100,4,1,1,70,0,0
17764,-100,4,1,1,65,0,0
17877,-100,4,1,1,70,0,0
18673,-100,4,1,1,65,0,0
18787,-100,4,1,1,70,0,0
19582,-100,4,2,1,55,0,0
19696,-100,4,2,1,50,0,0
19923,-100,4,2,1,55,0,0
20037,-100,4,1,1,70,0,0
20491,-100,4,1,1,65,0,0
20605,-100,4,1,1,70,0,0
21400,-100,4,1,1,65,0,0
21514,-100,4,1,1,70,0,0
22309,-100,4,1,1,65,0,0
22423,-100,4,1,1,70,0,0
23218,-100,4,2,1,55,0,0
23332,-100,4,2,1,50,0,0
23559,-100,4,2,1,55,0,0
23673,-100,4,1,1,70,0,0
24127,-100,4,1,1,65,0,0
24241,-100,4,1,1,70,0,0
25037,-100,4,1,1,65,0,0
25150,-100,4,1,1,70,0,0
25946,-100,4,1,1,65,0,0
26059,-100,4,1,1,70,0,0
26855,-100,4,1,1,65,0,0
26968,-100,4,1,1,70,0,0
29127,-100,4,1,1,55,0,0
30491,-100,4,2,1,55,0,0
30605,-100,4,2,1,50,0,0
30832,-100,4,2,1,55,0,0
30946,-100,4,1,1,40,0,0
31059,-100,4,1,1,65,0,0
31400,-100,4,1,1,55,0,0
31514,-100,4,1,1,65,0,0
34582,-100,4,1,1,48,0,0
34696,-100,4,1,1,65,0,0
35037,-100,4,1,1,55,0,0
35150,-100,4,1,1,65,0,0
35946,-100,4,1,1,55,0,0
36059,-100,4,1,1,65,0,0
36855,-100,4,1,1,55,0,0
36968,-100,4,1,1,65,0,0
37764,-100,4,2,1,55,0,0
37877,-100,4,2,1,50,0,0
38105,-100,4,2,1,55,0,0
38218,-100,4,1,1,48,0,0
38332,-100,4,1,1,65,0,0
38673,-100,4,1,1,55,0,0
38787,-100,4,1,1,65,0,0
40491,-100,4,1,1,55,0,0
40605,-100,4,1,1,65,0,0
40718,-100,4,2,1,65,0,0
40832,-100,4,1,1,65,0,0
41287,-100,4,1,1,55,0,0
41400,-100,4,1,1,65,0,0
41514,-100,4,2,1,65,0,0
41627,-100,4,1,1,65,0,0
42309,-100,4,1,1,55,0,0
42423,-100,4,1,1,65,0,0
42650,-100,4,1,1,55,0,0
42764,-100,4,1,1,65,0,0
42877,-100,4,1,1,55,0,0
42991,-100,4,1,1,65,0,0
43218,-100,4,1,1,55,0,0
43332,-100,4,1,1,65,0,0
43673,-100,4,2,1,40,0,0
43900,-100,4,2,1,37,0,0
44127,-100,4,2,1,35,0,0
44355,-100,4,2,1,32,0,0
44468,-100,4,2,1,31,0,0
45264,-100,4,2,1,40,0,0
45491,-100,4,1,1,50,0,0
45605,-100,4,1,1,70,0,0
45946,-100,4,1,1,60,0,0
46059,-100,4,1,1,70,0,0
46855,-100,4,1,1,60,0,0
46968,-100,4,1,1,70,0,0
47991,-100,4,2,1,50,0,0
48105,-100,4,2,1,55,0,0
48218,-100,4,2,1,50,0,0
48559,-100,4,1,1,60,0,0
48787,-100,4,1,1,70,0,0
49468,-100,4,1,1,60,0,0
49582,-100,4,1,1,70,0,0
50377,-100,4,1,1,60,0,0
50491,-100,4,1,1,70,0,0
51400,-100,4,1,1,60,0,0
51514,-100,4,1,1,70,0,0
51627,-100,4,2,1,50,0,0
51855,-100,4,2,1,55,0,0
51968,-100,4,2,1,50,0,0
52309,-100,4,1,1,60,0,0
52423,-100,4,1,1,70,0,0
52764,-100,4,1,1,45,0,0
52877,-100,4,1,1,60,0,0
53105,-100,4,1,1,50,0,0
53218,-100,4,1,1,60,0,0
54127,-100,4,1,1,50,0,0
54241,-100,4,1,1,60,0,0
54582,-100,4,1,1,45,0,0
54696,-100,4,1,1,60,0,0
54923,-100,4,1,1,50,0,0
55037,-100,4,1,1,60,0,0
55946,-100,4,1,1,50,0,0
56059,-100,4,1,1,60,0,0
56173,-100,4,1,1,50,0,0
56287,-100,4,1,1,60,0,0
56400,-100,4,1,1,45,0,0
59127,-100,4,2,1,30,0,0
60037,-100,4,1,1,60,0,1
60150,-100,4,1,1,80,0,1
60491,-100,4,1,1,70,0,1
60605,-100,4,1,1,80,0,1
61400,-100,4,1,1,70,0,1
61514,-100,4,1,1,80,0,1
61855,-100,4,1,1,60,0,1
61968,-100,4,1,1,80,0,1
62196,-100,4,1,1,60,0,1
62309,-100,4,1,1,80,0,1
62537,-100,4,1,1,60,0,1
62650,-100,4,1,1,80,0,1
63218,-100,4,1,1,70,0,1
63332,-100,4,1,1,80,0,1
63673,-100,4,1,1,60,0,1
63787,-100,4,1,1,80,0,1
64127,-100,4,1,1,60,0,1
64241,-100,4,1,1,80,0,1
64582,-100,4,1,1,60,0,1
64696,-100,4,1,1,80,0,1
64923,-100,4,1,1,60,0,1
65037,-100,4,1,1,80,0,1
65264,-100,4,1,1,60,0,1
65377,-100,4,1,1,80,0,1
65491,-100,4,1,1,60,0,1
65605,-100,4,1,1,80,0,1
65946,-100,4,1,1,70,0,1
66059,-100,4,1,1,80,0,1
66400,-100,4,1,1,60,0,1
66514,-100,4,1,1,80,0,1
66855,-100,4,1,1,60,0,1
66968,-100,4,1,1,80,0,1
67309,-100,4,1,1,60,0,1
67423,-100,4,1,1,80,0,1
67764,-100,4,1,1,60,0,1
67877,-100,4,1,1,80,0,1
68105,-100,4,1,1,60,0,1
68218,-100,4,1,1,80,0,1
68673,-100,4,1,1,70,0,1
68787,-100,4,1,1,80,0,1
69127,-100,4,1,1,60,0,1
69241,-100,4,1,1,80,0,1
69468,-100,4,1,1,60,0,1
69582,-100,4,1,1,80,0,1
69809,-100,4,1,1,60,0,1
69923,-100,4,1,1,80,0,1
70491,-100,4,1,1,70,0,1
70605,-100,4,1,1,80,0,1
70946,-100,4,1,1,60,0,1
71059,-100,4,1,1,80,0,1
71400,-100,4,1,1,60,0,1
71514,-100,4,1,1,80,0,1
71855,-100,4,1,1,60,0,1
72196,-100,4,2,1,30,0,1
72764,-100,4,1,1,35,0,1
72877,-100,4,1,1,40,0,1
72991,-100,4,1,1,45,0,1
73105,-100,4,1,1,50,0,1
73218,-100,4,1,1,55,0,1
73332,-100,4,1,1,60,0,1
73446,-100,4,1,1,65,0,1
73559,-100,4,1,1,70,0,1
73673,-100,4,1,1,60,0,1
73787,-100,4,1,1,80,0,1
74127,-100,4,1,1,60,0,1
74241,-100,4,1,1,80,0,1
74582,-100,4,1,1,60,0,1
74696,-100,4,1,1,80,0,1
74923,-100,4,1,1,60,0,1
75037,-100,4,1,1,80,0,1
75264,-100,4,1,1,60,0,1
75377,-100,4,1,1,80,0,1
75946,-100,4,1,1,70,0,1
76059,-100,4,1,1,80,0,1
76400,-100,4,1,1,60,0,1
76514,-100,4,1,1,80,0,1
76741,-100,4,1,1,60,0,1
76855,-100,4,1,1,70,0,1
76968,-100,4,1,1,80,0,1
77082,-100,4,1,1,60,0,1
77196,-100,4,1,1,80,0,1
77537,-100,4,1,1,60,0,1
77650,-100,4,1,1,80,0,1
77764,-100,4,1,1,70,0,1
77877,-100,4,1,1,80,0,1
78218,-100,4,1,1,60,0,1
78332,-100,4,1,1,80,0,1
78673,-100,4,1,1,60,0,1
78787,-100,4,1,1,80,0,1
79127,-100,4,1,1,60,0,1
79241,-100,4,1,1,80,0,1
79468,-100,4,1,1,60,0,1
79582,-100,4,1,1,80,0,1
79809,-100,4,1,1,60,0,1
79923,-100,4,1,1,80,0,1
80037,-100,4,1,1,60,0,1
80150,-100,4,1,1,80,0,1
80491,-100,4,1,1,60,0,1
80605,-100,4,1,1,80,0,1
80946,-100,4,1,1,30,0,1
81059,-100,4,1,1,80,0,1
81400,-100,4,1,1,30,0,1
81514,-100,4,1,1,80,0,1
81855,-100,4,1,1,60,0,1
81968,-100,4,1,1,80,0,1
82196,-100,4,1,1,60,0,1
82309,-100,4,1,1,80,0,1
82537,-100,4,1,1,60,0,1
82650,-100,4,1,1,80,0,1
83218,-100,4,1,1,70,0,1
83332,-100,4,1,1,80,0,1
83673,-100,4,1,1,60,0,1
83787,-100,4,1,1,80,0,1
84014,-100,4,1,1,60,0,1
84127,-100,4,1,1,70,0,1
84127,-100,4,1,1,80,0,1
84241,-100,4,1,1,80,0,1
84355,-100,4,1,1,60,0,1
84468,-100,4,1,1,80,0,1
85037,-100,4,1,1,70,0,1
85150,-100,4,1,1,80,0,1
85491,-100,4,1,1,60,0,1
85605,-100,4,1,1,80,0,1
85946,-100,4,1,1,60,0,1
86059,-100,4,1,1,80,0,1
86400,-100,4,1,1,60,0,1
86514,-100,4,1,1,80,0,1
86855,-100,4,1,1,70,0,1
86968,-100,4,1,1,80,0,1
87082,-100,4,1,1,60,0,1
87196,-100,4,1,1,80,0,1
87309,-100,4,1,1,60,0,0
87423,-100,4,1,1,80,0,0
88559,-100,4,2,1,50,0,0
88673,-100,4,2,1,55,0,0
88787,-100,4,2,1,50,0,0
88900,-100,4,2,1,55,0,0
89127,-100,4,1,1,60,0,0
89582,-100,4,1,1,70,0,0
89696,-100,4,1,1,60,0,0
90264,-100,4,1,1,70,0,0
90377,-100,4,1,1,60,0,0
90491,-100,4,1,1,70,0,0
90605,-100,4,1,1,60,0,0
91400,-100,4,1,1,70,0,0
91514,-100,4,1,1,60,0,0
92309,-100,4,2,1,55,0,0
92423,-100,4,2,1,50,0,0
92650,-100,4,2,1,55,0,0
92764,-100,4,1,1,60,0,0
93218,-100,4,1,1,70,0,0
93332,-100,4,1,1,60,0,0
94127,-100,4,1,1,70,0,0
94241,-100,4,1,1,60,0,0
95037,-100,4,1,1,70,0,0
95150,-100,4,1,1,60,0,0
95946,-100,4,2,1,55,0,0
96059,-100,4,2,1,50,0,0
96400,-100,4,2,1,55,0,0
96514,-100,4,1,1,50,0,0
96855,-100,4,1,1,70,0,0
96968,-100,4,1,1,60,0,0
97537,-100,4,1,1,70,0,0
97650,-100,4,1,1,60,0,0
97764,-100,4,1,1,70,0,0
97877,-100,4,1,1,60,0,0
98673,-100,4,1,1,70,0,0
98787,-100,4,1,1,60,0,0
99582,-100,4,2,1,55,0,0
99696,-100,4,2,1,50,0,0
99923,-100,4,2,1,55,0,0
100037,-100,4,1,1,60,0,0
100491,-100,4,1,1,70,0,0
100605,-100,4,1,1,60,0,0
101400,-100,4,1,1,70,0,0
101514,-100,4,1,1,60,0,0
101855,-100,4,1,1,75,0,0
101968,-100,4,1,1,60,0,0
102309,-100,4,1,1,75,0,0
102423,-100,4,1,1,60,0,0
102764,-100,4,1,1,75,0,0
102877,-100,4,1,1,60,0,0
103218,-100,4,2,1,50,0,0
103332,-100,4,2,1,45,0,0
103446,-100,4,2,1,40,0,0
103559,-100,4,2,1,35,0,0
103673,-100,4,2,1,30,0,0

[Colours]
Combo1 : 245,109,215
Combo2 : 74,251,242
Combo3 : 175,169,152
Combo4 : 1,162,239
SliderBorder : 255,255,255

[HitObjects]
112,188,1855,2,0,B|104:240|48:256,2,95,4|0|8
208,96,2537,1,0
208,96,2650,2,0,B|266:123|337:78,1,95
368,80,2991,1,0
440,192,3218,2,0,B|388:224|384:304,1,95,8|0
324,248,3559,1,0
336,316,3673,6,0,B|208:316,1,95,0|0
176,200,4127,2,0,B|304:200,1,95,8|0
336,84,4582,2,0,B|208:84,1,95
116,36,5037,1,8
116,104,5150,1,0
52,132,5264,1,0
52,200,5377,1,8
48,268,5491,5,0
48,268,5605,2,0,B|108:280|116:344,1,95
180,312,5946,2,0,B|238:202,1,95,8|0
287,227,6287,2,0,B|332:312,1,95,0|0
400,328,6627,2,0,B|460:320|468:252,1,95,0|8
480,136,7082,1,0
388,40,7309,6,0,B|272:40,1,95
208,140,7764,2,0,B|324:140,1,95,8|0
220,244,8218,2,0,B|125:244,1,95
176,368,8673,1,8
224,320,8787,1,0
288,320,8900,1,0
336,368,9014,1,8
336,368,9127,6,0,B|448:368,2,95,4|0|8
360,240,9809,1,0
371,228,9923,1,0
382,217,10037,2,0,B|396:168|449:149,2,95,0|0|8
332,96,10718,1,0
316,96,10832,1,0
300,96,10946,6,0,B|172:96,2,95,0|0|8
152,240,11627,1,0
141,228,11741,5,0
130,217,11855,2,0,B|116:168|62:149,2,95,0|0|8
256,292,12537,2,0,B|288:308,2,23.75
252,272,12764,5,0
249,252,12877,1,0
246,232,12991,1,0
240,215,13105,1,0
235,198,13218,1,0
223,181,13332,1,0
212,164,13446,1,0
198,150,13559,1,0
181,139,13673,1,0
164,127,13787,1,0
147,122,13900,1,0
133,119,14014,1,0
113,116,14127,1,0
93,113,14241,1,0
76,113,14355,1,0
56,112,14468,6,0,B|32:64,1,47.5,0|2
44,192,15946,6,0,B|100:212|172:180,1,95,8|8
176,248,16287,1,8
208,308,16400,6,0,B|344:308,1,95,4|0
336,248,16741,1,0
374,193,16855,2,0,B|422:207|470:193,1,95,8|0
448,128,17196,2,0,B|356:96,1,95
312,48,17537,1,0
256,84,17650,1,0
200,48,17764,2,8,B|148:72|88:40,1,95,8|0
132,180,18218,5,0
132,180,18332,2,0,B|112:232|47:253,1,95
66,245,18673,1,8
184,284,18900,1,0
184,284,19014,2,0,B|104:352,2,95
168,224,19582,1,8
232,200,19696,1,0
256,136,19809,1,0
256,136,19923,1,8
272,136,20037,5,0
288,136,20150,2,0,B|416:136,1,95
428,88,20491,2,0,B|409:132|429:180,1,95,8|0
476,228,20832,2,0,B|352:228,1,95,0|0
428,276,21173,1,0
372,312,21287,1,0
312,344,21400,2,0,B|407:344,1,95,8|0
272,344,21855,5,0
256,344,21968,2,0,B|120:344,1,95
96,352,22309,2,0,B|128:296|76:224,1,95,8|0
48,212,22650,1,0
80,84,22877,1,0
112,144,22991,1,0
192,248,23218,1,8
256,272,23332,2,0,B|256:208,2,47.5,0|0|8
320,248,23673,5,0
320,248,23787,2,0,B|352:284|352:284|432:284,1,95
384,212,24127,2,0,B|352:176|352:176|272:176,1,95,8|0
344,28,24582,1,0
332,104,24696,1,0
180,104,24923,1,0
168,28,25037,1,8
206,176,25264,1,0
206,176,25377,1,0
206,176,25491,5,0
206,176,25605,2,0,B|160:176|160:176|128:212,1,95
113,284,25946,2,0,B|160:284|160:284|192:248,1,95,8|0
256,292,26287,2,0,B|256:348,4,47.5
312,344,26855,2,0,B|360:328|410:345,1,95,8|0
480,324,27196,1,0
424,272,27309,6,0,B|472:256,2,47.5,0|0|0
416,196,27650,2,0,B|464:180,2,47.5
408,120,27991,2,0,B|456:104,2,47.5
396,44,28332,2,0,B|444:28,2,47.5
344,100,28673,1,0
295,41,28787,1,0
219,40,28900,1,0
168,100,29014,1,0
168,100,29127,5,6
64,336,30037,6,0,B|28:356,3,23.75
156,192,30491,1,8
200,228,30605,1,0
256,236,30718,1,0
312,228,30832,1,8
356,192,30946,6,0,B|456:192,1,95,4|0
384,284,31400,2,0,B|268:284,1,95,8|0
180,248,31855,2,0,B|109:328,1,95
76,356,32196,2,0,B|76:240,1,95
28,232,32537,1,0
76,200,32650,1,0
128,176,32764,6,0,B|176:200|234:169,1,95,0|0
256,132,33105,1,0
364,100,33332,1,0
472,132,33559,2,0,B|376:192,1,95
436,212,33900,2,0,B|387:231|370:279,1,95,0|8
388,328,34241,1,0
388,328,34355,1,0
388,328,34468,1,0
336,332,34582,6,0,B|200:332,1,95,4|0
212,284,34923,1,0
188,232,35037,2,0,B|80:232,1,95,8|0
36,132,35491,1,0
36,132,35605,2,0,B|84:112|101:64,1,95
152,72,35946,1,8
200,96,36059,1,0
256,104,36173,1,0
312,96,36286,1,0
360,72,36400,6,0,B|456:96,1,95
492,204,36855,2,0,B|392:180,1,95,8|0
384,248,37196,2,0,B|460:266|460:266|424:300|420:352,1,142.5
324,268,37764,5,8
256,200,37877,1,0
188,268,37991,1,8
256,335,38105,1,8
256,335,38218,6,0,B|116:336,1,95,4|0
116,232,38673,2,0,B|112:284|64:312,1,95,8|0
8,212,39127,2,0,B|12:160|60:132,1,95
12,96,39468,2,0,B|152:96,1,95
148,56,39809,1,0
188,96,39923,1,0
228,140,40036,6,0,B|164:188|164:188|132:240,1,142.5
120,260,40491,1,8
108,280,40605,1,0
96,296,40718,1,8
208,264,40946,2,0,B|264:292|328:248,1,95
316,260,41286,1,8
332,256,41400,1,0
348,252,41514,2,0,B|460:224,1,95,8|0
448,236,41855,6,0,B|420:188|456:136,1,95
436,92,42196,1,0
436,92,42309,5,8
404,24,42423,1,0
404,24,42536,1,0
328,12,42650,1,8
328,12,42764,1,0
256,40,42877,1,8
256,40,42991,1,0
216,104,43105,1,0
216,104,43218,2,0,B|104:104,1,95,8|0
92,172,43559,1,0
44,232,43673,5,2
44,232,43900,1,0
44,232,44127,1,10
44,232,44355,1,0
44,232,44468,1,0
440,192,45264,1,0
468,80,45491,6,0,B|412:104|336:64,1,95,4|0
304,168,45946,2,0,B|208:168,1,95,8|0
136,80,46400,2,0,B|88:96|44:80,2,95,0|0|8
112,192,47082,1,0
136,303,47309,6,0,B|88:288|44:304,1,95
84,264,47650,2,0,B|208:264,1,95,0|0
156,212,47991,1,0
192,168,48105,1,8
224,120,48218,1,0
256,72,48332,1,0
292,28,48446,2,0,B|432:28,1,95,0|8
460,116,48900,1,0
460,228,49127,6,0,B|460:332,1,95
404,328,49468,2,0,B|328:284|256:336,1,142.5,8|0
328,228,50036,2,0,B|228:260,1,95
220,204,50377,2,0,B|192:308,1,95,8|0
176,240,50718,1,0
176,240,50832,1,0
132,276,50946,6,0,B|156:184,1,95,0|0
64,120,51400,1,8
156,52,51627,1,0
200,88,51741,1,0
256,104,51855,1,8
312,88,51968,1,0
356,52,52082,2,0,B|472:52,2,95,0|8|0
388,160,52764,5,4
344,264,52991,1,0
344,264,53105,1,8
256,192,53332,1,0
256,192,53446,1,0
256,248,53559,1,0
256,268,53673,2,0,B|256:332,3,47.5
209,340,54127,6,0,B|256:316|308:342,1,95,8|0
168,264,54582,5,4
124,160,54809,1,0
124,160,54923,1,8
256,192,55150,1,0
256,192,55264,1,0
208,88,55491,2,0,B|255:112|308:85,1,95
312,104,55832,1,0
324,116,55946,1,8
336,128,56059,1,0
348,140,56173,1,8
360,152,56286,1,0
372,164,56400,6,0,B|472:164,1,95,4|0
140,220,56855,2,0,B|40:220,1,95,4|0
372,284,57309,6,0,B|472:284,1,95,4|0
484,208,57650,1,4
332,40,57991,1,4
180,40,58218,5,4
256,196,59127,1,0
256,196,59582,1,2
256,196,60036,6,0,B|324:196|324:196|336:240|416:260,1,142.5,4|0
400,172,60491,2,0,B|400:64,1,95,8|0
332,112,60832,1,0
304,40,60946,2,0,B|256:60|209:40,1,95
172,104,61286,1,0
132,168,61400,1,8
132,168,61514,2,0,B|88:180|88:180|24:164,1,95,0|0
44,244,61855,6,0,B|108:272|176:221,1,95,4|0
148,320,62196,2,0,B|244:272,1,95,4|0
240,336,62536,2,0,B|324:293,1,95,4|0
380,304,62877,1,0
396,248,62991,2,0,B|444:228|444:228|444:164,1,95,0|8
440,108,63332,1,0
372,140,63446,1,0
256,40,63673,5,4
104,96,63900,5,0
100,248,64127,5,12
256,340,64355,5,0
376,192,64582,2,0,B|376:288,1,95,4|0
331,348,64923,2,0,B|391:324|451:364,1,95,4|0
436,272,65264,1,4
476,208,65377,1,0
476,132,65491,6,0,B|476:28,1,95,4|0
348,124,65946,2,0,B|300:100|248:128,1,95,8|0
196,80,66286,1,0
124,100,66400,1,4
52,80,66514,2,0,B|52:136,2,47.5
60,64,66855,1,12
68,48,66968,1,0
76,32,67082,2,0,B|156:32,1,47.5
140,32,67309,6,0,B|216:64|288:28,1,142.5,4|0
288,108,67764,2,0,B|404:48,1,95,4|0
448,76,68105,1,4
480,144,68218,2,0,B|500:192|476:248,1,95,0|0
416,192,68559,1,0
352,148,68673,2,0,B|332:200|356:252,1,95,8|0
328,312,69014,1,0
256,336,69127,6,0,B|132:336,1,95,4|0
96,300,69468,2,0,B|204:300,1,95,4|0
252,256,69809,2,0,B|136:256,2,95,4|0|0
312,208,70377,1,0
368,156,70491,2,0,B|484:156,1,95,8|0
452,308,70946,6,0,B|392:336|328:292,1,95,4|0
60,308,71400,2,0,B|120:336|184:292,1,95,12|0
256,196,71855,1,4
256,196,72196,1,0
256,196,72536,5,4
396,144,72764,6,0,B|414:187,2,47.5,4|0|0
384,124,73105,1,0
376,104,73218,1,12
368,84,73332,1,0
360,64,73446,2,0,B|408:64,1,47.5
352,44,73673,2,0,B|208:44,1,142.5,4|0
156,100,74127,2,0,B|108:128|63:98,1,95,12|0
36,172,74468,1,0
112,164,74582,6,0,B|112:288,1,95,4|0
152,324,74923,2,0,B|200:300|257:330,1,95,4|0
300,376,75264,2,0,B|260:304|304:232,1,142.5,4|0
224,224,75718,2,0,B|292:124,1,95,0|8
208,112,76059,1,0
140,76,76173,1,0
76,36,76286,1,0
76,36,76400,6,0,B|101:91|65:151,1,95,4|0
24,184,76741,1,4
92,220,76855,2,0,B|92:344,1,95,8|4
252,296,77309,5,0
388,192,77536,5,0
292,40,77764,5,8
104,72,77991,5,0
92,252,78218,5,4
252,192,78446,5,0
404,248,78673,5,12
264,192,78900,5,0
396,120,79127,2,0,B|492:84,1,95,4|0
484,164,79468,2,0,B|392:200,1,95,4|0
324,228,79809,1,4
252,256,79923,1,0
180,284,80036,5,4
108,312,80150,2,0,B|120:360,2,47.5
60,252,80491,1,12
64,176,80605,2,0,B|144:152,2,47.5
60,252,80946,1,4
60,252,81400,1,12
60,252,81855,6,0,B|168:252,1,95,4|0
160,328,82196,2,0,B|232:296|304:332,1,142.5,4|4
332,260,82650,2,0,B|248:232,2,47.5
352,264,82991,1,0
372,268,83105,1,0
388,272,83218,1,8
408,276,83332,2,0,B|408:168,1,95
440,112,83673,6,0,B|376:144|376:144|292:144,1,142.5,4|4
328,72,84127,2,0,B|244:72,1,47.5,8|0
228,128,84355,2,0,B|272:196|220:276,1,142.5,4|0
304,276,84809,2,0,B|332:168,2,95,0|8|0
376,296,85377,1,0
448,316,85491,6,0,B|476:208,1,95,4|0
64,316,85946,2,0,B|36:208,1,95,12|0
184,172,86400,6,0,B|256:204|328:168,1,142.5,4|0
324,248,86855,2,0,B|432:200,1,95,8|4
452,144,87196,1,0
492,80,87309,5,4
304,320,87764,2,0,B|320:344,2,23.75
108,204,88218,2,0,B|68:232,2,47.5
172,164,88559,1,0
236,124,88673,1,8
300,84,88786,1,0
364,44,88900,1,8
460,164,89127,6,0,B|324:164,1,95,4|0
384,216,89468,1,0
412,268,89582,2,0,B|304:268,1,95,8|0
304,324,89923,2,0,B|244:296|172:340,1,95
184,272,90264,1,8
160,220,90377,1,0
136,168,90491,2,0,B|20:168,1,95,8|0
96,68,90946,5,0
108,56,91059,2,0,B|156:76|212:52,1,95
248,24,91400,2,0,B|212:116,1,95,8|0
268,92,91741,1,0
320,68,91855,1,0
372,48,91968,2,0,B|476:99,1,95
464,148,92309,1,8
472,204,92423,1,0
480,260,92537,1,0
432,292,92650,1,8
440,348,92764,5,0
424,348,92877,2,0,B|324:348,1,95
272,348,93218,2,0,B|320:316|320:264,1,95,8|0
328,212,93559,2,0,B|448:240,2,95
372,176,94127,2,0,B|204:176,1,142.5,8|0
276,140,94582,5,0
324,108,94696,2,0,B|224:108,1,95
172,120,95037,2,0,B|214:100|237:54,1,95,8|0
180,56,95377,2,0,B|85:56,1,95
44,16,95718,2,0,B|64:60|44:108,1,95,0|8
96,132,96059,1,0
148,152,96173,1,0
200,172,96287,1,0
252,188,96400,5,8
304,208,96514,2,0,B|284:164|304:116,1,95
352,88,96855,2,0,B|400:72|400:72|460:96,1,95,8|0
492,116,97196,2,0,B|512:160|491:208,1,95
444,240,97537,1,8
396,268,97650,1,0
344,292,97764,2,0,B|380:356,2,47.5,8|0|0
292,316,98105,1,0
292,316,98218,6,0,B|176:316,1,95
168,268,98559,1,0
140,216,98673,2,0,B|256:216,1,95,8|0
260,164,99014,2,0,B|240:120|261:68,1,95
308,40,99355,2,0,B|440:40,1,95,0|8
428,92,99696,1,0
428,92,99809,1,0
456,140,99923,1,8
456,140,100037,5,0
484,192,100150,2,0,B|484:292,1,95,0|0
452,336,100491,2,0,B|400:320|352:340,1,95,8|0
348,280,100832,2,0,B|248:320,1,95
236,264,101173,1,0
212,212,101287,1,0
192,160,101400,2,0,B|108:140|56:212,1,142.5,8|0
24,164,101855,6,0,B|24:68,1,95,4|0
256,112,102309,2,0,B|256:16,1,95,4|0
488,164,102764,6,0,B|488:68,2,95,4|0|8
480,260,103332,1,0
416,328,103446,1,0
320,328,103559,1,8
256,260,103673,5,0
