osu file format v9

[General]
AudioFilename: _ - Baby Maniacs __+PV.mp3
AudioLeadIn: 700
PreviewTime: 59002
Countdown: 0
SampleSet: Soft
StackLeniency: 0.7
Mode: 0
LetterboxInBreaks: 0

[Editor]
Bookmarks: 45479,103661
DistanceSpacing: 1.1
BeatDivisor: 4
GridSize: 4

[Metadata]
Title:Baby Maniacs (Short Ver.)
Artist:Hatsune Miku
Creator:TakamuraRin
Version:Hard
Source:HachiojiP
Tags:8#Prince Vocaloid q*Left Wakamura-P

[Difficulty]
HPDrainRate:3
CircleSize:4
OverallDifficulty:3
ApproachRate:6
SliderMultiplier:1.6
SliderTickRate:1

[Events]
//Background and Video events
0,0,"305911.jpg"
//Break Periods
//Storyboard Layer 0 (Background)
//Storyboard Layer 1 (Fail)
//Storyboard Layer 2 (Pass)
//Storyboard Layer 3 (Foreground)
//Storyboard Sound Samples
//Background Colour Transformations
3,100,235,235,235

[TimingPoints]
37,454.545454545455,4,1,1,30,1,0
2309,-100,4,1,1,45,0,0
2423,-100,4,1,1,30,0,0
3218,-100,4,1,1,45,0,0
3332,-100,4,1,1,30,0,0
4127,-100,4,1,1,45,0,0
4241,-100,4,1,1,30,0,0
5037,-100,4,2,1,45,0,0
5150,-100,4,2,1,40,0,0
5377,-100,4,2,1,45,0,0
5491,-100,4,1,1,30,0,0
5946,-100,4,1,1,45,0,0
6059,-100,4,1,1,30,0,0
6855,-100,4,1,1,45,0,0
6968,-100,4,1,1,30,0,0
7764,-100,4,1,1,45,0,0
7877,-100,4,1,1,30,0,0
8673,-100,4,2,1,45,0,0
8787,-100,4,2,1,40,0,0
9014,-100,4,2,1,45,0,0
9127,-100,4,1,1,40,0,0
9241,-100,4,1,1,50,0,0
9582,-100,4,1,1,55,0,0
9696,-100,4,1,1,50,0,0
10037,-100,4,1,1,60,0,0
10491,-100,4,1,1,65,0,0
10605,-100,4,1,1,60,0,0
10946,-100,4,1,1,70,0,0
11400,-100,4,1,1,75,0,0
11514,-100,4,1,1,70,0,0
11855,-100,4,1,1,80,0,0
12309,-100,4,1,1,85,0,0
12423,-100,4,1,1,80,0,0
14582,-100,4,1,1,70,0,0
15946,-100,4,2,1,45,0,0
16287,-100,4,2,1,40,0,0
16400,-100,4,1,1,70,0,0
16855,-100,4,1,1,65,0,0
16968,-100,4,1,1,70,0,0
17764,-100,4,1,1,65,0,0
17877,-100,4,1,1,70,0,0
18673,-100,4,1,1,65,0,0
18787,-100,4,1,1,70,0,0
19582,-100,4,2,1,55,0,0
20037,-100,4,1,1,70,0,0
20491,-100,4,1,1,65,0,0
20605,-100,4,1,1,70,0,0
21400,-100,4,1,1,65,0,0
21514,-100,4,1,1,70,0,0
22309,-100,4,1,1,65,0,0
22423,-100,4,1,1,70,0,0
23218,-100,4,2,1,55,0,0
23673,-100,4,1,1,70,0,0
24127,-100,4,1,1,65,0,0
24241,-100,4,1,1,70,0,0
25037,-100,4,1,1,65,0,0
25150,-100,4,1,1,70,0,0
25946,-100,4,1,1,65,0,0
26059,-100,4,1,1,70,0,0
26855,-100,4,1,1,65,0,0
27196,-100,4,1,1,70,0,0
29127,-100,4,1,1,55,0,0
30491,-100,4,2,1,55,0,0
30832,-100,4,1,1,55,0,0
31059,-100,4,1,1,65,0,0
31400,-100,4,1,1,55,0,0
31514,-100,4,1,1,65,0,0
32309,-100,4,1,1,55,0,0
32423,-100,4,1,1,65,0,0
33218,-100,4,1,1,55,0,0
33332,-100,4,1,1,65,0,0
34127,-100,4,1,1,55,0,0
34241,-100,4,1,1,65,0,0
35037,-100,4,1,1,55,0,0
35150,-100,4,1,1,65,0,0
35946,-100,4,1,1,55,0,0
36059,-100,4,1,1,65,0,0
36855,-100,4,1,1,55,0,0
36968,-100,4,1,1,65,0,0
37764,-100,4,2,1,55,0,0
37877,-100,4,2,1,50,0,0
38105,-100,4,2,1,55,0,0
38218,-100,4,1,1,48,0,0
38332,-100,4,1,1,65,0,0
38673,-100,4,1,1,55,0,0
38787,-100,4,1,1,65,0,0
39582,-100,4,1,1,55,0,0
39696,-100,4,1,1,65,0,0
40377,-100,4,1,1,55,0,0
40491,-100,4,1,1,65,0,0
41287,-100,4,1,1,55,0,0
41400,-100,4,1,1,65,0,0
42309,-100,4,1,1,55,0,0
42423,-100,4,1,1,65,0,0
43673,-100,4,2,1,40,0,0
44127,-100,4,2,1,35,0,0
44582,-100,4,2,1,30,0,0
45491,-100,4,1,1,40,0,0
45605,-100,4,1,1,70,0,0
45832,-100,4,1,1,60,0,0
45946,-100,4,1,1,70,0,0
46741,-100,4,1,1,60,0,0
46855,-100,4,1,1,70,0,0
47764,-100,4,1,1,60,0,0
47877,-100,4,1,1,70,0,0
48673,-100,4,1,1,60,0,0
48787,-100,4,1,1,70,0,0
49468,-100,4,1,1,60,0,0
49582,-100,4,1,1,70,0,0
50377,-100,4,1,1,60,0,0
50491,-100,4,1,1,70,0,0
51400,-100,4,1,1,60,0,0
51514,-100,4,1,1,70,0,0
52309,-100,4,1,1,60,0,0
52650,-100,4,1,1,70,0,0
52764,-100,4,1,1,50,0,0
52877,-100,4,1,1,60,0,0
54127,-100,4,1,1,55,0,0
54241,-100,4,1,1,60,0,0
54582,-100,4,1,1,50,0,0
54696,-100,4,1,1,60,0,0
55946,-100,4,1,1,55,0,0
56059,-100,4,1,1,60,0,0
56400,-100,4,1,1,50,0,0
58218,-100,4,1,1,60,0,0
59127,-100,4,2,0,40,0,0
60037,-100,4,1,1,60,0,1
60150,-100,4,1,1,80,0,1
60491,-100,4,1,1,70,0,1
60605,-100,4,1,1,80,0,1
61400,-100,4,1,1,70,0,1
61514,-100,4,1,1,80,0,1
61855,-100,4,1,1,60,0,1
61968,-100,4,1,1,80,0,1
62309,-100,4,1,1,60,0,1
62423,-100,4,1,1,80,0,1
62537,-100,4,1,1,60,0,1
62650,-100,4,1,1,80,0,1
63218,-100,4,1,1,70,0,1
63332,-100,4,1,1,80,0,1
63673,-100,4,1,1,60,0,1
63787,-100,4,1,1,80,0,1
64127,-100,4,1,1,60,0,1
64241,-100,4,1,1,80,0,1
64582,-100,4,1,1,60,0,1
64696,-100,4,1,1,80,0,1
65037,-100,4,1,1,60,0,1
65150,-100,4,1,1,80,0,1
65491,-100,4,1,1,60,0,1
65605,-100,4,1,1,80,0,1
65946,-100,4,1,1,70,0,1
66059,-100,4,1,1,80,0,1
66855,-100,4,1,1,70,0,1
66968,-100,4,1,1,80,0,1
67309,-100,4,1,1,60,0,1
67423,-100,4,1,1,80,0,1
67764,-100,4,1,1,70,0,1
67877,-100,4,1,1,80,0,1
68673,-100,4,1,1,70,0,1
68787,-100,4,1,1,80,0,1
69127,-100,4,1,1,60,0,1
69241,-100,4,1,1,80,0,1
69468,-100,4,1,1,60,0,1
69582,-100,4,1,1,80,0,1
69809,-100,4,1,1,60,0,1
69923,-100,4,1,1,80,0,1
70491,-100,4,1,1,70,0,1
70605,-100,4,1,1,80,0,1
70946,-100,4,1,1,60,0,1
71059,-100,4,1,1,80,0,1
71400,-100,4,1,1,60,0,1
71514,-100,4,1,1,80,0,1
71855,-100,4,1,1,60,0,1
71968,-100,4,1,1,80,0,1
72309,-100,4,1,1,70,0,1
72423,-100,4,1,1,80,0,1
73218,-100,4,1,1,60,0,1
73332,-100,4,1,1,80,0,1
73673,-100,4,1,1,60,0,1
73787,-100,4,1,1,80,0,1
74127,-100,4,1,1,60,0,1
74241,-100,4,1,1,80,0,1
74582,-100,4,1,1,60,0,1
74696,-100,4,1,1,80,0,1
75037,-100,4,1,1,70,0,1
75150,-100,4,1,1,80,0,1
75946,-100,4,1,1,70,0,1
76059,-100,4,1,1,80,0,1
76400,-100,4,1,1,60,0,1
76514,-100,4,1,1,80,0,1
76855,-100,4,1,1,60,0,1
76968,-100,4,1,1,80,0,1
77537,-100,4,1,1,60,0,1
77650,-100,4,1,1,80,0,1
77764,-100,4,1,1,70,0,1
77877,-100,4,1,1,80,0,1
78218,-100,4,1,1,60,0,1
78332,-100,4,1,1,80,0,1
78673,-100,4,1,1,60,0,1
78787,-100,4,1,1,80,0,1
79127,-100,4,1,1,60,0,1
79241,-100,4,1,1,80,0,1
79468,-100,4,1,1,60,0,1
79582,-100,4,1,1,80,0,1
79809,-100,4,1,1,60,0,1
79923,-100,4,1,1,80,0,1
80491,-100,4,1,1,70,0,1
80605,-100,4,1,1,80,0,1
80946,-100,4,1,1,60,0,1
81059,-100,4,1,1,80,0,1
81400,-100,4,1,1,60,0,1
81514,-100,4,1,1,80,0,1
81855,-100,4,1,1,60,0,1
81968,-100,4,1,1,80,0,1
82196,-100,4,1,1,60,0,1
82309,-100,4,1,1,80,0,1
82537,-100,4,1,1,60,0,1
82650,-100,4,1,1,80,0,1
83218,-100,4,1,1,70,0,1
83332,-100,4,1,1,80,0,1
83673,-100,4,1,1,60,0,1
83787,-100,4,1,1,80,0,1
84014,-100,4,1,1,60,0,1
84127,-100,4,1,1,80,0,1
84355,-100,4,1,1,60,0,1
84468,-100,4,1,1,80,0,1
85037,-100,4,1,1,70,0,1
85150,-100,4,1,1,80,0,1
85491,-100,4,1,1,60,0,1
85605,-100,4,1,1,80,0,1
85946,-100,4,1,1,60,0,1
86059,-100,4,1,1,80,0,1
86400,-100,4,1,1,60,0,1
86514,-100,4,1,1,80,0,1
86855,-100,4,1,1,60,0,1
86968,-100,4,1,1,80,0,1
87309,-100,4,1,1,60,0,0
88218,-100,4,2,1,55,0,0
89014,-100,4,1,1,60,0,0
89582,-100,4,1,1,70,0,0
89696,-100,4,1,1,60,0,0
90264,-100,4,1,1,70,0,0
90377,-100,4,1,1,60,0,0
90491,-100,4,1,1,70,0,0
90605,-100,4,1,1,60,0,0
91400,-100,4,1,1,70,0,0
91514,-100,4,1,1,60,0,0
92309,-100,4,2,1,55,0,0
92423,-100,4,2,1,50,0,0
92650,-100,4,2,1,55,0,0
92764,-100,4,1,1,60,0,0
93218,-100,4,1,1,70,0,0
93332,-100,4,1,1,60,0,0
94127,-100,4,1,1,70,0,0
94241,-100,4,1,1,60,0,0
95037,-100,4,1,1,70,0,0
95150,-100,4,1,1,60,0,0
95946,-100,4,2,1,55,0,0
96059,-100,4,2,1,50,0,0
96287,-100,4,2,1,55,0,0
96400,-100,4,1,1,60,0,0
96855,-100,4,1,1,70,0,0
96968,-100,4,1,1,60,0,0
97537,-100,4,1,1,70,0,0
97650,-100,4,1,1,60,0,0
97764,-100,4,1,1,70,0,0
97877,-100,4,1,1,60,0,0
98673,-100,4,1,1,70,0,0
98787,-100,4,1,1,60,0,0
99582,-100,4,2,1,55,0,0
99696,-100,4,2,1,50,0,0
99923,-100,4,2,1,55,0,0
100037,-100,4,1,1,60,0,0
100491,-100,4,1,1,70,0,0
100605,-100,4,1,1,60,0,0
101400,-100,4,1,1,70,0,0
101514,-100,4,1,1,60,0,0
101855,-100,4,1,1,75,0,0
101968,-100,4,1,1,60,0,0
102309,-100,4,1,1,75,0,0
102423,-100,4,1,1,60,0,0
102764,-100,4,1,1,75,0,0
102877,-100,4,1,1,60,0,0
103218,-100,4,2,1,50,0,0
103332,-100,4,2,1,45,0,0
103446,-100,4,2,1,40,0,0
103559,-100,4,2,1,35,0,0
103673,-100,4,2,1,30,0,0

[Colours]
Combo1 : 245,109,215
Combo2 : 74,251,242
Combo3 : 175,169,152
Combo4 : 1,162,239
SliderBorder : 255,255,255

[HitObjects]
256,156,1855,2,0,B|256:64,2,80,4|0|8
420,224,2764,2,0,B|384:304,2,80,0|0|8
256,292,3673,5,0
188,236,3900,1,0
128,172,4127,1,8
256,52,4582,2,0,B|256:160,1,80
340,156,5037,2,0,B|396:184,3,40,8|0|0|8
404,140,5491,6,0,B|453:120|514:155,2,80,0|0|8
396,316,6400,2,0,B|448:248,2,80,0|0|8
256,208,7309,5,0
188,148,7537,1,0
256,92,7764,1,8
324,148,7991,1,0
344,64,8218,2,0,B|448:64,1,80
472,140,8673,2,0,B|484:204,3,40,8|0|0|8
456,212,9127,6,0,B|433:262|373:277,2,80,2|0|8
296,136,10037,2,0,B|243:121|194:145,1,80,2|0
256,56,10491,1,8
88,104,10946,6,0,B|110:53|170:38,2,80,2|0|8
80,192,11627,1,0
88,280,11855,2,0,B|110:330|170:345,2,80,2|0|8
176,260,12537,1,0
260,236,12764,6,0,B|288:292,4,40
348,244,13446,2,0,B|376:300,4,40
420,192,14127,1,0
484,132,14355,1,0
400,108,14582,5,2
132,116,15946,5,8
120,164,16173,1,8
144,208,16400,5,4
208,148,16627,2,0,B|308:148,1,80,0|8
276,60,17082,2,0,B|372:60,1,80
408,140,17537,2,0,B|468:220,2,80,0|8|0
332,180,18218,6,0,B|306:262|213:293,1,160,0|8
296,344,18900,2,0,B|364:280,2,80
208,348,19582,1,8
208,348,19809,1,8
136,308,20037,6,0,B|181:285|203:226,1,80
172,168,20491,2,0,B|126:190|104:249,2,80,8|0|0
256,136,21173,1,0
340,168,21400,2,0,B|385:190|407:249,1,80,8|0
444,148,21855,6,0,B|424:112|380:92|380:92|424:28,1,160,0|8
336,32,22537,1,0
336,32,22764,1,0
256,68,22991,1,0
176,32,23218,1,8
176,32,23446,1,8
116,80,23673,6,0,B|48:164,2,80,0|0|8
172,248,24582,1,0
256,276,24809,1,0
340,248,25037,1,8
446,142,25491,6,0,B|396:80,2,80,0|0|8
364,108,26173,1,0
284,76,26400,2,0,B|334:138,2,80,0|0|8
256,160,27082,1,8
256,248,27309,6,0,B|256:308,4,40
340,220,27991,1,0
424,192,28218,2,0,B|488:192,4,40
340,220,28900,1,0
360,136,29127,5,4
152,80,30491,2,0,B|96:80|96:80|60:100,1,80,8|8
124,164,30946,6,0,B|180:164|180:164|216:144,1,80,4|0
256,220,31400,1,8
311,152,31627,2,0,B|332:164|332:164|388:164,1,80
436,91,32082,2,0,B|416:80|416:80|360:80,2,80,0|8|0
476,168,32764,6,0,B|459:207|410:227,1,80
444,308,33218,1,8
368,356,33446,1,0
296,308,33673,1,0
328,228,33900,2,0,B|220:224,1,80,0|8
172,268,34355,1,0
168,180,34582,6,0,B|128:146|83:168|83:168|71:89,1,160,0|8
160,84,35264,2,0,B|232:128,1,80
256,40,35718,1,0
283,125,35946,2,0,B|352:84,1,80,8|0
392,160,36400,5,0
432,240,36627,1,0
352,280,36855,1,8
308,204,37082,1,0
352,280,37309,2,0,B|272:328,1,80
240,244,37764,2,0,B|192:272,3,40,8|0|0|8
172,292,38218,6,0,B|132:304|92:292,1,80,4|0
20,344,38673,2,0,B|84:296|84:296|84:204,1,160,8|0
168,248,39355,2,0,B|168:152,2,80,0|8|0
196,332,40036,6,0,B|256:360|336:324,2,120,0|8|0
256,268,40946,2,0,B|316:240|396:278,2,120,0|8|8
256,180,41855,5,0
212,104,42082,2,0,B|120:104,2,80,0|8|0
276,44,42764,2,0,B|392:44,2,80,0|0|8
312,124,43446,1,0
344,204,43673,5,4
168,204,44127,1,0
256,56,44582,1,0
476,332,45491,6,0,B|336:332,2,120,0|8|0
436,252,46400,2,0,B|372:252|372:252|336:176,2,120,0|8|0
420,164,47309,5,0
252,112,47764,1,8
332,76,47991,2,0,B|424:40,2,80
300,160,48673,1,8
252,236,48900,1,0
200,308,49127,6,0,B|264:332|348:296,2,120,0|8|0
128,256,50036,2,0,B|100:308|100:308|20:332,2,120,0|8|0
44,232,50946,5,0
212,180,51400,1,8
300,180,51627,1,0
300,92,51855,1,0
212,92,52082,1,0
256,168,52309,2,0,B|256:260,1,80,8|8
256,336,52764,5,4
416,24,53673,1,0
344,72,53900,1,0
256,88,54127,1,8
168,72,54355,1,0
96,24,54582,5,4
208,356,55491,1,0
144,296,55718,1,0
184,220,55946,1,8
272,232,56173,1,0
288,320,56400,6,0,B|372:348|456:312,2,160,4|4|4
348,252,57536,2,0,B|396:164,1,80,4|4
308,140,57991,1,4
256,68,58218,5,2
36,344,59127,1,0
208,304,59582,1,2
180,128,60036,6,0,B|260:164|361:118,1,160,4|8
316,216,60718,2,0,B|404:180,2,80
348,296,61400,1,8
264,320,61627,1,0
228,240,61855,6,0,B|168:324|168:324|116:356,1,160,4|8
96,264,62536,2,0,B|156:188,2,80,4|0|0
96,264,63218,1,8
32,324,63446,1,0
16,236,63673,6,0,B|76:160,1,80,4|0
100,92,64127,1,12
188,84,64355,1,0
216,168,64582,1,4
144,220,64809,2,0,B|140:332,2,80,0|12|0
228,248,65491,6,0,B|304:276|304:276|392:332,2,160,4|8|0
396,192,66855,1,8
228,148,67309,6,0,B|304:120|304:120|392:64,2,160,4|8|0
188,76,68446,2,0,B|264:48,2,80,0|8|0
124,136,69127,6,0,B|144:196|144:196|120:256,2,120,4|4|4
56,192,70036,1,0
124,248,70264,1,0
196,300,70491,1,8
256,236,70718,1,0
317,299,70946,5,4
388,248,71173,2,0,B|408:204|408:204|408:172,1,80,0|4
476,120,71627,1,0
480,208,71855,2,0,B|407:158|300:186,1,160,4|8
152,192,72764,6,0,B|100:216,2,40
72,152,73218,2,0,B|44:76,1,80,12|0
128,100,73673,2,0,B|216:92|292:152,1,160,4|12
420,248,74582,6,0,B|256:300,1,160,4|8
232,216,75264,2,0,B|200:244|160:244,2,80
264,136,75946,1,8
352,140,76173,1,0
316,220,76400,6,0,B|220:72,1,160,4|12
140,88,77082,1,0
52,88,77309,1,0
136,112,77536,1,4
60,64,77764,1,8
120,128,77991,1,0
80,48,78218,6,0,B|184:48,1,80,4|0
216,116,78673,2,0,B|268:100|328:128,1,80,12|0
380,100,79127,2,0,B|324:132|324:132|324:216,2,120,4|4|4
448,156,80036,6,0,B|512:108,2,80,0|0|8
412,232,80718,1,0
452,312,80946,2,0,B|388:360,1,80,4|0
336,288,81400,1,12
256,252,81627,1,0
256,340,81855,6,0,B|192:324|192:324|140:264,2,120,4|12|4
164,192,82991,1,0
124,268,83218,1,8
48,316,83446,1,0
20,232,83673,6,0,B|80:204|101:122,2,120,4|4|4
96,276,84582,2,0,B|156:200,1,80
180,132,85036,1,8
256,84,85264,1,0
332,132,85491,6,0,B|424:132,1,80,4|0
416,220,85946,2,0,B|432:272|400:332,1,80,12|0
332,264,86400,2,0,B|256:240|256:240|164:268,1,160,4|12
212,344,87082,1,0
300,344,87309,5,4
472,36,88218,2,0,B|320:36,2,120,8|8|8
468,124,89127,6,0,B|368:152,1,80,4|0
460,204,89582,2,0,B|484:296|452:384,1,160,8|0
372,324,90264,1,8
292,292,90491,1,8
212,256,90718,1,0
284,208,90946,6,0,B|232:132,2,80,0|0|8
336,136,91627,2,0,B|384:216,2,80
384,60,92309,2,0,B|340:32,3,40,8|0|0|8
308,32,92764,6,0,B|256:48|196:20,1,80
144,52,93218,2,0,B|204:112|204:112|204:196,1,160,8|0
124,148,93900,2,0,B|124:232,2,80,0|8|0
48,192,94582,5,0
60,280,94809,1,0
136,324,95037,1,8
212,280,95264,1,0
220,192,95491,1,0
136,220,95718,1,0
160,136,95946,2,0,B|144:76,3,40,8|0|0|8
196,144,96400,6,0,B|296:144,1,80
292,56,96855,2,0,B|268:148|300:236,1,160,8|0
264,296,97537,1,8
348,320,97764,1,8
380,236,97991,1,0
464,260,98218,6,0,B|480:304|480:304|480:344,2,80,0|0|8
408,192,98900,1,0
464,124,99127,2,0,B|480:80|480:80|480:40,1,80
396,72,99582,2,0,B|348:72,3,40,8|0|0|8
348,28,100037,6,0,B|284:28|284:28|252:44,2,80,0|0|8
328,204,100946,1,0
256,156,101173,1,0
184,204,101400,1,8
164,356,101855,6,0,B|264:356,2,80,4|0|12
160,268,102537,1,0
248,268,102764,1,4
248,356,102991,1,0
248,268,103218,2,0,B|248:196,4,40,8|0|0|0|0
