osu file format v9

[General]
AudioFilename: _ - Baby Maniacs __+PV.mp3
AudioLeadIn: 700
PreviewTime: 59002
Countdown: 0
SampleSet: Normal
StackLeniency: 0.7
Mode: 0
LetterboxInBreaks: 0

[Editor]
Bookmarks: 45479,103661
DistanceSpacing: 0.7
BeatDivisor: 2
GridSize: 4

[Metadata]
Title:Baby Maniacs (Short Ver.)
Artist:Hatsune Miku
Creator:TakamuraRin
Version:Easy
Source:HachiojiP
Tags:8#Prince Vocaloid q*Left Wakamura-P

[Difficulty]
HPDrainRate:1
CircleSize:3
OverallDifficulty:1
ApproachRate:3
SliderMultiplier:1.2
SliderTickRate:1

[Events]
//Background and Video events
0,0,"305911.jpg"
//Break Periods
//Storyboard Layer 0 (Background)
//Storyboard Layer 1 (Fail)
//Storyboard Layer 2 (Pass)
//Storyboard Layer 3 (Foreground)
//Storyboard Sound Samples
//Background Colour Transformations
3,100,235,235,235

[TimingPoints]
37,454.545454545455,4,1,1,70,1,0
1855,-100,4,1,1,55,0,0
2082,-100,4,1,1,70,0,0
3218,-100,4,1,1,75,0,0
3673,-100,4,1,1,70,0,0
5037,-100,4,2,1,55,0,0
5264,-100,4,1,1,70,0,0
5946,-100,4,1,1,75,0,0
6173,-100,4,1,1,70,0,0
6855,-100,4,1,1,75,0,0
7082,-100,4,1,1,70,0,0
7764,-100,4,1,1,75,0,0
7991,-100,4,1,1,70,0,0
8673,-100,4,2,1,55,0,0
8900,-100,4,1,1,70,0,0
9127,-100,4,1,1,71,0,0
10037,-100,4,1,1,75,0,0
10946,-100,4,1,1,79,0,0
11855,-100,4,1,1,83,0,0
12764,-100,4,1,1,5,0,0
14582,-100,4,1,1,80,0,0
16400,-100,4,1,1,60,0,0
16627,-100,4,1,1,80,0,0
17764,-100,4,1,1,70,0,0
17991,-100,4,1,1,80,0,0
18673,-100,4,1,1,70,0,0
18900,-100,4,1,1,80,0,0
19582,-100,4,2,1,55,0,0
19809,-100,4,1,1,80,0,0
21400,-100,4,1,1,70,0,0
21627,-100,4,1,1,80,0,0
23218,-100,4,2,1,55,0,0
23446,-100,4,1,1,80,0,0
24127,-100,4,1,1,70,0,0
24355,-100,4,1,1,80,0,0
25037,-100,4,1,1,70,0,0
25264,-100,4,1,1,80,0,0
25946,-100,4,1,1,70,0,0
26173,-100,4,1,1,80,0,0
26855,-100,4,1,1,70,0,0
27082,-100,4,1,1,80,0,0
27309,-100,4,1,1,5,0,0
29127,-100,4,1,1,60,0,0
29355,-100,4,1,1,70,0,0
30946,-100,4,1,1,55,0,0
31400,-100,4,1,1,60,0,0
31627,-100,4,1,1,70,0,0
32309,-100,4,1,1,60,0,0
32537,-100,4,1,1,70,0,0
33218,-100,4,1,1,60,0,0
33446,-100,4,1,1,70,0,0
34127,-100,4,1,1,60,0,0
34355,-100,4,1,1,70,0,0
35946,-100,4,1,1,60,0,0
36173,-100,4,1,1,70,0,0
37764,-100,4,2,1,55,0,0
37991,-100,4,1,1,70,0,0
38218,-100,4,1,1,55,0,0
38673,-100,4,1,1,60,0,0
38900,-100,4,1,1,70,0,0
39582,-100,4,1,1,60,0,0
39809,-100,4,1,1,70,0,0
41400,-100,4,1,1,60,0,0
41627,-100,4,1,1,70,0,0
42309,-100,4,1,1,60,0,0
42537,-100,4,1,1,70,0,0
43218,-100,4,1,1,60,0,0
43446,-100,4,1,1,70,0,0
43673,-100,4,1,1,55,0,0
45491,-100,4,1,1,60,0,0
45718,-100,4,1,1,75,0,0
46855,-100,4,1,1,70,0,0
47082,-100,4,1,1,75,0,0
47764,-100,4,1,1,70,0,0
47991,-100,4,1,1,75,0,0
48673,-100,4,1,1,70,0,0
48900,-100,4,1,1,75,0,0
50491,-100,4,1,1,70,0,0
50718,-100,4,1,1,75,0,0
51400,-100,4,1,1,70,0,0
51627,-100,4,1,1,75,0,0
52309,-100,4,1,1,70,0,0
52764,-100,4,1,1,60,0,0
58218,-100,4,1,1,80,0,0
59127,-100,4,2,1,55,0,0
60037,-100,4,1,1,65,0,1
60491,-100,4,1,1,70,0,1
60718,-100,4,1,1,80,0,1
61400,-100,4,1,1,70,0,1
61627,-100,4,1,1,80,0,1
61855,-100,4,1,1,60,0,1
62082,-100,4,1,1,70,0,1
62537,-100,4,1,1,60,0,1
64127,-100,4,1,1,70,0,1
64355,-100,4,1,1,80,0,1
65037,-100,4,1,1,70,0,1
65264,-100,4,1,1,80,0,1
65491,-100,4,1,1,60,0,1
65718,-100,4,1,1,80,0,1
66400,-100,4,1,1,60,0,1
66627,-100,4,1,1,80,0,1
66855,-100,4,1,1,60,0,1
67537,-100,4,1,1,80,0,1
67764,-100,4,1,1,70,0,1
67991,-100,4,1,1,80,0,1
68673,-100,4,1,1,70,0,1
69127,-100,4,1,1,60,0,1
69355,-100,4,1,1,80,0,1
69582,-100,4,1,1,70,0,1
69809,-100,4,1,1,80,0,1
70037,-100,4,1,1,60,0,1
70264,-100,4,1,1,80,0,1
70491,-100,4,1,1,70,0,1
70718,-100,4,1,1,80,0,1
70946,-100,4,1,1,60,0,1
71173,-100,4,1,1,80,0,1
72309,-100,4,1,1,70,0,1
72537,-100,4,1,1,80,0,1
72764,-100,4,1,1,60,0,1
73900,-100,4,1,1,70,0,1
74355,-100,4,1,1,80,0,1
74582,-100,4,1,1,60,0,1
74809,-100,4,1,1,80,0,1
75037,-100,4,1,1,70,0,1
75264,-100,4,1,1,80,0,1
75946,-100,4,1,1,70,0,1
76173,-100,4,1,1,80,0,1
76400,-100,4,1,1,60,0,1
76855,-100,4,1,1,70,0,1
77082,-100,4,1,1,80,0,1
77309,-100,4,1,1,60,0,1
77537,-100,4,1,1,80,0,1
77764,-100,4,1,1,70,0,1
78218,-100,4,1,1,60,0,1
78900,-100,4,1,1,80,0,1
79582,-100,4,1,1,70,0,1
79809,-100,4,1,1,60,0,1
80718,-100,4,1,1,80,0,1
81400,-100,4,1,1,70,0,1
81627,-100,4,1,1,80,0,1
82309,-100,4,1,1,70,0,1
82537,-100,4,1,1,60,0,1
83218,-100,4,1,1,70,0,1
83446,-100,4,1,1,60,0,1
84127,-100,4,1,1,70,0,1
84355,-100,4,1,1,60,0,1
85491,-100,4,1,1,80,0,1
85946,-100,4,1,1,60,0,1
86400,-100,4,1,1,80,0,1
86855,-100,4,1,1,60,0,1
87309,-100,4,1,1,80,0,0
89127,-100,4,1,1,65,0,0
89355,-100,4,1,1,70,0,0
90491,-100,4,1,1,75,0,0
90718,-100,4,1,1,70,0,0
92309,-100,4,2,1,55,0,0
92537,-100,4,1,1,70,0,0
93218,-100,4,1,1,75,0,0
93446,-100,4,1,1,70,0,0
94127,-100,4,1,1,75,0,0
94355,-100,4,1,1,70,0,0
95037,-100,4,1,1,75,0,0
95264,-100,4,1,1,70,0,0
95946,-100,4,2,1,55,0,0
96173,-100,4,1,1,70,0,0
96855,-100,4,1,1,75,0,0
97082,-100,4,1,1,70,0,0
97764,-100,4,1,1,75,0,0
97991,-100,4,1,1,70,0,0
98673,-100,4,1,1,75,0,0
98900,-100,4,1,1,70,0,0
99582,-100,4,2,1,55,0,0
99809,-100,4,1,1,70,0,0
100491,-100,4,1,1,75,0,0
100718,-100,4,1,1,70,0,0
101400,-100,4,1,1,75,0,0
101627,-100,4,1,1,70,0,0
101855,-100,4,1,1,65,0,0
101912,-100,4,1,1,63,0,0
101968,-100,4,1,1,61,0,0
102025,-100,4,1,1,59,0,0
102082,-100,4,1,1,57,0,0
102139,-100,4,1,1,55,0,0
102196,-100,4,1,1,53,0,0
102252,-100,4,1,1,51,0,0
102309,-100,4,1,1,49,0,0
102366,-100,4,1,1,47,0,0
102423,-100,4,1,1,45,0,0
102480,-100,4,1,1,43,0,0
102537,-100,4,1,1,41,0,0
102593,-100,4,1,1,39,0,0
102650,-100,4,1,1,37,0,0
102707,-100,4,1,1,35,0,0
102764,-100,4,1,1,33,0,0
102821,-100,4,1,1,31,0,0
102877,-100,4,1,1,29,0,0
102934,-100,4,1,1,27,0,0
102991,-100,4,1,1,25,0,0
103048,-100,4,1,1,23,0,0
103105,-100,4,1,1,21,0,0
103162,-100,4,1,1,19,0,0
103218,-100,4,1,1,17,0,0
103275,-100,4,1,1,15,0,0
103332,-100,4,1,1,13,0,0
103389,-100,4,1,1,11,0,0
103446,-100,4,1,1,10,0,0
103502,-100,4,1,1,9,0,0
103559,-100,4,1,1,7,0,0
103616,-100,4,1,1,6,0,0
103673,-100,4,1,1,5,0,0

[Colours]
Combo1 : 245,109,215
Combo2 : 74,251,242
Combo3 : 175,169,152
Combo4 : 1,162,239
SliderBorder : 255,255,255

[HitObjects]
140,76,1855,2,0,B|264:144|404:56,1,240,4|0
388,156,3218,1,8
370,238,3673,6,0,B|238:170|106:258,1,240
172,316,5037,1,8
256,332,5491,5,0
340,316,5946,1,8
424,300,6400,2,0,B|468:180,1,120,0|8
388,152,7309,6,0,B|328:176|260:148,1,120,0|8
312,80,8218,2,0,B|252:56|184:84,1,120,0|8
128,128,9127,5,2
256,236,10037,1,0
384,128,10946,1,0
256,236,11855,1,0
256,192,12764,12,2,14582
140,164,16400,6,0,B|160:36|256:20|352:36|372:180,1,360,4|8
296,208,18218,5,0
216,236,18673,1,8
136,268,19127,2,0,B|136:120,1,120,0|8
144,64,20037,6,0,B|164:192|260:208|356:192|376:48,1,360,0|8
456,80,21855,6,0,B|440:144|408:188|408:188|456:312,1,240
372,320,23218,1,8
288,336,23673,6,0,B|224:316|169:337,1,120,0|8
88,320,24582,2,0,B|108:256|87:201,1,120,0|8
172,192,25491,6,0,B|56:116,2,120,0|8|0
256,208,26855,1,8
256,192,27309,12,4,29127
256,156,30946,6,0,B|120:156,2,120,4|8|0
316,216,32309,1,8
376,276,32764,6,0,B|440:256|495:277,2,120,0|8|0
300,312,34127,1,8
220,340,34582,6,0,B|169:300|108:298|108:298|135:241|129:175,1,240
184,120,35946,1,8
104,96,36400,6,0,B|64:96|64:96|0:36,2,120,0|8|0
168,152,37764,1,8
196,232,38218,6,0,B|280:192|356:264,1,120,4|8
256,296,39127,1,0
336,316,39582,1,8
420,332,40037,6,0,B|452:256|452:256|384:192|424:100,1,240
340,88,41400,1,8
260,60,41855,5,0
180,88,42309,2,0,B|56:124,2,120,8|0|8
184,172,43673,5,2
92,208,45491,6,0,B|152:292|288:-56|356:368|440:168,1,360,4|8
376,132,47309,5,0
300,96,47764,1,8
216,96,48218,1,0
140,132,48673,1,8
137,215,49127,6,0,B|233:237|257:337|257:337|275:237|388:213,1,360,0|8
392,132,50946,5,0
336,72,51400,1,8
256,52,51855,1,0
176,72,52309,1,8
120,132,52764,5,4
404,312,54582,5,4
196,48,56400,6,0,B|252:68|320:48,2,120,4|4|4
136,108,57764,1,4
72,164,58218,5,2
240,160,59127,1,0
324,148,59582,1,2
408,136,60037,6,0,B|484:100,2,60,4|0|8
356,204,60946,1,0
304,272,61400,1,8
252,340,61855,6,0,B|116:332,2,120,4|8|4
256,256,63218,1,12
192,200,63673,5,4
256,144,64127,1,8
320,200,64582,2,0,B|380:172|457:205,1,120,0|8
428,112,65491,6,0,B|344:112|308:44|308:44|184:44,1,240,4|4
172,116,66855,1,12
120,180,67309,6,0,B|56:200|-12:176,2,120,4|8|0
184,232,68673,1,8
256,276,69127,5,4
324,228,69582,1,8
400,264,70037,2,0,B|444:316,2,60,4|0|8
424,184,70946,6,0,B|428:108|372:68|372:68|228:68,1,240,4|0
180,80,72309,1,8
220,156,72764,6,0,B|344:156,2,120,4|12|4
176,228,74127,1,8
124,296,74582,6,0,B|60:276|0:300,2,120,4|8|0
204,320,75946,1,8
284,344,76400,5,4
312,264,76855,1,8
232,240,77309,2,0,B|188:168,2,60,4|0|8
296,188,78218,6,0,B|352:144|352:144|452:144,2,120,4|4|0
256,112,79582,1,8
216,188,80036,6,0,B|160:144|160:144|60:144,2,120,4|4|0
144,232,81400,1,8
152,316,81855,6,0,B|24:312,2,120,4|8|4
236,304,83218,1,8
284,236,83673,6,0,B|324:192|412:200,2,120,4|8|4
256,156,85036,1,12
324,108,85491,5,0
408,108,85946,1,12
476,156,86400,1,0
484,72,86855,1,12
484,72,87309,5,4
264,328,89127,6,0,B|160:264|160:264|24:264,1,240,4|0
44,180,90491,1,8
96,116,90946,6,0,B|200:180|200:180|336:180,1,240
364,112,92309,1,8
404,40,92764,5,0
452,108,93218,2,0,B|452:232,1,120,8|0
468,312,94127,1,8
388,284,94582,6,0,B|320:260|264:288,1,120,0|8
256,200,95491,2,0,B|136:256,1,120,0|8
124,172,96400,6,0,B|4:228,2,120,0|8|0
184,112,97764,1,8
256,68,98218,5,0
328,112,98673,1,8
256,156,99127,2,0,B|256:292,1,120,0|8
336,244,100036,5,0
412,212,100491,1,8
488,176,100946,2,0,B|428:144|428:76,2,120,0|8|4
256,192,102082,12,0,103673
