osu file format v12

[General]
AudioFilename: Hatsune Miku - Baby Baby Goodbye.mp3
AudioLeadIn: 0
PreviewTime: 140995
Countdown: 1
SampleSet: Soft
StackLeniency: 0.8
Mode: 0
LetterboxInBreaks: 1

[Editor]
DistanceSpacing: 1
BeatDivisor: 4
GridSize: 8

[Metadata]
Title:Baby Baby Goodbye
TitleUnicode:Baby Baby Goodbye
Artist:Hatsune Miku
ArtistUnicode:Hatsune Miku
Creator:[milky]
Version:Normal
Source:
Tags:Vocaloid Sayonara
BeatmapID:235696
BeatmapSetID:19249

[Difficulty]
HPDrainRate:2
CircleSize:3
OverallDifficulty:2
ApproachRate:2
SliderMultiplier:1.2
SliderTickRate:2

[Events]
//Background and Video events
0,0,"bg.jpg",0,0
//Break Periods
2,60786,66359
2,110564,123026
//Storyboard Layer 0 (Background)
//Storyboard Layer 1 (Fail)
//Storyboard Layer 2 (Pass)
//Storyboard Layer 3 (Foreground)
//Storyboard Sound Samples
//Background Colour Transformations
3,100,163,162,255

[TimingPoints]
3710,444.444444444444,4,2,1,80,1,0
17920,444.444444444444,4,2,1,80,1,0
45475,-200,4,2,1,80,0,0
46364,-100,4,1,1,80,0,1
60586,-100,4,1,1,80,0,0
67475,-100,4,2,1,80,0,0
95697,-200,4,1,1,40,0,0
96142,-100,4,1,1,80,0,1
110365,-100,4,1,1,80,0,0
142364,-100,4,1,1,80,0,1
170594,-100,4,1,1,80,0,0

[Colours]
Combo1 : 0,0,255
Combo2 : 255,255,0
Combo3 : 0,128,192
Combo4 : 255,0,0
Combo5 : 255,128,0

[HitObjects]
144,80,10821,2,0,P|112:128|136:184,1,120,4|8,0:0|0:0,0:0:0:0:
256,192,11709,1,0,0:0:0:0:
256,192,11932,1,2,0:0:0:0:
256,192,12154,2,0,L|376:192,1,120,8|0,0:0|0:0,0:0:0:0:
432,296,13043,1,8,0:0:0:0:
312,320,13487,1,0,0:0:0:0:
312,320,13709,1,2,0:0:0:0:
312,320,13932,1,8,0:0:0:0:
192,320,14376,5,0,0:0:0:0:
104,240,14821,1,8,0:0:0:0:
104,120,15265,1,0,0:0:0:0:
104,120,15487,1,2,0:0:0:0:
104,120,15709,2,0,L|224:104,1,120,8|0,0:0|0:0,0:0:0:0:
344,120,16598,1,8,0:0:0:0:
256,200,17043,2,0,P|248:232|248:264,2,60,0|2|8,0:0|0:0|0:0,0:0:0:0:
360,344,18142,5,0,0:0:0:0:
360,344,18364,2,0,P|296:352|240:344,1,120,8|0,0:0|0:0,0:0:0:0:
144,272,19253,1,8,0:0:0:0:
152,152,19697,2,0,P|120:104|144:48,2,120,0|8|0,0:0|0:0|0:0,0:0:0:0:
256,88,21031,1,8,0:0:0:0:
432,104,21697,5,0,0:0:0:0:
432,104,21919,2,0,P|400:160|416:216,1,120,8|0,0:0|0:0,0:0:0:0:
296,232,22808,1,8,0:0:0:0:
176,232,23253,2,0,P|112:240|56:232,2,120,0|8|0,0:0|0:0|0:0,0:0:0:0:
256,144,24586,1,8,0:0:0:0:
256,144,24808,1,0,0:0:0:0:
136,112,25253,5,0,0:0:0:0:
136,112,25475,1,8,0:0:0:0:
136,112,25697,2,0,P|88:192|112:272,1,180,0|8,0:0|0:0,0:0:0:0:
208,208,26808,1,0,0:0:0:0:
328,192,27253,1,8,0:0:0:0:
448,208,27697,2,0,P|472:264|448:320,1,120,0|8,0:0|0:0,0:0:0:0:
328,320,28586,5,0,0:0:0:0:
328,320,28808,1,0,0:0:0:0:
328,320,29031,2,0,L|208:320,1,120,8|0,0:0|0:0,0:0:0:0:
88,296,29919,1,8,0:0:0:0:
64,176,30364,2,0,P|32:128|40:64,2,120,0|8|4,0:0|0:0|0:0,0:0:0:0:
336,56,32364,5,2,0:0:0:0:
336,56,32586,1,8,0:0:0:0:
336,56,32808,2,0,L|352:120,1,60,2|0,0:0|0:0,0:0:0:0:
256,192,33475,2,0,L|216:240,2,60,8|2|0,0:0|0:0|0:0,0:0:0:0:
216,80,34364,2,0,P|120:64|40:80,1,180,8|2,0:0|0:0,0:0:0:0:
80,320,35919,5,2,0:0:0:0:
80,320,36141,1,8,0:0:0:0:
80,320,36363,2,0,L|64:256,1,60,2|0,0:0|0:0,0:0:0:0:
160,184,37030,2,0,L|200:136,2,60,8|2|0,0:0|0:0|0:0,0:0:0:0:
256,256,37919,2,0,P|312:240|376:256,1,120,8|0,0:0|0:0,0:0:0:0:
432,144,38808,1,8,0:0:0:0:
432,144,39031,2,0,L|368:144,1,60,0|4,0:0|0:0,0:0:0:0:
256,144,39697,6,2,L|136:144,1,120,8|0,0:0|0:0,0:0:0:0:
216,232,40586,2,2,L|96:232,1,120,8|0,0:0|0:0,0:0:0:0:
56,120,41475,2,2,L|40:56,2,60,8|2|0,0:0|0:0|0:0,0:0:0:0:
176,104,42364,1,8,0:0:0:0:
176,104,42586,2,2,P|240:120|296:104,1,120,4|2,0:0|0:0,0:0:0:0:
336,64,43253,6,2,P|384:40|448:64,1,120,8|0,0:0|0:0,0:0:0:0:
400,176,44142,1,8,0:0:0:0:
400,176,44364,1,2,0:0:0:0:
400,176,44586,2,0,L|416:240,1,60,0|2,0:0|0:0,0:0:0:0:
400,296,45031,2,0,P|368:312|344:312,1,60,8|2,0:0|0:0,0:0:0:0:
288,312,45475,2,2,L|168:312,1,120,4|4,0:0|0:0,0:0:0:0:
144,192,46808,5,12,0:0:0:0:
184,80,47253,1,0,0:0:0:0:
240,64,47475,1,0,0:0:0:0:
296,72,47697,1,8,0:0:0:0:
336,112,47919,6,0,P|344:152|336:176,1,60
304,224,48364,2,0,P|272:240|248:240,1,60,0|8,0:0|0:0,0:0:0:0:
192,224,48808,2,0,P|160:208|144:184,1,60
144,128,49253,2,0,L|144:64,1,60,0|8,0:0|0:0,0:0:0:0:
264,48,49919,6,0,L|384:48,1,120,0|8,0:0|0:0,0:0:0:0:
448,152,50808,2,0,P|464:184|464:216,2,60,0|0|8,0:0|0:0|0:0,0:0:0:0:
336,192,51697,2,2,P|272:216|216:216,1,120,0|8,0:0|0:0,0:0:0:0:
168,192,52364,2,2,P|128:160|104:96,1,120,0|0,0:0|0:0,0:0:0:0:
144,48,53031,1,8,0:0:0:0:
200,24,53253,1,8,0:0:0:0:
256,48,53475,5,4,0:0:0:0:
256,168,53919,1,8,0:0:0:0:
256,288,54364,2,0,P|208:296|192:296,1,60
136,288,54808,2,0,P|128:288|80:264,1,60,8|0,0:0|0:0,0:0:0:0:
64,208,55253,5,0,0:0:0:0:
64,152,55475,1,0,0:0:0:0:
104,112,55697,1,8,0:0:0:0:
160,112,55919,1,0,0:0:0:0:
224,112,56142,1,0,0:0:0:0:
256,160,56364,2,0,L|256:280,1,120,8|8,0:0|0:0,0:0:0:0:
312,312,57031,6,0,P|336:320|376:328,1,60,4|0,0:0|0:0,0:0:0:0:
424,312,57475,1,8,0:0:0:0:
440,192,57919,1,0,0:0:0:0:
416,72,58364,1,8,0:0:0:0:
296,88,58808,1,4,0:0:0:0:
256,192,59253,12,4,60586,0:0:0:0:
256,64,67919,5,0,0:0:0:0:
256,64,68142,2,0,P|240:120|184:136,1,120,8|0,0:0|0:0,0:0:0:0:
112,40,69031,1,8,0:0:0:0:
72,152,69475,1,0,0:0:0:0:
56,208,69697,1,0,0:0:0:0:
72,264,69919,2,0,P|128:288|184:264,1,120,8|0,0:0|0:0,0:0:0:0:
256,176,70808,1,8,0:0:0:0:
256,176,71031,6,0,P|280:168|320:160,1,60,4|0,0:0|0:0,0:0:0:0:
432,192,71697,2,0,P|456:248|432:304,1,120,8|0,0:0|0:0,0:0:0:0:
376,320,72364,1,0,0:0:0:0:
320,304,72586,1,8,0:0:0:0:
264,320,72808,6,0,P|232:328|208:344,2,60,0|0|2,0:0|0:0|0:0,0:0:0:0:
272,264,73475,2,0,P|296:208|272:152,1,120,8|0,0:0|0:0,0:0:0:0:
160,192,74364,1,8,0:0:0:0:
160,192,74586,1,4,0:0:0:0:
144,72,75031,5,0,0:0:0:0:
144,72,75253,1,8,0:0:0:0:
144,72,75475,2,0,L|264:56,1,120
320,80,76142,2,0,P|376:104|432:80,1,120,8|0,0:0|0:0,0:0:0:0:
480,192,77031,1,8,0:0:0:0:
368,224,77475,1,0,0:0:0:0:
368,224,77697,1,0,0:0:0:0:
368,224,77919,2,0,L|304:224,1,60,8|4,0:0|0:0,0:0:0:0:
177,191,78586,6,0,P|144:184|118:165,2,60,0|8|0,0:0|0:0|0:0,0:0:0:0:
234,182,79253,2,0,P|240:152|260:123,2,60,0|0|8,0:0|0:0|0:0,0:0:0:0:
272,234,79919,2,0,P|304:240|330:260,2,60
223,265,80586,2,0,P|216:296|197:323,2,60,8|0|4,0:0|0:0|0:0,0:0:0:0:
104,240,81475,2,2,P|64:192|64:136,1,120,0|4,0:0|0:0,0:0:0:0:
112,96,82142,5,2,0:0:0:0:
168,72,82364,1,8,0:0:0:0:
224,72,82586,1,2,0:0:0:0:
280,88,82808,2,0,B|304:112|312:144,2,60,0|2|8,0:0|0:0|0:0,0:0:0:0:
216,192,83697,2,0,P|224:224|224:256,2,60,0|2|8,0:0|0:0|0:0,0:0:0:0:
96,224,84586,1,0,0:0:0:0:
160,328,85031,1,8,0:0:0:0:
160,328,85253,6,0,L|224:328,1,60,2|4,0:0|0:0,0:0:0:0:
280,328,85697,1,2,0:0:0:0:
336,328,85919,1,8,0:0:0:0:
424,248,86364,5,0,0:0:0:0:
448,192,86586,1,2,0:0:0:0:
424,136,86808,1,8,0:0:0:0:
320,192,87253,5,0,0:0:0:0:
320,192,87475,1,2,0:0:0:0:
320,192,87697,1,8,0:0:0:0:
200,192,88142,2,2,L|80:192,1,120,0|8,0:0|0:0,0:0:0:0:
32,160,88808,2,0,P|16:128|16:104,1,60,0|4,0:0|0:0,0:0:0:0:
128,56,89475,6,0,L|248:56,1,120,8|0,0:0|0:0,0:0:0:0:
368,64,90364,1,8,0:0:0:0:
416,96,90586,1,2,0:0:0:0:
456,144,90808,2,0,P|472:200|456:264,2,120,0|8|0,0:0|0:0|0:0,0:0:0:0:
344,192,92142,1,8,0:0:0:0:
344,192,92364,1,4,0:0:0:0:
304,304,92808,1,2,0:0:0:0:
304,304,93031,6,0,L|184:304,1,120,8|0,0:0|0:0,0:0:0:0:
88,240,93919,1,8,0:0:0:0:
88,240,94142,2,0,P|80:208|80:176,1,60,2|0,0:0|0:0,0:0:0:0:
200,192,94808,1,8,0:0:0:0:
200,192,95031,2,0,P|208:160|208:128,1,60,2|4,0:0|0:0,0:0:0:0:
256,40,95697,2,2,L|320:40,1,60,0|4,0:0|0:0,0:0:0:0:
408,120,96586,5,8,0:0:0:0:
408,240,97031,1,0,0:0:0:0:
352,256,97253,1,0,0:0:0:0:
296,240,97475,1,8,0:0:0:0:
240,256,97697,1,0,0:0:0:0:
184,240,97919,6,0,P|152:240|120:232,1,60
80,192,98364,2,0,P|72:160|72:128,1,60,8|0,0:0|0:0,0:0:0:0:
120,96,98808,2,8,P|152:88|184:88,1,60,0|0,0:0|0:0,0:0:0:0:
232,112,99253,6,2,P|240:176|240:232,1,120,8|4,0:0|0:0,0:0:0:0:
352,288,100142,1,8,0:0:0:0:
424,192,100586,1,0,0:0:0:0:
424,192,100808,2,0,P|416:160|416:128,1,60,0|8,0:0|0:0,0:0:0:0:
336,48,101475,2,2,P|272:56|216:48,1,120,0|8,0:0|0:0,0:0:0:0:
160,56,102142,2,2,P|112:88|88:144,1,120,0|0,0:0|0:0,0:0:0:0:
128,192,102808,1,8,0:0:0:0:
176,224,103031,1,0,0:0:0:0:
232,192,103253,5,4,0:0:0:0:
256,72,103697,1,8,0:0:0:0:
368,104,104142,1,0,0:0:0:0:
368,104,104364,1,0,0:0:0:0:
368,104,104586,2,0,P|376:144|376:168,1,60,8|0,0:0|0:0,0:0:0:0:
352,216,105031,6,0,P|328:248|304:256,1,60
248,256,105475,2,0,P|208:256|184:248,1,60,8|0,0:0|0:0,0:0:0:0:
152,200,105919,2,0,P|144:168|144:136,1,60
176,96,106364,2,2,P|224:72|288:96,1,120,8|4,0:0|0:0,0:0:0:0:
256,208,107253,6,0,P|264:240|264:272,2,60,8|0|8,0:0|0:0|0:0,0:0:0:0:
136,192,108142,2,0,P|88:200|72:200,2,60,8|0|8,0:0|0:0|0:0,0:0:0:0:
176,80,109031,1,0,0:0:0:0:
176,80,109253,1,8,0:0:0:0:
296,72,109697,1,0,0:0:0:0:
296,72,109919,1,8,0:0:0:0:
296,72,110142,2,0,P|304:104|304:136,1,60,0|4,0:0|0:0,0:0:0:0:
320,176,124586,5,4,0:0:0:0:
256,280,125031,1,8,0:0:0:0:
144,240,125475,2,0,P|104:240|80:232,2,60,0|0|8,0:0|0:0|0:0,0:0:0:0:
184,128,126364,2,0,P|160:72|184:16,1,120,0|8,0:0|0:0,0:0:0:0:
288,72,127253,2,0,L|408:72,2,120,0|8|0,0:0|0:0|0:0,0:0:0:0:
256,192,128586,5,8,0:0:0:0:
272,312,129031,1,0,0:0:0:0:
272,312,129253,1,0,0:0:0:0:
272,312,129475,2,0,L|392:312,1,120,8|0,0:0|0:0,0:0:0:0:
416,192,130364,1,8,0:0:0:0:
376,80,130808,2,0,P|368:48|368:16,2,60,0|0|8,0:0|0:0|0:0,0:0:0:0:
256,104,131697,6,0,P|192:112|136:112,1,120,4|10,0:0|0:0,0:0:0:0:
48,192,132586,1,0,0:0:0:0:
88,304,133031,1,10,0:0:0:0:
208,304,133475,2,2,P|272:296|328:296,1,120,0|10,0:0|0:0,0:0:0:0:
392,192,134364,1,0,0:0:0:0:
352,80,134808,1,10,0:0:0:0:
352,80,135031,1,0,0:0:0:0:
352,80,135253,6,0,L|232:80,1,120,0|10,0:0|0:0,0:0:0:0:
256,200,136142,1,0,0:0:0:0:
256,200,136586,1,10,0:0:0:0:
144,232,137031,1,0,0:0:0:0:
104,120,137475,1,10,0:0:0:0:
216,80,137919,2,0,L|280:80,1,60,0|2,0:0|0:0,0:0:0:0:
256,192,141475,12,4,142364,0:0:0:0:
256,192,142808,5,8,0:0:0:0:
144,224,143253,1,0,0:0:0:0:
88,240,143475,1,0,0:0:0:0:
32,224,143697,1,8,0:0:0:0:
88,120,144142,6,0,B|80:88|80:56,1,60
128,32,144586,2,0,P|184:24|248:24,1,120,8|0,0:0|0:0,0:0:0:0:
360,72,145475,1,8,0:0:0:0:
360,72,145697,1,0,0:0:0:0:
360,72,145919,6,0,P|376:128|360:192,1,120,4|8,0:0|0:0,0:0:0:0:
240,192,146808,2,0,P|208:184|176:184,1,60
120,200,147253,1,8,0:0:0:0:
88,256,147475,1,0,0:0:0:0:
104,312,147697,2,2,P|168:328|224:328,1,120,0|8,0:0|0:0,0:0:0:0:
280,328,148364,2,2,P|336:320|400:296,1,120,0|0,0:0|0:0,0:0:0:0:
416,240,149031,2,0,P|424:208|424:176,2,60,8|0|4,0:0|0:0|0:0,0:0:0:0:
304,192,149919,5,8,0:0:0:0:
256,80,150364,1,0,0:0:0:0:
256,80,150586,2,0,P|224:88|192:88,1,60,0|8,0:0|0:0,0:0:0:0:
136,96,151031,2,0,P|104:96|72:112,1,60
48,160,151475,2,0,P|40:192|48:224,1,60,0|8,0:0|0:0,0:0:0:0:
96,248,151919,1,0,0:0:0:0:
152,264,152142,1,0,0:0:0:0:
208,248,152364,1,8,0:0:0:0:
312,192,152808,1,8,0:0:0:0:
312,192,153031,6,2,P|344:144|336:80,2,120,4|8|0,0:0|0:0|0:0,0:0:0:0:
224,112,154364,2,2,L|104:112,1,120,8|4,0:0|0:0,0:0:0:0:
256,192,155031,12,4,156586,0:0:0:0:
144,96,157031,6,0,P|96:128|96:192,1,120,8|0,0:0|0:0,0:0:0:0:
216,192,157919,2,0,L|336:192,1,120,8|0,0:0|0:0,0:0:0:0:
400,88,158808,1,8,0:0:0:0:
400,88,159031,1,0,0:0:0:0:
400,88,159253,2,0,P|368:80|336:80,1,60,0|8,0:0|0:0,0:0:0:0:
264,240,160142,6,0,B|208:264|144:264,1,120,4|8,0:0|0:0,0:0:0:0:
48,192,161031,2,0,P|40:136|96:104,1,120,0|8,0:0|0:0,0:0:0:0:
200,152,161919,1,0,0:0:0:0:
320,136,162364,1,8,0:0:0:0:
320,136,162586,1,0,0:0:0:0:
440,144,163031,1,0,0:0:0:0:
440,144,163253,1,8,0:0:0:0:
416,264,163697,6,0,P|352:280|296:280,1,120,4|8,0:0|0:0,0:0:0:0:
184,256,164586,2,0,P|144:200|176:160,1,120,0|8,0:0|0:0,0:0:0:0:
256,80,165475,1,0,0:0:0:0:
352,152,165920,1,8,0:0:0:0:
352,152,166142,1,0,0:0:0:0:
352,152,166364,2,0,P|384:152|416:144,2,60,0|8|0,0:0|0:0|0:0,0:0:0:0:
256,80,167253,6,0,P|192:72|136:80,1,120,4|8,0:0|0:0,0:0:0:0:
96,192,168142,2,0,P|64:240|96:288,1,120,8|8,0:0|0:0,0:0:0:0:
208,248,169031,2,2,L|392:248,1,180,0|4,0:0|0:0,0:0:0:0:
416,128,170142,1,0,0:0:0:0:
416,128,170364,1,8,0:0:0:0:
416,128,170586,2,0,P|424:96|424:64,1,60,0|4,0:0|0:0,0:0:0:0:
