osu file format v12

[General]
AudioFilename: Hatsune Miku - Baby Baby Goodbye.mp3
AudioLeadIn: 0
PreviewTime: 140995
Countdown: 1
SampleSet: Soft
StackLeniency: 0.8
Mode: 0
LetterboxInBreaks: 1

[Editor]
DistanceSpacing: 1.3
BeatDivisor: 4
GridSize: 8

[Metadata]
Title:Baby Baby Goodbye
TitleUnicode:Baby Baby Goodbye
Artist:Hatsune Miku
ArtistUnicode:Hatsune Miku
Creator:[milky]
Version:Hard
Source:
Tags:Vocaloid Sayonara
BeatmapID:68255
BeatmapSetID:19249

[Difficulty]
HPDrainRate:6
CircleSize:4
OverallDifficulty:6
ApproachRate:6
SliderMultiplier:1.6
SliderTickRate:2

[Events]
//Background and Video events
0,0,"bg.jpg",0,0
//Break Periods
2,60786,66647
2,110564,123536
//Storyboard Layer 0 (Background)
//Storyboard Layer 1 (Fail)
//Storyboard Layer 2 (Pass)
//Storyboard Layer 3 (Foreground)
//Storyboard Sound Samples
//Background Colour Transformations
3,100,163,162,255

[TimingPoints]
3710,444.444444444444,4,2,1,80,1,0
17920,444.444444444444,4,2,1,80,1,0
45475,-200,4,2,1,40,0,0
45919,-200,4,1,1,40,0,0
46364,-100,4,1,1,80,0,1
60586,-100,4,1,1,80,0,0
67475,-100,4,2,1,80,0,0
95253,-200,4,2,1,40,0,0
95697,-200,4,1,1,40,0,0
96142,-100,4,1,1,80,0,1
110365,-100,4,1,1,80,0,0
142364,-100,4,1,1,80,0,1
170594,-100,4,1,1,80,0,0

[Colours]
Combo1 : 0,0,255
Combo2 : 255,255,0
Combo3 : 0,128,192
Combo4 : 255,0,0
Combo5 : 255,128,0

[HitObjects]
256,128,10821,6,0,P|208:144|176:144,1,80,4|0,0:0|0:0,0:0:0:0:
256,216,11265,2,0,P|304:208|336:208,1,80,8|0,0:0|0:0,0:0:0:0:
296,304,11709,1,0,0:0:0:0:
296,304,11932,1,2,0:0:0:0:
296,304,12154,2,0,L|216:304,1,80,8|0,0:0|0:0,0:0:0:0:
120,264,12598,5,0,0:0:0:0:
48,192,12821,1,0,0:0:0:0:
120,120,13043,1,8,0:0:0:0:
120,120,13265,1,0,0:0:0:0:
120,120,13487,2,0,P|152:88|160:56,2,80,0|2|8,0:0|0:0|0:0,0:0:0:0:
256,128,14376,6,0,P|304:144|336:144,1,80,4|0,0:0|0:0,0:0:0:0:
256,216,14820,2,0,P|208:208|176:208,1,80,8|0,0:0|0:0,0:0:0:0:
216,304,15264,1,0,0:0:0:0:
216,304,15487,1,2,0:0:0:0:
216,304,15709,2,0,L|296:304,1,80,8|0,0:0|0:0,0:0:0:0:
392,264,16153,5,0,0:0:0:0:
464,192,16376,1,0,0:0:0:0:
392,120,16598,1,8,0:0:0:0:
320,192,16820,1,0,0:0:0:0:
320,192,17042,6,0,L|240:192,2,80,0|2|8,0:0|0:0|0:0,0:0:0:0:
360,72,17920,5,4,0:0:0:0:
256,48,18142,1,0,0:0:0:0:
152,72,18364,1,8,0:0:0:0:
256,208,18808,2,0,L|336:208,1,80
232,208,19253,2,0,L|152:208,1,80,8|0,0:0|0:0,0:0:0:0:
48,208,19697,6,0,P|32:172|32:132,1,80
112,64,20142,1,8,0:0:0:0:
216,40,20364,1,0,0:0:0:0:
320,64,20586,1,0,0:0:0:0:
320,64,20808,1,8,0:0:0:0:
48,208,21475,5,4,0:0:0:0:
152,224,21697,1,0,0:0:0:0:
256,208,21919,2,0,P|280:176|280:136,2,80,8|0|0,0:0|0:0|0:0,0:0:0:0:
256,312,22586,1,0,0:0:0:0:
256,312,22808,2,0,L|336:312,1,80,8|0,0:0|0:0,0:0:0:0:
408,240,23253,6,0,P|384:208|384:168,2,80,0|0|8,0:0|0:0|0:0,0:0:0:0:
256,216,24031,2,0,L|232:184,1,40
160,264,24364,1,0,0:0:0:0:
56,256,24586,1,8,0:0:0:0:
56,256,24808,2,0,L|56:176,1,80,0|4,0:0|0:0,0:0:0:0:
104,80,25253,5,0,0:0:0:0:
208,64,25475,1,8,0:0:0:0:
312,80,25697,1,0,0:0:0:0:
312,184,25919,1,0,0:0:0:0:
312,184,26142,1,0,0:0:0:0:
312,288,26364,1,8,0:0:0:0:
416,304,26586,1,0,0:0:0:0:
416,304,26808,6,0,P|432:264|432:224,1,80
408,128,27253,1,8,0:0:0:0:
216,40,27697,1,0,0:0:0:0:
216,40,27919,1,0,0:0:0:0:
112,40,28142,1,8,0:0:0:0:
112,40,28364,2,0,P|96:80|96:120,1,80,0|4,0:0|0:0,0:0:0:0:
96,224,28808,5,0,0:0:0:0:
96,224,29031,2,0,L|176:216,1,80,8|0,0:0|0:0,0:0:0:0:
256,280,29475,2,0,L|264:360,2,80,0|0|8,0:0|0:0|0:0,0:0:0:0:
336,216,30142,2,0,L|416:224,2,80
336,112,30808,1,8,0:0:0:0:
336,112,31031,1,0,0:0:0:0:
336,112,31253,2,0,P|256:128|176:112,1,160,0|8,0:0|0:0,0:0:0:0:
48,48,32142,6,0,P|72:88|64:128,1,80,4|2,0:0|0:0,0:0:0:0:
144,192,32586,2,0,B|120:232|128:272,1,80,8|2,0:0|0:0,0:0:0:0:
232,256,33031,2,0,L|312:256,2,80,0|2|8,0:0|0:0|0:0,0:0:0:0:
144,192,33697,5,2,0:0:0:0:
248,168,33919,2,0,P|272:128|264:88,1,80,0|2,0:0|0:0,0:0:0:0:
168,64,34364,1,8,0:0:0:0:
168,64,34586,1,2,0:0:0:0:
72,104,34808,1,0,0:0:0:0:
72,104,35031,1,2,0:0:0:0:
120,192,35253,5,8,0:0:0:0:
256,344,35697,2,0,L|336:344,1,80,4|2,0:0|0:0,0:0:0:0:
440,336,36142,2,0,P|464:296|456:264,1,80,8|2,0:0|0:0,0:0:0:0:
352,272,36586,2,0,P|336:232|336:192,1,80,0|2,0:0|0:0,0:0:0:0:
424,136,37031,6,0,L|504:136,2,80,8|2|4,0:0|0:0|0:0,0:0:0:0:
216,136,37919,1,8,0:0:0:0:
344,232,38253,2,0,L|352:272,1,40,2|0,0:0|0:0,0:0:0:0:
256,320,38586,1,2,0:0:0:0:
152,336,38808,1,8,0:0:0:0:
48,320,39031,1,2,0:0:0:0:
48,320,39142,1,0,0:0:0:0:
48,320,39253,6,0,L|32:240,1,80,4|2,0:0|0:0,0:0:0:0:
72,144,39697,1,8,0:0:0:0:
176,128,39919,1,2,0:0:0:0:
280,144,40142,2,0,P|296:184|296:224,1,80,0|2,0:0|0:0,0:0:0:0:
192,216,40586,5,8,0:0:0:0:
256,296,40808,1,2,0:0:0:0:
328,216,41031,1,0,0:0:0:0:
328,216,41253,1,2,0:0:0:0:
328,216,41475,2,0,B|384:256|440:216,1,120,8|2,0:0|0:0,0:0:0:0:
472,192,41919,2,0,P|480:152|464:112,2,80,0|2|8,0:0|0:0|0:0,0:0:0:0:
392,128,42586,5,2,0:0:0:0:
288,112,42808,1,0,0:0:0:0:
184,128,43031,1,2,0:0:0:0:
184,128,43142,1,0,0:0:0:0:
184,128,43253,1,8,0:0:0:0:
88,96,43475,2,0,L|16:56,1,80,2|0,0:0|0:0,0:0:0:0:
8,160,43919,2,0,P|24:200|24:240,1,80,2|8,0:0|0:0,0:0:0:0:
104,304,44364,1,2,0:0:0:0:
208,280,44586,6,0,L|288:264,1,80,0|2,0:0|0:0,0:0:0:0:
384,168,45031,2,0,L|384:248,1,80,8|2,0:0|0:0,0:0:0:0:
384,248,45475,2,2,P|280:248|280:240,1,160,0|4,0:0|0:0,0:0:0:0:
256,40,46808,5,8,0:0:0:0:
112,192,47253,1,0,0:0:0:0:
72,288,47475,1,0,0:0:0:0:
152,352,47697,2,0,L|232:368,1,80,8|0,0:0|0:0,0:0:0:0:
256,264,48142,2,2,L|336:248,1,80,0|0,0:0|0:0,0:0:0:0:
280,160,48586,2,2,L|320:88,1,80,8|0,0:0|0:0,0:0:0:0:
216,64,49031,5,0,0:0:0:0:
120,96,49253,1,8,0:0:0:0:
24,64,49475,1,0,0:0:0:0:
120,96,49697,1,8,0:0:0:0:
120,96,49919,5,4,0:0:0:0:
328,96,50364,1,8,0:0:0:0:
256,288,50808,1,0,0:0:0:0:
152,272,51031,1,0,0:0:0:0:
48,288,51253,1,8,0:0:0:0:
48,288,51475,1,0,0:0:0:0:
48,184,51697,6,2,P|80:112|152:120,1,160,0|0,0:0|0:0,0:0:0:0:
224,192,52364,2,2,L|384:192,1,160,0|0,0:0|0:0,0:0:0:0:
472,248,53031,2,0,P|440:280|400:280,2,80,8|0|4,0:0|0:0|0:0,0:0:0:0:
336,88,53919,6,0,L|176:88,1,160,8|0,0:0|0:0,0:0:0:0:
152,296,54808,1,8,0:0:0:0:
256,312,55031,1,0,0:0:0:0:
360,296,55253,2,2,L|408:224,1,80,0|0,0:0|0:0,0:0:0:0:
328,160,55697,2,2,P|288:160|272:128,2,80,8|0|0,0:0|0:0|0:0,0:0:0:0:
360,64,56364,1,8,0:0:0:0:
440,128,56586,2,0,B|464:176|432:208|440:208,1,80,0|8,0:0|0:0,0:0:0:0:
360,272,57031,6,0,P|272:192|240:208,1,160,4|8,0:0|0:0,0:0:0:0:
216,296,57697,1,0,0:0:0:0:
304,240,57919,6,0,P|216:160|184:176,1,160,0|8,0:0|0:0,0:0:0:0:
400,112,58808,2,2,P|432:80|456:104,2,80,8|0|8,0:0|0:0|0:0,0:0:0:0:
112,112,59697,2,2,P|80:80|56:104,2,80,8|0|8,0:0|0:0|0:0,0:0:0:0:
256,192,60586,1,4,0:0:0:0:
256,248,67697,5,4,0:0:0:0:
152,264,67919,1,2,0:0:0:0:
48,248,68142,1,8,0:0:0:0:
48,248,68364,1,2,0:0:0:0:
32,144,68586,2,0,P|16:104|32:72,1,80,0|2,0:0|0:0,0:0:0:0:
136,72,69031,2,0,P|152:112|136:144,1,80,8|2,0:0|0:0,0:0:0:0:
232,192,69475,5,0,0:0:0:0:
232,192,69697,1,2,0:0:0:0:
336,176,69919,1,8,0:0:0:0:
336,176,70142,1,2,0:0:0:0:
440,192,70364,1,0,0:0:0:0:
440,192,70586,2,0,P|480:256|448:328,1,160,8|8,0:0|0:0,0:0:0:0:
344,328,71253,6,0,L|264:296,1,80,4|2,0:0|0:0,0:0:0:0:
200,224,71697,2,0,P|168:256|168:288,1,80,8|2,0:0|0:0,0:0:0:0:
272,296,72142,2,0,L|352:264,1,80,0|2,0:0|0:0,0:0:0:0:
416,192,72586,6,0,L|416:112,2,80,8|2|0,0:0|0:0|0:0,0:0:0:0:
312,208,73253,1,2,0:0:0:0:
312,208,73475,1,8,0:0:0:0:
208,192,73697,1,2,0:0:0:0:
208,192,73808,1,0,0:0:0:0:
208,192,73919,2,0,P|128:208|48:192,2,160,4|4|4,0:0|0:0|0:0,0:0:0:0:
256,96,75031,5,2,0:0:0:0:
160,64,75253,1,8,0:0:0:0:
64,96,75475,1,2,0:0:0:0:
64,96,75697,2,0,L|48:176,1,80,0|2,0:0|0:0,0:0:0:0:
104,264,76142,6,0,P|152:248|168:224,2,80,8|2|0,0:0|0:0|0:0,0:0:0:0:
312,264,77031,1,8,0:0:0:0:
328,112,77364,2,0,L|336:152,1,40,2|0,0:0|0:0,0:0:0:0:
240,192,77697,1,2,0:0:0:0:
136,176,77919,1,8,0:0:0:0:
152,72,78142,2,0,L|232:72,1,80,2|0,0:0|0:0,0:0:0:0:
336,72,78586,5,2,0:0:0:0:
336,72,78808,2,0,P|352:112|352:152,1,80,8|2,0:0|0:0,0:0:0:0:
248,144,79253,2,0,P|232:184|256:208,1,80,0|2,0:0|0:0,0:0:0:0:
344,264,79697,2,0,L|424:248,2,80,8|2|0,0:0|0:0|0:0,0:0:0:0:
256,312,80364,1,2,0:0:0:0:
256,312,80586,2,0,P|176:296|176:304,1,120,8|2,0:0|0:0,0:0:0:0:
160,312,81031,2,0,P|120:336|88:336,1,80,8|8,0:0|0:0,0:0:0:0:
96,232,81475,1,4,0:0:0:0:
256,96,81919,5,4,0:0:0:0:
360,80,82142,1,2,0:0:0:0:
448,144,82364,2,0,P|472:184|448:208,1,80,8|2,0:0|0:0,0:0:0:0:
360,248,82808,1,0,0:0:0:0:
256,232,83031,1,2,0:0:0:0:
152,248,83253,2,0,B|112:208|136:168,1,80,8|2,0:0|0:0,0:0:0:0:
208,104,83697,5,0,0:0:0:0:
208,104,83808,1,0,0:0:0:0:
208,104,83919,2,0,L|288:104,2,80,2|8|2,0:0|0:0|0:0,0:0:0:0:
104,112,84586,1,4,0:0:0:0:
160,312,85031,2,2,B|192:272|232:264|264:288,1,120,8|2,0:0|0:0,0:0:0:0:
288,320,85475,6,0,P|328:352|352:344,1,80,4|2,0:0|0:0,0:0:0:0:
432,280,85919,1,8,0:0:0:0:
480,192,86142,1,2,0:0:0:0:
432,104,86364,2,0,L|352:88,1,80,0|2,0:0|0:0,0:0:0:0:
352,192,86808,2,0,P|312:208|280:192,1,80,8|2,0:0|0:0,0:0:0:0:
256,88,87253,5,0,0:0:0:0:
80,192,87697,1,8,0:0:0:0:
256,304,88142,1,0,0:0:0:0:
256,304,88364,1,2,0:0:0:0:
280,200,88586,1,8,0:0:0:0:
176,184,88808,1,2,0:0:0:0:
176,184,89253,5,2,0:0:0:0:
72,200,89475,2,0,P|48:160|64:128,1,80,8|2,0:0|0:0,0:0:0:0:
152,96,89919,2,0,L|208:32,1,80,0|2,0:0|0:0,0:0:0:0:
256,128,90364,2,0,P|288:160|320:152,1,80,8|2,0:0|0:0,0:0:0:0:
400,88,90808,5,0,0:0:0:0:
472,168,91031,1,2,0:0:0:0:
440,264,91253,1,8,0:0:0:0:
288,264,91586,1,2,0:0:0:0:
288,264,91697,2,0,L|168:264,1,120,0|2,0:0|0:0,0:0:0:0:
128,256,92142,2,0,P|104:216|112:184,1,80,8|2,0:0|0:0,0:0:0:0:
216,176,92586,6,0,L|296:192,1,80,4|2,0:0|0:0,0:0:0:0:
344,104,93031,2,0,P|376:128|384:176,1,80,8|2,0:0|0:0,0:0:0:0:
384,272,93475,2,0,L|224:272,1,160,0|8,0:0|0:0,0:0:0:0:
128,248,94142,1,2,0:0:0:0:
40,192,94364,2,0,P|16:160|24:120,2,80,0|0|8,0:0|0:0|0:0,0:0:0:0:
128,128,95031,1,2,0:0:0:0:
232,128,95253,2,2,P|240:184|304:136,1,160,6|4,0:0|0:0,0:0:0:0:
256,344,96586,5,8,0:0:0:0:
112,192,97031,1,0,0:0:0:0:
216,208,97253,1,0,0:0:0:0:
152,288,97475,1,8,0:0:0:0:
152,288,97697,1,0,0:0:0:0:
112,192,97919,6,2,P|96:152|112:120,1,80,0|0,0:0|0:0,0:0:0:0:
192,48,98364,2,2,L|232:120,1,80,8|0,0:0|0:0,0:0:0:0:
256,216,98808,1,0,0:0:0:0:
256,216,99031,1,8,0:0:0:0:
256,216,99253,2,0,L|376:216,1,120,0|8,0:0|0:0,0:0:0:0:
408,192,99697,6,2,P|424:144|400:104,1,80,0|0,0:0|0:0,0:0:0:0:
320,80,100142,1,8,0:0:0:0:
112,112,100586,1,0,0:0:0:0:
80,208,100808,1,0,0:0:0:0:
184,192,101031,1,8,0:0:0:0:
184,192,101253,1,0,0:0:0:0:
184,192,101475,6,2,L|344:192,1,160,0|8,0:0|0:0,0:0:0:0:
344,296,102142,2,2,L|224:296,1,120,0|0,0:0|0:0,0:0:0:0:
184,296,102586,1,0,0:0:0:0:
184,296,102808,1,8,0:0:0:0:
184,296,103031,1,0,0:0:0:0:
88,248,103253,6,2,P|64:208|72:176,1,80,4|0,0:0|0:0,0:0:0:0:
176,176,103697,2,2,P|200:136|200:104,1,80,8|0,0:0|0:0,0:0:0:0:
120,40,104142,2,0,L|40:72,1,80,0|0,0:0|0:0,0:0:0:0:
48,176,104586,1,8,0:0:0:0:
48,176,104808,1,0,0:0:0:0:
120,256,105031,5,0,0:0:0:0:
120,256,105253,1,0,0:0:0:0:
224,240,105475,1,8,0:0:0:0:
224,240,105697,1,0,0:0:0:0:
328,256,105919,2,0,L|408:256,1,80,0|8,0:0|0:0,0:0:0:0:
488,192,106364,2,0,L|496:152,3,40,0|0|8|0,0:0|0:0|0:0|0:0,0:0:0:0:
496,112,106808,6,2,B|488:64|456:40,1,80,4|0,0:0|0:0,0:0:0:0:
376,104,107253,2,2,P|360:144|328:176,1,80,8|0,0:0|0:0,0:0:0:0:
256,104,107697,2,2,L|256:184,1,80,0|0,0:0|0:0,0:0:0:0:
136,104,108142,2,2,P|152:144|184:176,1,80,8|0,0:0|0:0,0:0:0:0:
224,264,108586,6,2,P|280:312|232:368,1,160,4|8,0:0|0:0,0:0:0:0:
152,304,109253,2,2,P|88:264|88:224,1,120,4|0,0:0|0:0,0:0:0:0:
96,176,109697,5,8,0:0:0:0:
192,144,109919,1,0,0:0:0:0:
280,192,110142,1,8,0:0:0:0:
280,192,110253,1,8,0:0:0:0:
280,192,110364,1,4,0:0:0:0:
448,192,124586,5,4,0:0:0:0:
392,280,124808,1,0,0:0:0:0:
288,264,125031,2,0,P|264:224|280:184,1,80,8|0,0:0|0:0,0:0:0:0:
352,128,125475,2,0,L|384:88,4,40,0|0|0|0|8,0:0|0:0|0:0|0:0|0:0,0:0:0:0:
256,96,126142,1,0,0:0:0:0:
160,128,126364,6,0,P|112:136|96:160,1,80
168,232,126808,2,0,L|176:312,1,80,8|0,0:0|0:0,0:0:0:0:
264,264,127253,2,0,L|288:232,1,40
328,264,127475,2,0,P|384:288|384:312,2,80,8|0|8,0:0|0:0|0:0,0:0:0:0:
256,184,128142,6,0,L|256:104,1,80
152,88,128586,1,8,0:0:0:0:
152,88,128808,1,0,0:0:0:0:
56,120,129031,1,0,0:0:0:0:
56,120,129142,1,0,0:0:0:0:
56,120,129253,1,0,0:0:0:0:
128,192,129475,2,0,L|144:232,3,40,8|0|0|0,0:0|0:0|0:0|0:0,0:0:0:0:
168,280,129919,6,0,P|208:272|248:288,1,80
352,280,130364,2,0,P|400:256|400:232,1,80,8|0,0:0|0:0,0:0:0:0:
312,192,130808,1,0,0:0:0:0:
312,192,130919,1,0,0:0:0:0:
312,192,131031,2,0,L|224:192,2,80,8|0|8,0:0|0:0|0:0,0:0:0:0:
344,96,131697,5,0,0:0:0:0:
448,120,131919,1,0,0:0:0:0:
392,208,132142,2,0,L|376:288,1,80,8|0,0:0|0:0,0:0:0:0:
272,304,132586,2,0,P|224:296|208:272,1,80,0|0,0:0|0:0,0:0:0:0:
256,184,133031,2,0,L|224:160,3,40,8|0|0|0,0:0|0:0|0:0|0:0,0:0:0:0:
176,152,133475,5,0,0:0:0:0:
80,192,133697,1,0,0:0:0:0:
152,264,133919,1,8,0:0:0:0:
152,264,134142,2,0,L|272:264,1,120
320,248,134586,2,0,P|352:216|352:176,2,80,8|0|8,0:0|0:0|0:0,0:0:0:0:
256,168,135253,5,0,0:0:0:0:
256,168,135475,1,0,0:0:0:0:
256,168,135697,2,0,L|184:128,1,80,8|0,0:0|0:0,0:0:0:0:
104,192,136142,1,0,0:0:0:0:
256,328,136586,2,0,L|416:328,1,160,8|0,0:0|0:0,0:0:0:0:
448,232,137253,5,0,0:0:0:0:
352,192,137475,1,8,0:0:0:0:
256,232,137697,1,4,0:0:0:0:
256,192,141031,12,4,142364,0:0:0:0:
256,56,142808,5,8,0:0:0:0:
416,192,143253,1,0,0:0:0:0:
312,176,143475,1,0,0:0:0:0:
376,96,143697,1,8,0:0:0:0:
376,96,143919,1,0,0:0:0:0:
376,96,144142,6,2,P|328:72|304:80,1,80,0|0,0:0|0:0,0:0:0:0:
216,136,144586,2,2,B|176:160|184:208,1,80,8|0,0:0|0:0,0:0:0:0:
272,264,145031,1,0,0:0:0:0:
272,264,145253,2,2,B|232:344|136:336,1,160,8|8,0:0|0:0,0:0:0:0:
80,248,145919,6,0,P|64:208|80:176,1,80,4|0,0:0|0:0,0:0:0:0:
184,192,146364,2,2,P|216:152|224:120,1,80,8|0,0:0|0:0,0:0:0:0:
128,88,146808,2,0,L|56:48,1,80
152,88,147253,2,2,L|224:48,1,80,8|0,0:0|0:0,0:0:0:0:
328,56,147697,5,0,0:0:0:0:
328,56,147919,1,0,0:0:0:0:
424,88,148142,2,0,P|400:136|368:160,1,80,8|0,0:0|0:0,0:0:0:0:
280,152,148586,2,0,P|256:104|224:112,1,80,0|8,0:0|0:0,0:0:0:0:
176,192,149031,2,0,L|128:256,1,80,0|8,0:0|0:0,0:0:0:0:
208,320,149475,5,4,0:0:0:0:
416,320,149919,1,8,0:0:0:0:
312,136,150364,1,0,0:0:0:0:
312,136,150586,1,0,0:0:0:0:
312,136,150808,2,0,L|312:216,1,80,8|0,0:0|0:0,0:0:0:0:
256,304,151253,6,2,P|216:280|208:248,1,80,0|0,0:0|0:0,0:0:0:0:
224,144,151697,2,2,P|160:120|120:152,1,120,8|0,0:0|0:0,0:0:0:0:
104,184,152142,2,0,P|92:223|104:264,2,80,0|8|0,0:0|0:0|0:0,0:0:0:0:
176,224,152808,1,8,0:0:0:0:
256,288,153031,5,4,0:0:0:0:
256,288,153253,1,0,0:0:0:0:
336,224,153475,2,2,P|392:192|392:136,1,120,8|0,0:0|0:0,0:0:0:0:
368,112,153919,2,0,P|312:104|304:80,1,80,0|0,0:0|0:0,0:0:0:0:
208,48,154364,2,2,P|152:56|144:88,1,80,8|0,0:0|0:0,0:0:0:0:
216,144,154808,6,2,B|256:216|248:312,1,160,4|0,0:0|0:0,0:0:0:0:
152,328,155475,2,2,P|112:304|48:336,1,120,4|0,0:0|0:0,0:0:0:0:
16,328,155919,2,0,P|8:288|32:240,1,80,8|8,0:0|0:0,0:0:0:0:
96,176,156364,1,8,0:0:0:0:
200,192,156586,5,12,0:0:0:0:
200,192,156808,1,0,0:0:0:0:
304,168,157031,2,0,P|352:160|360:128,1,80,8|0,0:0|0:0,0:0:0:0:
288,64,157475,2,0,P|248:48|208:56,1,80,8|0,0:0|0:0,0:0:0:0:
136,120,157919,2,0,B|120:160|128:200,1,80,8|0,0:0|0:0,0:0:0:0:
216,248,158364,6,2,P|264:264|272:288,1,80,8|0,0:0|0:0,0:0:0:0:
176,320,158808,2,2,L|56:320,1,120,8|0,0:0|0:0,0:0:0:0:
24,296,159253,2,0,P|8:256|88:168,1,160,8|8,0:0|0:0,0:0:0:0:
280,192,160142,6,0,L|360:176,1,80,12|0,0:0|0:0,0:0:0:0:
464,192,160586,2,0,P|480:232|456:264,1,80,8|0,0:0|0:0,0:0:0:0:
368,296,161031,2,0,L|288:288,1,80,8|0,0:0|0:0,0:0:0:0:
184,264,161475,2,0,P|160:224|168:192,1,80,8|0,0:0|0:0,0:0:0:0:
256,144,161919,2,2,P|320:128|352:88,1,120,8|0,0:0|0:0,0:0:0:0:
336,48,162364,6,0,P|296:40|256:40,1,80,8|0,0:0|0:0,0:0:0:0:
160,72,162808,2,2,P|136:96|88:104,1,80,8|0,0:0|0:0,0:0:0:0:
160,184,163253,2,0,P|192:208|208:248,1,80,8|0,0:0|0:0,0:0:0:0:
312,240,163697,6,0,P|328:200|368:176,1,80,12|0,0:0|0:0,0:0:0:0:
400,272,164142,2,0,P|416:312|400:344,1,80,8|0,0:0|0:0,0:0:0:0:
296,352,164586,2,2,L|136:352,1,160,8|8,0:0|0:0,0:0:0:0:
56,288,165253,2,2,P|40:248|40:208,1,80,0|8,0:0|0:0,0:0:0:0:
120,144,165697,2,2,P|128:184|128:224,1,80,0|8,0:0|0:0,0:0:0:0:
224,264,166142,2,0,P|216:224|224:184,1,80,0|8,0:0|0:0,0:0:0:0:
328,200,166586,2,2,P|376:192|400:160,2,80,0|8|0,0:0|0:0|0:0,0:0:0:0:
320,96,167253,6,2,B|320:48|192:48|192:96,1,160,8|8,0:0|0:0,0:0:0:0:
256,296,168142,2,2,L|256:136,1,160,8|8,0:0|0:0,0:0:0:0:
56,192,169031,2,2,P|32:264|96:304,1,160,4|8,0:0|0:0,0:0:0:0:
152,216,169697,2,2,P|232:232|280:224,1,120,4|8,0:0|0:0,0:0:0:0:
304,208,170142,2,2,L|304:128,2,80,0|8|4,0:0|0:0|0:0,0:0:0:0:
