osu file format v9

[General]
AudioFilename: blood.mp3
AudioLeadIn: 2000
PreviewTime: 70926
Countdown: 0
SampleSet: Normal
StackLeniency: 0.7
Mode: 0
LetterboxInBreaks: 1

[Editor]
DistanceSpacing: 1
BeatDivisor: 4
GridSize: 4

[Metadata]
Title:BLOOD
Artist:Hatsune Miku
Creator:Lalarun
Version:Hard
Source:DenshiP
Tags:Vocaloid Append Hinomoto Oniko val0108 yuca y_u_c_a nimba

[Difficulty]
HPDrainRate:6
CircleSize:4
OverallDifficulty:7
ApproachRate:8
SliderMultiplier:1.7
SliderTickRate:2

[Events]
//Background and Video events
0,0,"BG.jpg"
//Break Periods
2,23915,25492
//Storyboard Layer 0 (Background)
//Storyboard Layer 1 (Fail)
//Storyboard Layer 2 (Pass)
//Storyboard Layer 3 (Foreground)
//Storyboard Sound Samples
//Background Colour Transformations
3,100,163,162,255

[TimingPoints]
979,315.789473684211,4,1,1,40,1,0
3505,-100,4,1,1,80,0,1
3584,-100,4,1,1,80,0,0
30347,-100,4,1,2,50,0,0
30426,-100,4,1,1,80,0,0
33505,-100,4,1,2,50,0,0
33584,-100,4,1,1,80,0,0
35400,-100,4,1,2,50,0,0
35479,-100,4,1,1,80,0,0
40452,-100,4,1,2,50,0,0
40531,-100,4,1,1,80,0,0
49294,-100,4,1,2,50,0,0
49373,-100,4,1,1,80,0,0
55610,-100,4,1,2,50,0,0
55689,-100,4,1,1,80,0,0
60663,-100,4,1,2,50,0,0
60742,-100,4,1,1,80,0,0
63189,-100,4,1,2,50,0,0
63268,-100,4,1,1,80,0,0
65715,-100,4,1,2,50,0,0
65794,-100,4,1,1,50,0,0
71084,-133.333333333333,4,2,0,50,0,0
71479,-133.333333333333,4,2,0,5,0,0
71715,-100,4,1,1,80,0,1
81189,-100,4,1,1,80,0,0
81821,-100,4,1,1,80,0,1
91926,-100,4,1,1,80,0,0

[Colours]
Combo1 : 72,158,221
Combo2 : 255,255,255
Combo3 : 98,98,98
Combo4 : 237,84,111

[HitObjects]
256,192,979,12,0,3189
80,100,3505,6,0,B|105:129|128:100|128:100|136:68|136:68|180:60|216:96,2,170,4|8|8
92,184,4294,1,0
128,260,4452,1,8
192,312,4610,1,0
256,368,4768,2,0,B|304:368|304:368|368:348|372:264,1,170,0|8
444,232,5242,1,0
372,192,5400,6,0,B|280:224,1,85,0|0
140,192,5715,2,0,B|232:160,1,85,8|10
372,104,6031,6,0,B|404:104|428:88|428:88|428:64|428:64|480:72|508:116,2,170,4|8|8
320,36,6821,1,0
192,36,6979,1,8
256,124,7136,1,0
256,124,7294,2,0,B|307:161|172:208|264:280,1,170,0|8
255,358,7768,1,0
184,312,7926,6,0,B|136:284|128:236,1,85,0|0
328,312,8242,2,0,B|376:284|384:236,1,85,8|10
380,120,8557,6,0,B|448:128|472:204|472:204|472:272,2,170,4|8|8
296,100,9347,1,0
252,172,9505,1,8
320,220,9663,2,0,B|324:160|324:160|280:100|220:96,1,170
168,48,10136,6,0,B|124:40|124:40|64:48,1,85,8|0
83,240,10452,2,0,B|125:248|125:248|168:240,1,85
168,144,10768,2,0,B|124:138|124:138|72:144,1,85,8|8
84,336,11084,6,0,B|131:342|131:342|176:336|176:336|220:344|220:344|272:336,1,170,4|0
460,192,11715,1,0
376,192,11873,1,0
292,192,12031,2,0,B|200:192,1,85,8|0
220,84,12347,6,0,B|152:16,1,85
207,192,12663,2,0,B|143:128,1,85,8|0
328,308,12979,2,0,B|252:240,1,85,8|2
164,300,13294,2,0,B|88:232,1,85,8|2
64,144,13610,6,0,B|92:112|72:96|72:96|48:76|48:76|72:32|152:24,2,170,4|8|8
124,204,14400,1,0
200,164,14557,1,8
276,200,14715,1,0
356,168,14873,2,0,B|396:192|396:192|448:192,1,85
412,108,15189,6,0,B|372:84|372:84|328:84,1,85,8|0
276,244,15505,2,0,B|316:268|316:268|360:268,1,85
256,128,15821,2,0,B|216:104|216:104|160:104,1,85,8|10
72,236,16136,6,0,B|108:272|108:272|252:272,2,170,4|8|8
148,196,16926,1,0
232,196,17084,1,8
148,196,17242,1,0
76,152,17400,2,0,B|72:108|76:64,1,85
156,100,17715,6,0,B|200:88|240:100,1,85,8|0
352,36,18031,2,0,B|396:48|452:36,1,85
304,204,18347,2,0,B|344:200|404:204,1,85,8|10
472,120,18663,6,0,B|388:128|288:120,2,170,4|8|8
476,204,19452,1,0
492,288,19610,1,8
460,368,19768,1,0
388,324,19926,2,0,B|376:296|344:296|344:296|328:320|328:320|280:336|240:280,2,170,0|8|0
408,240,20715,1,0
348,180,20873,1,8
272,216,21031,1,10
228,144,21189,6,0,B|272:128|272:64|272:64|352:64,2,170,4|8|8
180,72,21979,1,0
136,144,22136,2,0,B|84:140|48:144,1,85,8|0
60,228,22452,6,0,B|88:268|128:280,1,85,12|0
67,338,22768,2,0,B|104:320|125:279,1,85,0|8
195,326,23084,2,0,B|160:316|125:279,1,85,8|0
167,206,23400,2,0,B|156:248|125:279,1,85,8|8
125,279,23715,1,4
256,192,26242,12,4,28768
164,136,29084,6,0,B|204:112|204:112|260:112,1,85,8|0
217,193,29400,2,0,B|185:217|185:217|133:217,2,85,0|0|8
244,112,29873,2,0,B|304:76|304:76|408:76,2,170
292,184,30663,1,0
377,184,30821,1,0
456,212,30979,2,0,B|432:256|380:272,1,85,8|10
246,333,31294,6,0,B|274:285|334:260|422:269,1,170,0|8
376,183,31768,1,0
424,112,31926,2,0,B|448:76|448:76|448:20,2,85,0|0|8
356,60,32400,2,0,B|276:28|232:56|232:56|192:108,1,170
276,136,32873,1,8
192,116,33031,2,0,B|140:96|140:96|72:112|64:176,2,170,0|0|8
151,191,33821,6,0,B|152:248|152:248|136:300|136:300|136:368,1,170,4|8
212,320,34294,1,0
228,236,34452,2,0,B|228:152,2,85,0|0|8
300,284,34926,2,0,B|356:312|356:312|476:312,2,170
352,216,35715,1,0
416,160,35873,1,0
384,80,36031,1,8
300,80,36189,1,10
272,160,36347,6,0,B|244:192|244:192|176:228|100:188,1,170,4|8
156,120,36821,1,0
72,132,36979,2,0,B|24:148|20:208,2,85,0|0|8
128,68,37452,6,0,B|172:32|224:52,1,85
308,124,37768,2,0,B|268:148|220:140,1,85,0|8
304,40,38084,2,0,B|344:24|392:40,1,85
480,128,38400,2,0,B|428:144|388:136,2,85,0|8|2
480,44,38873,6,0,B|480:236,1,170,4|8
480,299,39347,1,0
396,280,39505,2,0,B|376:240|376:240|376:196,2,85,0|0|8
396,280,39979,2,0,B|336:300|336:300|220:300,2,170
452,216,40768,1,0
384,164,40926,1,0
300,160,41084,2,0,B|288:116|288:116|300:64,1,85,8|10
380,88,41400,6,0,B|324:120|324:120|188:120,1,170,4|8
140,92,41873,1,0
140,92,42031,2,0,B|132:140|132:140|140:180,2,85,0|0|8
212,48,42505,6,0,B|324:48,1,85
384,196,42821,2,0,B|276:196,1,85,0|8
144,268,43136,2,0,B|240:268,1,85
312,120,43452,2,0,B|208:120,2,85,0|8|10
448,116,43926,6,0,B|460:160|460:160|448:200|448:200|460:240|460:240|452:296,1,170,4|8
396,344,44400,1,0
312,340,44557,2,0,B|268:348|268:348|220:340,2,85,0|0|8
264,268,45031,6,0,B|220:260|220:260|176:268,1,85
264,192,45347,2,0,B|220:184|220:184|176:192,1,85,0|8
308,124,45663,2,0,B|220:108|220:108|132:124,1,170
92,192,46136,6,0,B|80:236|80:236|96:284,1,85,8|10
360,272,46452,2,0,B|356:208|356:208|376:156|376:156|376:80,1,170,4|8
340,28,46926,1,0
256,48,47084,2,0,B|216:60|216:60|156:60,2,85,0|0|8
256,48,47557,5,0
256,304,47873,2,0,B|256:216,2,85,0|8|0
172,220,48347,2,0,B|144:124,1,85,8|2
340,220,48663,2,0,B|368:124,1,85,8|10
256,128,48979,6,0,B|184:64|184:64|132:116|132:116|48:108|48:108|28:216,1,340,4|0
68,268,49768,1,0
136,320,49926,2,0,B|176:328|176:328|228:324,1,85,8|0
180,248,50242,2,0,B|232:248|232:248|296:260|296:260|360:260,1,170,0|8
348,260,50715,1,0
348,260,50873,2,0,B|396:336,1,85
348,260,51189,2,0,B|444:260,1,85,8|10
348,260,51505,6,0,B|400:184|400:184|396:92,2,170,4|8|0
288,199,52294,1,0
288,113,52452,1,8
216,156,52610,2,0,B|164:172|80:172|16:148,1,170
76,76,53084,2,0,B|124:88|172:80,1,85,8|0
160,81,53400,2,0,B|200:96|248:88,1,85
244,88,53715,2,0,B|284:104|340:104,1,85,8|10
404,68,54031,6,0,B|428:112|428:112|428:184|428:184|408:240,1,170,4|8
304,360,54505,2,0,B|280:316|280:316|280:244|280:244|300:188,1,170
412,229,54979,2,0,B|332:244|332:244|228:229,1,170,8|0
88,160,55452,2,0,B|168:148|168:148|272:160,1,170
344,156,55926,2,0,B|348:108|348:108|340:68,1,85
256,80,56242,2,0,B|228:48|228:48|184:36,1,85,8|10
104,60,56557,6,0,B|64:84|64:84|20:84,2,85,4|0|8
104,60,57031,2,0,B|104:112|104:112|88:168|88:168|88:240,1,170,6|0
92,312,57505,1,8
92,312,57663,1,8
212,360,57821,6,0,B|252:336|252:336|296:336,2,85,4|0|0
212,360,58295,2,0,B|212:308|212:308|228:252|228:252|228:180,1,170,6|0
224,108,58769,1,10
224,108,58927,1,10
304,136,59084,6,0,B|356:96|356:96|488:96,1,170,0|8
304,248,59557,2,0,B|356:288|356:288|480:288,1,170
480,192,60031,2,0,B|292:192,1,170,8|0
224,200,60505,2,0,B|192:212|200:252|200:252|148:288|72:256,1,170
32,208,60979,2,0,B|32:112,1,85
116,140,61294,2,0,B|116:28,1,85,8|10
200,44,61610,6,0,B|200:100|200:100|216:160|216:160|216:248,1,170,4|8
308,304,62084,2,0,B|308:248|308:248|292:188|292:188|292:100,1,170
360,28,62557,2,0,B|360:84|360:84|376:144|376:144|376:232,1,170,8|0
466,286,63031,2,0,B|446:346|366:362|366:362|314:366,1,170,4|0
244,356,63505,2,0,B|144:328,1,85
184,248,63821,2,0,B|88:228,1,85,8|10
144,160,64136,6,0,B|163:106|135:100|135:100|146:38|223:12,1,170,4|8
368,160,64610,2,0,B|348:106|376:100|376:100|365:38|288:12,1,170,4|0
256,148,65084,2,0,B|256:328,1,170,8|0
176,220,65557,2,0,B|220:228|220:228|292:228|292:228|348:220,1,170
344,136,66031,5,0
172,136,66347,1,8
256,192,66663,12,8,68242
256,84,68557,5,0
256,84,68873,1,8
256,192,69189,12,4,70768
256,348,71084,6,0,B|308:288|194:231|264:164,1,191.249994300306,4|0
256,84,71715,6,0,B|192:96|160:176|160:176|104:176,1,170,4|8
44,160,72189,1,0
52,244,72347,2,0,B|72:320|136:336|136:336|188:336,1,170,0|8
148,256,72821,2,0,B|200:256|230:244|230:244|316:256,1,170
348,336,73294,2,0,B|392:320|436:300,1,85
452,220,73610,2,0,B|472:180|472:180|468:124,1,85
384,156,73926,2,0,B|356:120|344:76,1,85,8|10
432,76,74242,6,0,B|384:108|384:108|324:144|248:128,1,170,4|8
208,72,74715,1,0
128,96,74873,2,0,B|84:72|84:72|36:72,2,85,0|0|8
200,144,75347,2,0,B|220:184|220:184|220:272|220:272|200:304,1,170
140,364,75821,2,0,B|112:332|112:332|112:264,1,85,8|0
36,248,76136,6,0,B|28:292|36:336,1,85
116,180,76452,2,0,B|124:140|116:84,1,85,8|10
36,160,76768,6,0,B|88:136|88:136|224:136,1,170,4|8
264,286,77242,2,0,B|248:222|201:186|201:186|201:126,1,170
240,60,77715,2,0,B|284:44|344:48,1,85,8|0
400,84,78031,2,0,B|392:132|396:200|420:256,2,170,0|8|0
260,180,78979,1,10
220,344,79294,6,0,B|212:304|180:312|180:312|140:276|160:200,1,170,4|8
292,344,79768,2,0,B|300:304|332:312|332:312|372:276|352:200,1,170
256,220,80242,2,0,B|296:160|196:124|264:56,1,170,8|8
258,61,80715,1,8
144,196,81189,6,0,B|92:116,1,85,8|0
112,296,81505,2,0,B|60:212,1,85,8|10
216,272,81821,6,0,B|256:268|260:300|260:300|304:328|392:300,1,170,4|8
384,224,82294,1,0
372,140,82452,2,0,B|320:148|296:196,2,85,0|0|8
452,168,82926,2,0,B|468:88|392:40|332:64,1,170
276,88,83400,2,0,B|228:96|228:96|176:84,1,85,8|0
116,128,83715,6,0,B|124:172|152:208,1,85
292,300,84031,2,0,B|284:256|256:220,1,85,8|10
196,280,84347,6,0,B|164:316|164:316|96:340|48:272,2,170,4|8|0
260,224,85136,1,0
344,240,85294,1,8
368,320,85452,2,0,B|420:264|420:264|432:224|420:136,1,170
336,76,85926,2,0,B|324:120|336:168,1,85,8|0
244,252,86242,2,0,B|260:208|252:164,1,85
184,60,86557,2,0,B|172:104|184:152,1,85,8|10
140,264,86873,6,0,B|96:204|92:148|100:68,1,170,0|8
20,140,87347,2,0,B|20:196|40:272|80:316,1,170
136,352,87821,2,0,B|176:376|203:313|248:371,1,85,8|0
304,352,88136,2,0,B|368:340|400:284|400:284|420:204,2,170,0|8|0
268,272,88926,1,0
280,188,89084,1,8
256,108,89242,1,10
292,32,89400,6,0,B|336:48|332:84|332:84|384:116|456:80,1,170,4|8
427,91,89873,2,0,B|428:128|448:144|448:144|436:204|364:204,1,170
280,224,90347,2,0,B|248:280|164:280|124:216,1,170,8|8
208,184,90821,2,0,B|208:16,1,170,8|0
132,52,91294,5,2
296,104,91610,1,10
132,156,91926,6,0,B|112:240|112:240|132:336,1,170,4|8
212,296,92400,2,0,B|256:280|256:280|304:284,2,85
196,212,92873,2,0,B|240:192|240:192|300:196,1,85,8|0
356,224,93189,2,0,B|400:248|400:248|400:304,2,85,0|0|8
356,224,93663,2,0,B|400:172|400:172|400:52,1,170
324,28,94136,1,8
260,84,94294,1,8
320,144,94452,6,0,B|260:208,2,85,0|0|8
260,84,94926,2,0,B|224:100|216:64|216:64|160:36|96:120,1,170
152,172,95400,1,8
92,232,95557,1,0
128,308,95715,5,8
212,304,95873,1,8
228,220,96031,1,8
152,172,96189,1,12
