osu file format v9

[General]
AudioFilename: atama no taisou.mp3
AudioLeadIn: 0
PreviewTime: 7302
Countdown: 0
SampleSet: Soft
StackLeniency: 0.7
Mode: 0
LetterboxInBreaks: 1

[Editor]
Bookmarks: 58052,102052,142052,151052,172038,214038,246038
DistanceSpacing: 0.8
BeatDivisor: 4
GridSize: 4

[Metadata]
Title:Atama no Taisou
Artist:Hatsune Miku
Creator:val0108
Version:Nogard
Source:hapi
Tags:vocaloid vocaloid2 Love inaba-tan Lucifer Louis Cyphre Blue Dragon AngelHoney

[Difficulty]
HPDrainRate:6
CircleSize:4
OverallDifficulty:8
ApproachRate:9
SliderMultiplier:2
SliderTickRate:2

[Events]
//Background and Video events
0,0,"BG.jpg"
//Break Periods
2,102252,104452
//Storyboard Layer 0 (Background)
//Storyboard Layer 1 (Fail)
//Storyboard Layer 2 (Pass)
//Storyboard Layer 3 (Foreground)
//Storyboard Sound Samples
//Background Colour Transformations
3,100,163,162,255

[TimingPoints]
52,500,4,2,1,70,1,0
58052,250,4,1,1,80,1,0
67989,-100,4,1,1,60,0,0
68989,-100,4,1,1,70,0,0
70052,-100,4,1,1,80,0,0
74489,-100,4,1,2,80,0,0
74614,-100,4,1,1,80,0,0
81739,-100,4,2,1,5,0,0
81927,-100,4,1,1,80,0,0
104989,-100,4,1,1,60,0,0
105989,-100,4,1,1,80,0,0
111677,-100,4,2,1,60,0,0
112052,-100,4,1,1,80,0,0
112489,-100,4,1,2,80,0,0
112614,-100,4,1,1,80,0,0
114489,-100,4,1,2,80,0,0
114614,-100,4,1,1,80,0,0
120489,-100,4,1,2,80,0,0
120614,-100,4,1,1,80,0,0
124489,-100,4,1,2,80,0,0
124614,-100,4,1,1,80,0,0
141989,-100,4,1,1,50,0,0
143302,-100,4,1,1,60,0,0
143552,-100,4,1,1,70,0,0
143802,-100,4,1,1,80,0,0
144489,-100,4,1,2,80,0,0
144614,-100,4,1,1,80,0,0
145489,-100,4,1,2,80,0,0
145614,-100,4,1,1,80,0,0
146489,-100,4,1,2,80,0,0
146614,-100,4,1,1,80,0,0
148489,-100,4,1,2,80,0,0
148614,-100,4,1,1,80,0,0
149489,-100,4,1,2,80,0,0
149614,-100,4,1,1,80,0,0
155552,-50,4,1,1,90,0,0
155802,-50,4,1,1,100,0,0
156052,-100,4,1,1,80,0,0
156489,-100,4,1,2,80,0,0
156614,-100,4,1,1,80,0,0
160489,-100,4,1,2,80,0,0
160614,-100,4,1,1,80,0,0
164489,-100,4,1,2,80,0,0
164614,-100,4,1,1,80,0,0
168489,-100,4,1,2,80,0,0
168614,-100,4,1,1,80,0,0
175052,-100,4,2,1,5,0,0

[Colours]
Combo1 : 128,255,255
Combo2 : 128,255,128
Combo3 : 202,149,149
Combo4 : 255,255,128

[HitObjects]
206,29,54052,5,0
198,29,55052,1,2
190,29,56052,1,2
147,330,56552,1,2
430,216,57052,1,2
256,192,57802,5,2
320,44,58052,6,4,B|420:44,1,100,4|0
192,44,58302,2,0,B|92:44,1,100,0|0
344,124,58552,2,4,B|444:124,1,100,0|0
168,124,58802,2,4,B|68:124,1,100,0|0
184,220,59052,5,0
308,300,59177,1,0
204,300,59302,1,0
328,220,59427,1,0
120,280,59552,6,0,B|16:280,1,100
392,280,59802,2,0,B|496:280,1,100
340,87,60052,6,0,B|396:80|420:133,1,100,4|0
172,88,60302,2,0,B|116:95|91:42,1,100,0|0
216,156,60552,1,0
184,228,60677,1,0
328,228,60802,1,0
296,156,60927,1,0
124,276,61052,6,0,B|136:328|191:342,1,100
387,276,61302,2,0,B|376:328|320:342,1,100
256,256,61552,2,0,B|256:152,1,100
256,156,61927,1,0
204,96,62052,6,4,B|152:92|152:92|120:128,1,100,4|0
160,244,62302,2,4,B|156:296|156:296|192:328,1,100,0|0
308,288,62552,2,4,B|360:292|360:292|392:256,1,100,0|0
352,140,62802,2,4,B|356:88|356:88|320:56,1,100,0|0
248,24,63052,5,0
88,200,63302,1,0
264,360,63552,1,0
424,184,63802,1,0
352,140,63927,1,0
424,104,64052,5,0
344,360,64302,1,0
88,280,64552,1,0
140,128,64677,1,0
41,239,64802,1,0
186,168,64927,1,0
37,178,65052,1,0
190,230,65177,1,0
284,192,65302,5,0
292,192,65364,1,0
300,192,65427,1,0
308,192,65489,1,0
316,192,65552,2,0,B|328:248|376:272,1,100
228,192,65802,5,0
220,192,65864,1,0
212,192,65927,1,0
204,192,65989,1,0
196,192,66052,6,0,B|184:136|136:112,1,100,0|8
162,34,66302,2,0,B|207:57|219:113,1,100,0|8
293,113,66552,2,0,B|305:57|353:33,1,100,0|8
372,113,66802,2,0,B|328:136|316:192,1,100,0|8
328,272,67052,5,0
400,240,67177,1,0
392,320,67302,2,0,B|504:300,1,100
320,352,67552,5,0
248,384,67677,1,0
256,304,67802,2,0,B|144:324,1,100
84,348,68052,5,8
100,20,68302,1,8
428,36,68552,1,8
412,364,68802,1,8
256,124,69052,5,0
246,126,69114,1,0
236,128,69177,1,0
226,130,69239,1,0
216,132,69302,1,0
206,134,69364,1,0
196,136,69427,1,0
186,138,69489,1,0
176,140,69552,1,0
166,142,69614,1,0
156,144,69677,1,0
146,146,69739,1,0
136,148,69802,1,0
126,150,69864,1,0
116,152,69927,1,0
106,155,69989,1,0
96,158,70052,6,2,B|60:192|64:248,1,100
120,308,70302,1,0
192,272,70427,2,0,B|392:272,1,200,2|0
468,300,70802,2,2,B|440:355|388:347,1,100
388,132,71052,5,4
124,252,71177,1,8
306,56,71302,1,2
205,327,71427,1,8
195,60,71552,1,2
316,323,71677,1,2
119,141,71802,6,0,B|92:92|37:95,1,100,2|0
180,192,72052,2,0,B|207:241|262:237,2,100
256,160,72427,2,0,B|323:182|408:103|381:29,1,200
464,64,72802,2,0,B|469:122|430:159,1,100,2|2
304,32,73052,6,0,B|104:32,1,200
208,352,73427,2,0,B|408:352,1,200
424,272,73802,1,0
384,204,73927,1,0
328,148,74052,6,0,B|332:92|383:72,1,100
256,192,74302,1,0
187,232,74427,2,2,B|112:316|10:308,1,200
24,227,74802,2,0,B|56:184|46:132,1,100
124,116,75052,5,2
388,116,75177,1,8
162,22,75302,1,2
349,209,75427,1,8
256,112,75552,2,0,B|192:304,1,200
256,352,75927,1,0
320,304,76052,5,2
368,128,76177,1,2
192,80,76302,1,8
144,256,76427,1,2
411,234,76552,5,2
298,36,76677,1,2
100,149,76802,1,8
213,347,76927,1,2
311,167,77052,6,0,B|304:228|360:260|410:236,1,150
249,251,77302,2,0,B|200:215|145:248|140:303,1,150
207,156,77552,2,0,B|263:132|262:67|217:35,1,150
207,34,77802,1,0
197,32,77864,1,0
186,31,77927,1,0
176,30,77989,1,0
165,29,78052,6,0,B|64:29,1,100,2|0
345,109,78302,2,0,B|446:109,1,100,2|0
168,188,78552,2,0,B|67:188,1,100,2|0
348,268,78802,2,0,B|449:268,1,100,2|0
64,268,79052,6,0,B|164:268,1,100,2|0
444,188,79302,2,0,B|344:188,1,100,2|0
67,109,79552,2,0,B|167:109,1,100,2|0
447,29,79802,2,0,B|347:29,1,100,2|0
168,108,80052,5,0
165,29,80177,1,2
340,104,80302,1,0
419,101,80427,1,2
344,276,80552,1,0
347,355,80677,1,2
172,280,80802,1,0
93,283,80927,1,2
256,192,81052,6,0,B|269:150|345:136|386:233|321:302|249:319|139:302|132:205|148:128|200:71|297:57|379:102|390:185,1,600
116,32,82052,6,0,B|144:80|125:128,1,100,2|0
96,331,82302,2,0,B|144:304|192:322,1,100,2|0
395,351,82552,2,0,B|368:304|386:255,1,100,2|0
415,52,82802,2,0,B|368:80|319:61,1,100,2|0
244,92,83052,5,2
268,292,83177,1,2
244,92,83302,1,2
268,292,83427,1,2
156,204,83552,5,2
356,180,83677,1,2
156,204,83802,1,2
356,180,83927,1,2
156,108,84052,5,2
340,92,84177,1,2
356,276,84302,1,2
172,292,84427,1,2
181,46,84552,5,2
401,117,84677,1,2
330,337,84802,1,2
110,266,84927,1,2
242,0,85052,5,2
447,178,85177,1,2
269,383,85302,1,2
64,205,85427,1,2
288,104,85552,5,0
224,280,85677,1,0
168,160,85802,1,0
160,152,85864,1,0
152,144,85927,1,0
144,136,85989,1,0
136,128,86052,6,0,B|155:76|127:32,1,100,2|0
64,80,86302,2,0,B|45:132|72:176,1,100,2|0
132,232,86552,2,0,B|336:264,1,200,0|2
372,332,86927,1,0
440,288,87052,6,0,B|500:208,1,100,2|0
424,188,87302,2,0,B|447:90,1,100,2|0
368,104,87552,2,0,B|352:5,1,100,2|0
280,40,87802,2,0,B|210:53|176:137|216:197,1,200,2|0
260,264,88177,1,0
232,340,88302,1,0
156,368,88427,1,0
84,328,88552,2,0,B|24:289|24:199|84:158,1,200,2|0
76,76,88927,1,0
144,32,89052,6,0,B|184:72|164:123,1,100,2|0
450,175,89302,2,0,B|395:189|361:146,1,100,2|0
173,368,89552,2,0,B|188:314|242:305,1,100,2|0
256,192,89802,1,0
256,192,89864,1,0
256,192,89927,1,0
332,216,90052,5,2
180,168,90177,1,0
180,168,90427,5,0
332,216,90552,1,2
404,248,90677,2,0,B|428:304|488:292,2,100,0|2|0
340,296,91052,1,2
172,296,91177,1,2
340,368,91302,1,2
172,368,91427,1,2
256,328,91552,1,0
256,24,91802,5,4
110,208,92052,5,0
401,175,92177,1,0
141,100,92302,1,0
370,283,92427,1,0
239,46,92552,1,0
272,337,92677,1,0
347,77,92802,1,0
164,306,92927,1,0
88,288,93052,5,0
64,304,93302,1,0
40,320,93552,1,0
16,244,93677,5,0
0,164,93802,1,0
36,92,93927,1,0
112,68,94052,6,0,B|144:108|204:96,1,100
309,96,94302,2,0,B|368:108|400:68,1,100
256,152,94552,2,0,B|223:250|288:250|256:348,1,200
256,347,94927,1,0
192,300,95052,6,0,B|96:268,1,100,2|0
320,204,95302,2,0,B|416:172,1,100,2|0
172,76,95552,2,0,B|210:15|300:15|341:75,1,200,2|2
256,124,95927,1,0
192,172,96052,5,2
120,140,96177,1,0
56,188,96302,1,2
60,268,96427,1,0
116,328,96552,2,0,B|324:328,2,200,2|0|2
60,268,97177,1,0
56,188,97302,1,2
120,140,97427,1,0
192,172,97552,1,4
256,24,97802,5,0
256,24,97864,1,0
256,24,97927,1,0
336,28,98052,6,0,B|380:68|427:60,1,100
484,120,98302,1,0
420,168,98427,1,0
460,236,98552,2,0,B|475:305|411:369|340:356,1,200,2|2
296,288,98927,5,0
216,96,99052,1,2
216,288,99177,1,0
295,95,99302,1,2
160,232,99427,1,0
352,152,99552,1,2
352,152,99802,1,2
108,16,100052,5,0
40,60,100177,1,0
16,136,100302,1,0
32,216,100427,1,0
92,268,100552,1,0
172,272,100677,1,0
240,228,100802,1,0
264,152,100927,1,0
248,72,101052,5,0
363,245,101302,1,0
156,258,101552,1,0
472,36,101802,5,0
472,36,101927,1,0
472,36,102052,1,0
256,40,105052,5,0
176,36,105177,1,0
96,44,105302,1,0
16,40,105427,1,0
104,192,105552,5,0
184,188,105677,1,0
264,192,105802,1,0
344,184,105927,1,0
416,148,106052,6,0,B|467:104|427:0|345:15,1,200
416,236,106427,2,0,B|467:279|427:383|345:368,1,200
308,296,106802,2,0,B|208:296,1,100
96,236,107052,6,0,B|44:279|84:383|166:368,1,200
96,148,107427,2,0,B|44:104|84:0|166:15,1,200
204,88,107802,2,0,B|304:88,1,100
300,352,108052,6,0,B|343:403|447:363|432:281,1,200
212,352,108427,2,0,B|168:403|64:363|79:281,1,200
152,244,108802,2,0,B|152:144,1,100
212,32,109052,6,0,B|168:-19|64:20|79:102,1,200
300,32,109427,2,0,B|343:-19|447:20|432:102,1,200
360,140,109802,2,0,B|360:240,1,100
300,292,110052,5,0
212,92,110177,1,0
216,293,110302,1,0
295,90,110427,1,0
156,236,110552,1,0
356,148,110677,1,0
154,152,110802,1,0
357,231,110927,1,0
256,192,111052,5,0
256,192,111114,1,0
256,192,111177,1,0
256,192,111239,1,0
256,192,111302,1,0
256,192,111364,1,0
256,192,111427,1,0
256,192,111489,1,0
256,192,111552,1,0
60,24,112052,6,0,B|120:36|116:96,1,100,2|0
36,100,112302,1,0
84,164,112427,2,0,B|84:372,1,200
12,328,112802,2,0,B|160:328,1,150
200,308,113052,2,0,B|240:264|200:220,1,100
312,76,113302,2,0,B|272:120|312:164,1,100
428,220,113552,2,0,B|428:12,1,200
348,4,113927,1,0
268,12,114052,6,0,B|164:12,1,100
100,52,114302,1,0
128,188,114427,1,0
140,116,114552,6,0,B|244:116,1,100
272,184,114802,1,0
408,152,114927,1,0
344,192,115052,6,0,B|344:296,1,100
288,348,115302,1,0
278,345,115364,1,0
268,342,115427,1,0
258,339,115489,1,0
248,336,115552,1,0
238,333,115614,1,0
228,330,115677,1,0
218,327,115739,1,0
208,324,115802,1,0
198,322,115864,1,0
188,319,115927,1,0
135,255,116052,6,0,B|96:216|44:235,1,100
76,312,116302,1,0
208,224,116427,2,0,B|275:228|320:127|251:79,1,200,0|0
180,48,116802,2,0,B|272:8,1,100
420,40,117052,5,0
308,140,117177,1,0
448,192,117302,1,0
308,244,117427,1,0
420,344,117552,1,0
76,312,117802,5,0
152,340,117927,1,0
48,192,118052,2,0,B|104:192|104:192|132:232,1,100
436,72,118302,5,0
360,44,118427,1,0
464,192,118552,2,0,B|408:192|408:192|380:152,1,100
180,72,118802,5,0
256,292,118927,1,0
332,72,119052,1,0
332,72,119177,5,0
348,152,119302,1,0
350,161,119364,1,0
352,170,119427,1,0
354,179,119489,1,0
356,188,119552,1,0
412,244,119677,1,0
358,303,119802,1,0
349,305,119864,1,0
340,307,119927,5,0
331,309,119989,1,0
322,311,120052,1,0
266,367,120177,1,0
191,338,120302,1,0
112,352,120427,2,0,B|30:366|-9:262|41:218,1,200,0|0
120,240,120802,2,0,B|220:252,1,100
296,228,121052,5,0
120,40,121177,1,0
392,40,121302,1,0
216,228,121427,1,0
256,72,121552,1,0
108,128,121677,1,0
108,128,121802,6,0,B|132:176|107:224,1,100
156,288,122052,1,0
232,308,122177,1,2
216,228,122302,1,0
292,208,122427,1,2
236,152,122552,1,0
296,100,122677,1,0
296,100,122739,1,0
296,100,122802,1,0
220,76,122927,1,2
164,16,123052,6,0,B|84:16|84:16|48:16|8:44|24:96,1,200
347,16,123427,2,0,B|428:16|428:16|464:16|504:44|488:96,1,200
464,172,123802,1,0
396,216,123927,1,0
430,346,124052,6,0,B|352:284,1,100,2|0
256,308,124302,1,0
81,346,124427,2,0,B|238:221,1,200,2|0
256,144,124802,1,0
256,136,124864,1,0
256,128,124927,1,0
196,76,125052,5,2
256,24,125177,1,2
316,76,125302,1,0
256,128,125427,1,0
256,208,125552,1,4
104,156,125677,1,0
104,156,125802,6,0,B|120:256,1,100
408,228,126052,2,0,B|392:128,1,100,2|0
36,212,126302,2,0,B|52:312,1,100
476,172,126552,2,0,B|460:72,1,100,2|0
392,32,126802,1,0
326,389,126927,1,0
48,150,127052,2,0,B|32:80|84:16|163:29,2,200
256,192,127802,6,0,B|256:220,7,25
256,236,128052,6,0,B|308:320,1,100,2|0
256,148,128302,2,0,B|204:64,1,100,2|0
156,128,128552,1,2
356,128,128677,1,2
156,256,128802,1,2
356,256,128927,1,2
224,223,129052,6,0,B|128:245,1,100,2|0
287,160,129302,2,0,B|383:138,1,100,2|0
371,217,129552,1,2
230,76,129677,1,0
281,307,129802,1,2
140,166,129927,1,0
336,36,130052,6,0,B|384:64|432:36,1,100,2|0
176,36,130302,2,0,B|128:64|80:36,1,100,2|0
176,348,130552,6,0,B|128:320|80:348,1,100,2|0
336,348,130802,2,0,B|384:320|432:348,1,100,2|0
192,236,131052,5,0
320,148,131177,1,0
284,220,131302,2,0,B|304:240,7,25
228,164,131677,2,0,B|208:144,7,25
228,76,132052,5,2
152,44,132177,1,0
154,129,132302,1,2
77,160,132427,1,0
140,220,132552,1,2
108,296,132677,1,0
193,293,132802,1,2
224,370,132927,1,0
284,308,133052,5,2
360,340,133177,1,0
357,254,133302,1,2
434,223,133427,1,0
372,164,133552,1,2
404,88,133677,1,0
318,90,133802,1,2
287,13,133927,1,0
152,44,134052,5,2
77,160,134177,1,0
108,296,134302,1,2
224,370,134427,1,0
360,340,134552,1,2
434,223,134677,1,0
404,88,134802,1,2
287,13,134927,1,0
184,192,135052,6,0,B|184:220,4,25
256,156,135302,2,0,B|256:184,4,25,0|0|0|0|0
328,192,135552,2,0,B|328:220,4,25
256,248,135802,1,0
256,257,135864,1,0
256,267,135927,1,0
256,276,135989,1,0
256,286,136052,5,0
184,324,136177,1,0
104,316,136302,1,0
28,288,136427,2,0,B|-21:192|28:96,1,200
100,59,136802,2,0,B|152:56|183:10,1,100
100,140,137052,5,0
160,192,137177,1,0
240,208,137302,1,0
320,192,137427,2,0,B|390:176|454:228|441:307,1,200
360,307,137802,2,0,B|308:310|277:356,1,100
228,292,138052,5,0
160,336,138177,1,0
84,316,138302,1,0
44,248,138427,2,0,B|40:32,1,200
116,24,138802,1,0
180,72,138927,1,0
256,48,139052,6,0,B|316:36,2,50,8|0|0
400,192,139302,2,0,B|412:252,2,50,8|0|0
256,336,139552,2,0,B|196:348,2,50,8|0|0
112,192,139802,2,0,B|100:132,2,50,8|0|0
140,268,140052,5,0
220,280,140177,1,0
296,256,140302,1,0
320,180,140427,2,0,B|306:100|370:48|440:64,1,200
484,132,140802,2,0,B|484:232,1,100
440,64,141052,5,0
360,52,141177,1,0
284,76,141302,1,0
260,152,141427,2,0,B|273:231|209:283|139:267,1,200
96,200,141802,2,0,B|96:100,1,100
144,24,142052,5,0
88,304,142302,1,0
368,360,142552,1,0
424,80,142802,1,0
376,192,143052,5,0
368,192,143114,1,0
360,192,143177,1,0
352,192,143239,1,0
344,192,143302,1,0
336,192,143364,1,0
328,192,143427,1,0
320,192,143489,1,0
312,192,143552,1,0
304,192,143614,1,0
296,192,143677,1,0
288,192,143739,1,0
280,192,143802,1,0
272,192,143864,1,0
264,192,143927,1,0
256,192,143989,1,0
247,191,144052,6,0,B|188:184|177:130,1,100
256,112,144302,1,0
164,236,144427,2,0,B|215:279|176:383|94:368,1,200
104,288,144802,2,0,B|16:232,1,100
80,180,145052,5,0
28,120,145177,1,0
76,56,145302,1,0
144,96,145427,2,0,B|344:44,1,200
396,104,145802,1,0
396,280,145927,1,0
488,192,146052,6,0,B|388:192,1,100
308,192,146302,1,0
228,192,146427,2,0,B|185:243|81:204|96:122,1,200
20,152,146802,1,0
20,232,146927,1,0
95,262,147052,6,0,B|96:316,2,50,8|0|0
417,262,147302,2,0,B|416:316,2,50,8|0|0
256,324,147552,2,0,B|256:224,1,100
256,112,147802,1,0
256,112,147864,1,0
256,112,147927,1,0
312,52,148052,6,0,B|412:20,1,100
256,112,148302,1,0
200,52,148427,2,0,B|0:52,1,200
206,196,148802,2,0,B|318:196,1,100
200,332,149052,6,0,B|100:364,1,100
256,272,149302,1,0
312,332,149427,2,0,B|516:332,1,200
306,188,149802,2,0,B|194:188,1,100
183,24,150052,6,0,B|132:44|86:24,1,100
326,23,150302,2,0,B|372:4|424:24,1,100
256,352,150677,6,0,B|256:252,2,100
344,244,151052,5,2
308,104,151177,1,0
168,140,151302,1,2
204,280,151427,1,0
367,208,151552,5,2
272,80,151677,1,0
144,175,151802,1,2
239,303,151927,1,0
375,161,152052,5,2
225,72,152177,1,0
136,222,152302,1,2
286,311,152427,1,0
355,118,152552,5,2
182,92,152677,1,0
156,265,152802,1,2
329,291,152927,1,0
325,74,153052,5,2
138,122,153177,1,0
186,309,153302,1,2
373,261,153427,1,0
276,57,153552,5,2
121,171,153677,1,0
235,326,153802,1,2
390,212,153927,1,0
256,192,154052,5,0
256,192,154114,1,0
256,192,154177,1,0
256,192,154239,1,0
256,192,154302,1,0
256,192,154364,1,0
256,192,154427,1,0
256,192,154489,1,0
256,192,154552,1,0
256,192,154614,1,0
256,192,154677,1,0
256,192,154739,1,0
256,192,154802,1,0
256,192,154864,1,0
256,192,154927,1,0
256,192,154989,1,0
256,192,155052,6,0,B|256:224,11,33.3333333333333
256,192,155552,2,0,B|312:192,15,50
328,192,156052,6,0,B|428:192,1,100
464,120,156302,1,0
444,44,156427,1,0
434,41,156489,1,0
424,38,156552,1,0
348,60,156677,2,0,B|248:76,2,100
168,76,157052,5,2
36,108,157177,1,0
168,308,157302,1,2
36,276,157427,1,0
112,192,157552,2,0,B|216:192,1,100
212,192,157739,1,0
212,192,157802,1,0
340,192,157927,1,2
460,152,158052,6,0,B|511:109|472:5|390:20,1,200,0|0
389,363,158427,2,0,B|472:379|511:275|460:232,1,200,2|0
392,192,158802,1,0
382,192,158864,1,0
371,192,158927,1,0
361,192,158989,1,0
351,191,159052,6,0,B|253:158|253:223|155:191,1,200,2|0
188,117,159427,2,0,B|277:169|228:212|318:263,1,200,2|0
256,312,159802,1,0
256,321,159864,1,0
256,331,159927,1,0
256,340,159989,1,0
256,350,160052,6,0,B|356:349,2,100
175,350,160427,6,0,B|115:380|34:303|80:233,1,200,0|0
4,208,160802,2,0,B|112:148,1,100
140,96,161052,5,2
372,288,161177,1,0
372,96,161302,1,2
140,288,161427,1,0
256,192,161552,1,4
264,32,161802,5,0
264,32,161927,1,0
416,200,162052,5,0
416,200,162177,1,0
248,352,162302,5,0
248,352,162427,1,0
96,184,162552,5,0
96,184,162677,1,0
196,128,162802,5,0
341,172,162927,1,0
230,275,163052,1,0
230,275,163177,1,0
256,192,163302,2,0,B|268:160,8,25
180,212,163677,1,0
148,284,163802,2,0,B|136:316,8,25
72,260,164177,5,0
24,196,164302,1,0
64,128,164427,2,0,B|34:68|111:-13|181:33,1,200,0|0
254,95,164802,6,0,B|340:145,1,100,2|0
172,241,165052,2,0,B|173:142,1,100,2|0
340,238,165302,2,0,B|254:288,1,100,2|0
256,192,165552,1,4
456,24,165677,5,0
456,24,165739,1,0
456,24,165802,1,0
416,92,165927,1,0
480,140,166052,2,0,B|484:240,1,100
428,296,166302,1,0
367,347,166427,2,0,B|332:296|281:317,1,100
204,340,166677,1,0
194,338,166739,1,0
183,336,166802,1,0
112,300,166927,1,0
36,324,167052,6,0,B|36:231|36:231|144:231,1,200
36,60,167427,2,0,B|36:153|36:153|144:153,1,200
224,192,167802,2,0,B|340:192,1,100
392,148,168052,6,0,B|368:92|304:104,2,100
392,228,168427,2,0,B|392:296|392:296|368:320,1,100
292,340,168677,1,0
282,336,168739,1,0
272,332,168802,1,0
191,336,168927,2,0,B|140:315|95:341,1,100,0|2
95,42,169177,2,0,B|140:69|191:47,1,100,0|2
256,192,169427,1,0
176,192,169552,6,0,B|164:172|164:172|152:208|152:208|140:172|140:172|128:208|128:208|116:192|116:192|108:192|108:192|72:192,1,200
73,272,169927,1,0
216,264,170052,5,0
296,120,170177,1,0
438,192,170302,1,0
368,336,170427,1,0
144,336,170552,5,0
74,192,170677,1,0
216,120,170802,1,0
296,264,170927,1,0
224,208,171052,5,0
288,176,171302,1,0
192,160,171552,5,0
320,224,171802,1,0
128,256,172052,5,0
384,128,172302,1,0
0,64,172552,5,0
512,320,172802,2,0,B|512:356,8,25
256,192,173114,12,0,175052
