osu file format v9

[General]
AudioFilename: atama no taisou.mp3
AudioLeadIn: 0
PreviewTime: 7302
Countdown: 0
SampleSet: Normal
StackLeniency: 0.7
Mode: 0
LetterboxInBreaks: 1

[Editor]
Bookmarks: 58052,102052,142052,172038,214038,246038
DistanceSpacing: 0
BeatDivisor: 4
GridSize: 4

[Metadata]
Title:Atama no Taisou
Artist:Hatsune Miku
Creator:val0108
Version:Lucifer x 0108
Source:hapi
Tags:vocaloid vocaloid2 Love inaba-tan Lucifer Louis Cyphre Blue Dragon AngelHoney

[Difficulty]
HPDrainRate:6
CircleSize:4
OverallDifficulty:8
ApproachRate:9
SliderMultiplier:1.9
SliderTickRate:2

[Events]
//Background and Video events
0,0,"BG.jpg"
//Break Periods
2,66252,67452
2,102252,104452
2,136251,141452
//Storyboard Layer 0 (Background)
//Storyboard Layer 1 (Fail)
//Storyboard Layer 2 (Pass)
//Storyboard Layer 3 (Foreground)
Sprite,Foreground,Centre,"SB\val0108wwww.png",320,240 M,0,58052,102052,150,388 F,0,101052,102052,1,0
Sprite,Foreground,Centre,"SB\Louis Cyphrewww.png",320,240 F,0,104052,105052,0,1 M,0,104052,136052,150,388 F,0,135052,136052,1,0
Sprite,Foreground,Centre,"SB\val0108wwww.png",320,240 F,0,141052,142052,0,1 M,0,142052,,150,388 F,0,142052,155052,1 M,0,142052,156052,150,388 F,0,155052,156052,1,0
Sprite,Foreground,Centre,"SB\Louis Cyphrewww.png",320,240 M,0,156052,173052,150,388 F,0,172052,173052,1,0
//Storyboard Sound Samples
//Background Colour Transformations
3,100,163,162,255

[TimingPoints]
52,500,4,2,1,70,1,0
58052,250,4,1,1,80,1,0
67989,-100,4,1,1,60,0,0
68989,-100,4,1,1,70,0,0
70052,-100,4,1,1,80,0,0
70489,-100,4,1,2,80,0,0
70614,-100,4,1,1,80,0,0
74489,-100,4,1,2,80,0,0
74614,-100,4,1,1,80,0,0
81739,-100,4,2,1,10,0,0
81927,-100,4,1,1,80,0,0
104989,-100,4,1,1,60,0,0
105989,-100,4,1,1,80,0,0
106489,-100,4,1,2,80,0,0
106614,-100,4,1,1,80,0,0
107489,-100,4,1,2,80,0,0
107614,-100,4,1,1,80,0,0
108489,-100,4,1,2,80,0,0
108614,-100,4,1,1,80,0,0
109489,-100,4,1,2,80,0,0
109614,-100,4,1,1,80,0,0
111677,-100,4,2,1,60,0,0
112052,-100,4,1,1,80,0,0
114489,-100,4,1,2,80,0,0
114614,-100,4,1,1,80,0,0
115489,-100,4,1,2,80,0,0
115614,-100,4,1,1,80,0,0
116489,-100,4,1,2,80,0,0
116614,-100,4,1,1,80,0,0
120489,-100,4,1,2,80,0,0
120614,-100,4,1,1,80,0,0
123489,-100,4,1,2,80,0,0
123614,-100,4,1,1,80,0,0
124489,-100,4,1,2,80,0,0
124614,-100,4,1,1,80,0,0
141989,-100,4,1,1,50,0,0
143302,-100,4,1,1,60,0,0
143552,-100,4,1,1,70,0,0
143802,-100,4,1,1,80,0,0
144489,-100,4,1,2,80,0,0
144614,-100,4,1,1,80,0,0
145489,-100,4,1,2,80,0,0
145614,-100,4,1,1,80,0,0
146489,-100,4,1,2,80,0,0
146614,-100,4,1,1,80,0,0
148489,-100,4,1,2,80,0,0
148614,-100,4,1,1,80,0,0
149489,-100,4,1,2,80,0,0
149614,-100,4,1,1,80,0,0
155552,-50,4,1,1,90,0,0
155802,-50,4,1,1,100,0,0
156052,-100,4,1,1,80,0,0
156489,-100,4,1,2,80,0,0
156614,-100,4,1,1,80,0,0
159489,-100,4,1,2,80,0,0
159614,-100,4,1,1,80,0,0
164489,-100,4,1,2,80,0,0
164614,-100,4,1,1,80,0,0
167489,-100,4,1,2,80,0,0
167614,-100,4,1,1,80,0,0
168489,-100,4,1,2,80,0,0
168614,-100,4,1,1,80,0,0

[Colours]
Combo1 : 128,255,255
Combo2 : 128,255,128
Combo3 : 202,149,149
Combo4 : 255,255,128

[HitObjects]
396,68,54052,6,0,B|443:155|411:251,1,190,2|0
116,316,55052,2,0,B|68:228|100:132,1,190,2|0
256,192,56052,5,2
256,184,56552,1,2
256,176,57052,1,0
156,52,58052,6,0,B|84:128,1,95,8|0
156,332,58302,2,0,B|84:256,1,95,10|0
28,192,58552,1,8
168,156,58677,2,0,B|204:124,2,47.5,0|0|10
232,228,58927,1,0
300,352,59052,2,0,B|344:252,1,95,8|0
312,124,59302,1,10
312,124,59427,1,0
400,160,59552,5,8
296,28,59677,1,0
384,68,59802,1,10
224,88,59927,1,10
328,220,60052,6,0,B|364:256|432:260,1,95,8|0
236,184,60302,2,0,B|128:184,1,95,10|0
52,144,60552,1,8
52,48,60677,1,0
52,48,60739,1,0
52,48,60802,1,10
136,88,60927,1,0
140,184,61052,6,0,B|92:276,1,95,8|0
372,200,61302,2,0,B|420:108,1,95,10|0
256,192,61552,1,8
208,316,61677,1,10
296,80,61927,5,10
304,272,62052,2,0,B|356:268|404:236,1,95,8|0
208,112,62302,2,0,B|160:120|108:148,1,95,10|0
304,272,62552,2,0,B|324:320|376:344,1,95,8|0
208,112,62802,2,0,B|184:60|132:40,1,95,10|0
304,272,63052,2,0,B|252:280|216:344,1,95,8|0
208,112,63302,2,0,B|260:104|296:40,1,95,10|0
152,280,63552,2,0,B|136:336|164:384,1,95,8|0
360,104,63802,2,0,B|376:48|348:0,2,95,10|2|8
292,172,64177,5,0
272,184,64239,1,0
252,196,64302,1,10
160,172,64427,1,0
76,216,64552,1,8
76,216,64614,1,8
76,216,64677,1,8
80,120,64802,2,8,B|44:84,2,47.5,10|0|0
172,64,65052,5,8
152,280,65177,1,2
256,328,65302,2,8,B|256:396,4,47.5
256,240,65677,1,2
360,280,65802,5,10
360,280,65864,1,8
360,280,65927,1,10
360,280,65989,1,8
360,280,66052,1,8
304,240,68052,5,8
304,240,68302,1,8
204,128,68552,1,8
204,128,68802,1,8
413,61,69052,6,8,B|376:32,1,47.5,8|0
428,132,69177,2,8,B|463:162,1,47.5
360,112,69302,2,8,B|322:82,1,47.5
376,184,69427,2,8,B|411:214,1,47.5
308,160,69552,2,8,B|270:130,1,47.5
320,232,69677,2,8,B|355:262,1,47.5
248,200,69802,2,8,B|210:170,1,47.5
260,272,69927,2,8,B|295:302,1,47.5
184,252,70052,6,0,B|80:284,2,95,8|0|10
86,95,70427,2,0,B|86:159|170:171|186:263,1,190
176,96,70802,2,0,B|224:72|232:20,1,95,10|0
136,24,71052,1,8
252,156,71177,1,0
324,32,71302,1,10
480,140,71427,1,0
404,260,71552,1,8
368,144,71677,2,0,B|376:120|368:76,2,47.5,0|0|10
300,236,71927,1,10
336,324,72052,6,0,B|440:376,2,95,8|0|10
300,236,72427,2,0,B|300:136,1,95,0|8
256,56,72677,1,0
212,141,72802,2,0,B|212:236,1,95,10|0
156,312,73052,2,8,B|116:348,2,47.5
108,228,73302,1,10
32,172,73427,1,2
400,112,73677,5,0
324,56,73802,1,10
408,16,73927,1,10
236,92,74052,5,8
316,152,74177,1,0
220,192,74302,1,10
388,207,74427,2,0,B|224:83,1,190
160,36,74802,1,10
76,80,74927,1,0
152,136,75052,5,8
56,300,75177,1,0
196,272,75302,2,0,B|104:220,1,95,10|0
52,152,75552,1,8
140,356,75677,1,0
140,356,75739,1,0
140,356,75802,2,0,B|192:368|236:352,1,95,10|2
432,284,76052,5,8
340,308,76177,2,0,B|360:364|420:384,1,95,2|8
372,216,76427,1,2
212,168,76552,5,8
304,144,76677,2,0,B|284:88|224:68,1,95,2|8
272,236,76927,1,2
392,120,77052,5,8
120,120,77177,1,2
204,252,77302,1,8
204,252,77364,1,0
204,252,77427,2,0,B|260:336,1,95,2|8
148,376,77677,1,2
108,292,77802,1,8
92,272,77864,1,0
80,252,77927,1,2
64,232,77989,1,0
48,212,78052,6,0,B|152:212,1,95,8|0
464,212,78302,2,0,B|360:212,1,95,10|0
80,144,78552,2,0,B|184:144,1,95,8|0
432,144,78802,2,0,B|328:144,1,95,10|2
48,76,79052,6,0,B|156:76,1,95,8|0
464,76,79302,2,0,B|356:76,1,95,10|0
68,8,79552,2,0,B|163:8,1,95,8|0
444,8,79802,2,0,B|349:8,1,95,10|2
256,8,80052,6,0,B|256:120,1,95,8|0
256,376,80302,2,0,B|256:264,1,95,10|0
96,192,80552,2,0,B|200:192,1,95,8|0
416,192,80802,2,0,B|312:192,1,95,10|10
256,192,81052,12,0,81802
80,56,82052,5,8
172,36,82177,1,0
80,88,82302,1,10
188,60,82427,1,0
80,120,82552,1,8
204,84,82677,1,0
168,176,82802,1,10
168,176,82927,1,2
180,272,83052,5,8
232,352,83177,1,0
208,248,83302,1,10
268,340,83427,1,0
236,224,83552,1,8
304,328,83677,1,0
352,216,83802,1,10
352,216,83927,1,2
360,120,84052,5,8
276,164,84177,1,0
352,84,84302,1,10
248,136,84427,1,0
344,44,84552,1,8
220,100,84677,1,0
256,12,84802,1,10
256,12,84927,1,2
164,36,85052,6,0,B|60:36,1,95,8|2
48,128,85302,2,8,B|16:172,3,47.5
0,188,85552,2,8,B|76:256,1,95,8|10
144,318,85802,1,2
164,306,85864,1,0
184,294,85927,1,2
204,282,85989,1,0
224,270,86052,6,0,B|140:210,1,95,8|0
280,184,86302,2,0,B|388:248,1,95,10|0
344,328,86552,1,8
440,304,86677,1,0
460,184,86802,1,0
384,128,86927,1,10
288,80,87052,5,8
396,20,87177,1,0
384,128,87302,1,10
280,184,87427,1,0
180,216,87552,5,8
100,268,87677,1,8
16,220,87802,1,8
96,168,87927,1,8
175,123,88052,6,0,B|176:12,1,95,8|0
337,261,88302,2,0,B|336:372,1,95,10|0
252,312,88552,1,8
160,340,88677,2,0,B|112:360,2,47.5,0|0|2
40,276,88927,1,0
135,276,89052,5,8
188,92,89177,1,0
244,224,89302,1,10
312,48,89427,1,0
424,136,89552,2,0,B|320:136,1,95,8|8
144,176,89802,5,10
144,176,89864,1,0
144,176,89927,1,2
144,176,89989,1,0
144,176,90052,2,0,B|92:152|72:104,2,95,8|0|10
228,344,90427,1,0
256,156,90552,1,8
112,284,90677,1,0
236,256,90802,2,0,B|348:228,1,95,10|0
444,300,91052,5,8
352,132,91177,1,0
508,188,91302,2,0,B|412:188,1,95,10|0
328,232,91552,5,8
420,64,91677,1,0
257,132,91802,2,0,B|353:132,1,95,10|10
324,40,92052,5,8
257,132,92177,1,2
188,40,92302,1,8
257,132,92427,1,2
256,250,92552,5,8
208,332,92677,1,2
303,332,92802,1,8
256,250,92927,1,2
180,192,93052,5,8
148,192,93302,1,10
116,192,93552,5,8
40,136,93677,1,2
80,48,93802,1,8
148,112,93927,1,2
168,20,94052,6,0,B|268:20,1,95,8|0
456,40,94302,2,0,B|364:108,1,95,10|0
340,268,94552,1,8
404,200,94677,1,0
320,160,94802,2,0,B|208:160,1,95,10|8
112,264,95052,6,0,B|16:264,2,95,8|0|10
208,336,95427,1,0
69,184,95552,2,0,B|164:184,1,95,8|8
244,92,95802,1,10
280,80,95864,1,0
316,68,95927,1,2
352,60,95989,1,0
388,52,96052,6,0,B|436:80|500:52,2,95,8|0|10
356,144,96427,1,0
276,196,96552,2,0,B|316:248|288:292,1,95,8|0
148,328,96802,1,10
236,360,96927,1,0
208,256,97052,6,0,B|180:204|208:156,1,95,8|0
280,16,97302,2,0,B|308:68|280:116,1,95,10|0
208,256,97552,1,8
104,112,97677,1,0
44,240,97802,2,8,B|36:184,2,47.5,10|8|8
104,112,98052,5,0
104,112,98177,2,0,B|188:60,1,95,0|10
96,24,98427,1,0
204,152,98552,2,0,B|308:216,1,95,8|0
404,352,98802,1,10
372,168,98927,1,8
304,332,99052,5,8
372,264,99177,1,0
467,264,99302,2,0,B|468:152,1,95,10|0
484,76,99552,1,8
408,20,99677,1,0
336,84,99802,1,10
312,92,99864,1,8
288,100,99927,1,10
264,108,99989,1,8
240,116,100052,2,0,B|144:144,1,95,8|2
240,268,100302,2,0,B|144:240,1,95,8|2
68,192,100552,5,0
38,121,100677,1,10
38,262,100802,1,8
64,98,100927,1,10
64,285,101052,5,8
97,75,101302,1,10
97,308,101552,1,10
122,59,101802,5,8
168,192,101927,1,8
122,324,102052,1,12
260,108,105052,6,0,B|305:124|330:167,1,95,8|0
256,288,105302,2,0,B|210:271|185:228,1,95,8|0
256,76,105552,1,8
372,192,105677,1,2
256,308,105802,1,8
136,192,105927,1,2
124,92,106052,6,0,B|72:100|32:140|32:192|48:236,1,190,8|10
388,292,106427,2,0,B|440:284|480:244|480:192|464:148,1,190
456,52,106802,2,0,B|408:64|384:108,1,95,10|2
288,108,107052,6,0,B|200:72|80:100,1,190,8|2
224,276,107427,2,0,B|312:312|432:284,1,190
384,196,107802,2,0,B|400:152|384:104,1,95,10|2
312,40,108052,6,0,B|212:8|120:24,1,190,8|10
200,344,108427,2,0,B|300:376|392:360,1,190
320,292,108802,2,0,B|332:196,1,95,10|2
424,212,109052,2,0,B|432:140|380:108|380:108|372:68|396:36,1,190,8|10
88,172,109427,2,0,B|80:244|132:276|132:276|140:316|116:348,1,190
36,300,109802,2,0,B|12:260|8:208,1,95,10|2
92,164,110052,6,0,B|100:112|144:84,1,95,8|2
420,220,110302,2,0,B|412:272|368:300,1,95,8|2
27,129,110552,2,0,B|48:84|36:36,1,95,8|2
484,254,110803,2,0,B|468:300|476:348,1,95,8|10
256,192,111052,5,10
256,192,111114,1,0
256,192,111177,1,2
256,192,111239,1,0
256,192,111303,1,10
256,192,111365,1,0
256,192,111427,1,2
256,192,111490,1,0
256,192,111552,1,10
344,152,111677,5,2
168,232,111802,1,8
416,204,111927,1,8
96,176,112052,2,0,B|68:136|72:84,1,95,8|0
416,204,112302,2,0,B|444:244|440:296,1,95,10|0
476,132,112552,2,0,B|431:95|379:99|335:127|327:179,1,190,8|10
256,244,112927,1,0
176,296,113052,6,0,B|136:268|128:216,1,95,8|0
40,184,113302,1,10
256,336,113427,1,0
40,172,113552,2,0,B|56:76|152:24,1,190,8|10
172,116,113927,1,10
264,144,114052,6,0,B|356:128,1,95,8|0
440,176,114302,1,10
181,273,114427,2,0,B|272:272|368:236,1,190
360,332,114802,5,10
380,240,114927,1,0
440,176,115052,2,0,B|424:108|424:108|384:60|316:76,1,190,8|10
72,208,115427,2,0,B|88:276|88:276|128:324|196:308,1,190
372,252,115802,5,10
316,75,115927,1,10
140,132,116052,1,8
128,36,116177,2,0,B|77:47|56:96,1,95,0|10
240,104,116427,2,0,B|224:152|228:200|284:184|288:228|276:280,1,190
384,348,116802,2,0,B|434:336|456:288,1,95,10|0
372,244,117052,6,0,B|372:140,1,95,8|0
140,140,117302,2,0,B|140:244,1,95,10|0
256,96,117552,2,0,B|256:288,1,190,8|8
172,332,117927,5,10
80,308,118052,2,0,B|32:288|16:240,1,95,8|2
348,260,118302,5,8
440,236,118427,2,0,B|488:216|504:168,1,95,2|8
156,240,118677,5,2
64,216,118802,2,0,B|16:196|0:148,1,95,8|2
380,148,119052,6,0,B|420:120|436:68,1,95,8|10
340,64,119302,1,8
331,60,119364,1,8
322,64,119427,1,10
314,58,119489,1,8
305,61,119552,2,0,B|252:60|216:96,1,95,0|2
172,320,119802,5,8
181,324,119864,1,8
190,320,119927,1,10
198,326,119989,1,8
207,323,120052,2,0,B|260:324|296:288,1,95,8|0
256,192,120302,1,10
168,232,120427,6,0,B|120:232|120:232|72:212|60:152|76:112,1,190
344,152,120802,2,0,B|392:152|392:152|440:172|452:232|436:272,1,190,10|8
348,232,121177,1,0
340,72,121302,1,10
460,112,121427,1,0
232,200,121552,2,0,B|200:164|188:112|208:64|208:64|176:28,1,190,8|10
116,104,121927,1,2
132,196,122052,6,0,B|148:244|184:276,1,95,8|0
380,196,122302,2,0,B|364:244|328:276,1,95,10|0
48,204,122552,2,0,B|79:298|150:361,1,190,8|10
256,192,122927,1,0
464,180,123052,2,0,B|432:85|361:22,1,190,8|10
316,108,123427,2,0,B|216:80|136:156,1,190,0|8
56,104,123802,5,10
56,199,123927,2,0,B|16:235|16:291,1,95,10|8
104,64,124177,1,0
104,208,124302,1,10
152,124,124427,6,0,B|196:216|156:320,1,190
240,360,124802,2,0,B|284:272|392:236,1,190,10|8
380,336,125177,1,0
460,284,125302,2,0,B|484:240|472:188,1,95,10|0
408,124,125552,2,0,B|224:72,1,190,8|10
132,44,125927,5,2
36,36,126052,2,0,B|32:92|72:120,1,95,8|2
256,192,126302,1,8
476,348,126427,6,0,B|480:292|440:264,1,95,2|8
256,192,126677,1,2
408,124,126802,5,8
104,260,126927,1,2
440,48,127052,5,8
72,336,127302,1,10
256,192,127552,1,10
256,192,127802,6,0,B|256:160,7,23.75
256,192,128052,1,0
256,192,128177,1,0
208,284,128302,1,10
216,292,128427,1,0
312,288,128552,1,8
320,296,128677,1,0
416,292,128802,1,10
424,300,128927,1,2
108,187,129052,5,8
117,198,129177,1,0
250,204,129302,1,10
240,194,129427,1,0
372,200,129552,1,8
381,209,129677,1,0
512,214,129802,1,10
502,204,129927,1,2
103,81,130052,6,0,B|100:176,1,95,8|0
360,284,130302,2,0,B|363:189,1,95,10|0
236,92,130552,2,0,B|232:186,1,95,8|0
492,290,130802,2,0,B|496:196,1,95,10|2
480,104,131052,1,8
124,304,131302,6,0,B|152:292,8,23.75
220,260,131677,2,0,B|248:264,4,23.75,2|0|0|0|0
280,268,131864,2,8,B|344:256,2,47.5,8|10|8
352,248,132052,2,0,B|404:224|420:176,1,95,8|0
268,44,132302,2,0,B|216:68|200:116,1,95,10|0
365,256,132552,2,0,B|425:228|443:173,1,95,8|0
269,22,132802,2,0,B|210:50|191:104,1,95,10|2
104,96,133052,6,0,B|152:180,1,95,8|0
139,338,133302,2,0,B|92:256,1,95,10|0
76,78,133552,2,0,B|133:177,1,95,8|0
118,364,133802,2,0,B|62:267,1,95,10|2
164,256,134052,6,0,B|256:288,1,95,8|0
425,208,134302,2,0,B|336:240,1,95,10|0
158,171,134552,2,0,B|250:203,1,95,8|0
420,124,134802,2,0,B|330:155,1,95,10|2
180,96,135052,5,8
392,48,135177,1,2
176,88,135302,1,8
388,40,135427,2,0,B|380:16,4,23.75,2|0|0|0|8
300,148,135677,1,2
172,80,135802,2,0,B|164:56,8,23.75,10|0|0|2|0|0|0|0|6
292,148,142052,5,8
204,240,142302,1,8
184,84,142552,1,8
328,300,142802,1,8
120,60,143052,6,0,B|76:36,1,47.5,8|0
104,124,143177,2,0,B|56:124,1,47.5
124,188,143302,2,0,B|72:208,1,47.5,8|0
164,240,143427,2,0,B|128:280,1,47.5
224,264,143552,2,0,B|212:312,1,47.5,8|0
288,264,143677,2,0,B|292:324,1,47.5
348,240,143802,2,0,B|388:284,1,47.5,8|0
392,192,143927,2,0,B|456:212,1,47.5
408,128,144052,6,0,B|516:120,2,95,8|0|10
184,20,144427,2,0,B|372:60,1,190
272,140,144802,1,10
272,140,144927,1,2
108,104,145052,6,0,B|12:132,2,95,8|0|10
292,256,145427,2,0,B|100:204,1,190
180,336,145802,1,10
180,336,145927,1,2
352,336,146052,6,0,B|456:320,2,95,8|0|10
200,184,146427,2,0,B|400:244,1,190
256,96,146802,1,10
116,128,146927,1,2
68,244,147052,5,8
416,208,147302,1,10
88,80,147552,1,8
400,356,147802,1,10
204,148,148052,6,0,B|152:156|116:208,2,95,8|0|10
157,321,148427,2,0,B|209:273|229:201|197:129,1,190
204,147,148802,1,10
204,147,148927,1,0
124,196,149052,6,0,B|76:171|60:120,2,95,8|0|10
110,18,149427,2,0,B|150:66|158:130|118:210,1,190
124,196,149802,1,10
124,196,149927,1,2
63,126,150052,6,0,B|20:163|20:215,2,95,8|0|8
88,296,150427,1,10
420,296,150677,5,0
348,236,150802,1,10
420,176,150927,1,2
352,112,151052,2,0,B|408:24,2,95,8|0|10
272,60,151427,1,0
144,40,151552,5,8
48,32,151677,1,0
128,124,151802,2,0,B|24:144,1,95,10|0
160,204,152052,1,8
76,248,152177,1,0
212,272,152302,2,0,B|144:360,1,95,10|0
300,272,152552,1,8
360,348,152677,1,0
256,356,152802,5,10
256,356,152927,1,2
360,348,153052,5,8
300,272,153177,1,2
436,248,153302,2,0,B|340:200,1,95,8|2
476,140,153552,1,8
384,124,153677,1,2
464,32,153802,2,0,B|368:36,1,95,8|2
188,68,154052,6,0,B|132:48,7,47.5,8|0|0|0|8|0|0|0
304,116,154552,2,0,B|360:96,7,47.5,8|0|0|0|8|0|0|0
184,196,155052,6,0,B|156:208,14,23.75,8|0|0|0|0|0|0|0|0|0|0|0|0|0|0
300,256,155552,6,0,B|336:304,14,47.5,0|0|0|0|2|0|0|0|2|0|0|0|2|0|0
300,256,156052,5,8
184,196,156177,1,0
304,116,156302,1,10
188,64,156427,6,0,B|88:40|4:96,1,190
324,320,156802,2,0,B|424:344|508:288,1,190,10|8
336,284,157177,5,0
480,260,157302,1,10
316,256,157427,1,0
496,217,157552,2,0,B|396:193|312:249,1,190,8|10
256,172,157927,5,2
188,104,158052,2,0,B|96:128,1,95,8|0
120,36,158302,1,10
256,172,158427,1,0
80,232,158552,2,0,B|180:236|260:180,1,190,8|10
348,216,158927,1,0
336,120,159052,6,0,B|376:108|396:60|396:60|500:60,1,190,8|10
176,264,159427,2,0,B|136:276|116:324|116:324|12:324,1,190
48,236,159802,5,10
20,144,159927,1,10
64,60,160052,2,0,B|152:96,1,95,8|0
448,60,160302,2,0,B|360:96,2,95,10|0|8
464,152,160677,1,0
384,204,160802,6,0,B|296:264|272:360,1,190,10|8
180,332,161177,2,0,B|160:236,1,95,0|10
312,136,161427,1,0
148,280,161552,2,0,B|112:84,1,190,8|10
204,120,161927,5,2
24,60,162052,2,0,B|48:160,1,95,8|2
308,264,162302,5,8
488,324,162427,2,0,B|464:224,1,95,2|8
464,148,162677,5,2
308,120,162802,1,8
204,264,162927,1,2
48,236,163052,2,0,B|48:188|76:140,1,95,10|8
464,148,163302,2,0,B|464:196|436:244,2,95
368,168,163677,5,2
144,168,163802,1,2
344,248,163927,1,2
180,96,164052,5,8
60,176,164177,1,0
192,240,164302,1,10
100,272,164427,6,0,B|112:328|160:356|212:352|252:324,1,190
412,112,164802,2,0,B|400:56|352:28|300:32|260:60,1,190,10|8
188,120,165177,1,0
316,168,165302,1,10
188,224,165427,1,0
312,284,165552,2,0,B|368:272|408:288|408:288|476:220,1,190,8|10
380,200,165927,5,2
424,116,166052,2,0,B|376:96|332:116,1,95,8|0
256,192,166302,1,10
88,268,166427,2,0,B|136:288|180:268,1,95,0|8
132,184,166677,5,0
312,88,166802,1,10
120,168,166927,1,0
304,76,167052,6,0,B|376:112|376:112|400:168|452:184,1,190,8|10
208,308,167427,2,0,B|136:272|136:272|112:216|60:200,1,190
52,104,167802,6,0,B|144:64,1,95,10|10
204,136,168052,1,8
60,200,168177,1,0
240,212,168302,1,10
92,276,168427,6,0,B|96:328|96:328|128:364|180:364|224:344,1,190
420,108,168802,2,0,B|416:56|416:56|384:20|332:20|288:40,1,190,10|8
316,132,169177,1,0
388,196,169302,6,0,B|408:296,1,95,10|0
124,188,169552,2,0,B|104:88,1,95,8|0
200,84,169802,5,10
312,84,169927,1,2
256,196,170052,1,8
256,188,170177,1,2
312,84,170302,5,8
184,305,170427,1,2
256,196,170552,1,8
256,200,170677,1,2
200,84,170802,5,8
328,305,170927,1,2
416,344,171052,6,0,B|488:272|472:168,1,190,8|10
256,196,171427,1,0
96,40,171552,2,0,B|24:112|40:216,1,190,8|10
256,196,171927,1,0
468,48,172052,6,0,B|380:88,1,95,8|0
44,336,172302,2,0,B|132:296,1,95,10|0
256,196,172552,1,10
416,296,172802,6,0,B|440:276,8,23.75
