osu file format v9

[General]
AudioFilename: atama no taisou.mp3
AudioLeadIn: 0
PreviewTime: 7302
Countdown: 0
SampleSet: Soft
StackLeniency: 0.7
Mode: 0
LetterboxInBreaks: 1

[Editor]
Bookmarks: 60038,98038,148038,172038,214038,246038
DistanceSpacing: 0.5
BeatDivisor: 4
GridSize: 4

[Metadata]
Title:Atama no Taisou
Artist:Hatsune Miku
Creator:val0108
Version:0108
Source:hapi
Tags:vocaloid vocaloid2 Love inaba-tan Lucifer Louis Cyphre Blue Dragon AngelHoney

[Difficulty]
HPDrainRate:7
CircleSize:4
OverallDifficulty:8
ApproachRate:9
SliderMultiplier:1.9
SliderTickRate:2

[Events]
//Background and Video events
0,0,"BG.jpg"
//Break Periods
2,66252,67452
2,102252,104452
2,136252,141452
//Storyboard Layer 0 (Background)
//Storyboard Layer 1 (Fail)
//Storyboard Layer 2 (Pass)
//Storyboard Layer 3 (Foreground)
//Storyboard Sound Samples
//Background Colour Transformations
3,100,163,162,255

[TimingPoints]
52,500,4,2,1,70,1,0
58052,250,4,1,1,80,1,0
67989,-100,4,1,1,60,0,0
68989,-100,4,1,1,70,0,0
70052,-100,4,1,1,80,0,0
70489,-100,4,1,2,80,0,0
70614,-100,4,1,1,80,0,0
72489,-100,4,1,2,80,0,0
72614,-100,4,1,1,80,0,0
74489,-100,4,1,2,80,0,0
74614,-100,4,1,1,80,0,0
81739,-100,4,2,1,10,0,0
81927,-100,4,1,1,80,0,0
104989,-100,4,1,1,60,0,0
105989,-100,4,1,1,80,0,0
111677,-100,4,2,1,60,0,0
112052,-100,4,1,1,80,0,0
112489,-100,4,1,2,80,0,0
112614,-100,4,1,1,80,0,0
114489,-100,4,1,2,80,0,0
114614,-100,4,1,1,80,0,0
116489,-100,4,1,2,80,0,0
116614,-100,4,1,1,80,0,0
120489,-100,4,1,2,80,0,0
120614,-100,4,1,1,80,0,0
124489,-100,4,1,2,80,0,0
124614,-100,4,1,1,80,0,0
141989,-100,4,1,1,50,0,0
143302,-100,4,1,1,60,0,0
143552,-100,4,1,1,70,0,0
143802,-100,4,1,1,80,0,0
144489,-100,4,1,2,80,0,0
144614,-100,4,1,1,80,0,0
145489,-100,4,1,2,80,0,0
145614,-100,4,1,1,80,0,0
146489,-100,4,1,2,80,0,0
146614,-100,4,1,1,80,0,0
148489,-100,4,1,2,80,0,0
148614,-100,4,1,1,80,0,0
149489,-100,4,1,2,80,0,0
149614,-100,4,1,1,80,0,0
155552,-50,4,1,1,90,0,0
155802,-50,4,1,1,100,0,0
156052,-100,4,1,1,80,0,0
156489,-100,4,1,2,80,0,0
156614,-100,4,1,1,80,0,0
160489,-100,4,1,2,80,0,0
160614,-100,4,1,1,80,0,0
164489,-100,4,1,2,80,0,0
164614,-100,4,1,1,80,0,0
168489,-100,4,1,2,80,0,0
168614,-100,4,1,1,80,0,0

[Colours]
Combo1 : 128,255,255
Combo2 : 128,255,128
Combo3 : 202,149,149
Combo4 : 255,255,128

[HitObjects]
256,68,54052,5,2
84,104,55052,1,2
428,104,56052,1,2
200,192,56552,1,2
316,192,57052,1,2
256,316,57552,5,8
312,304,58052,6,0,B|344:212,1,95,8|0
252,184,58302,1,10
116,320,58427,1,0
36,268,58552,2,0,B|72:236|136:228,1,95,8|0
208,268,58802,1,10
252,184,58927,1,0
172,160,59052,6,0,B|128:136|64:140,1,95,8|0
340,160,59302,2,0,B|384:136|448:140,1,95,10|0
401,49,59552,2,0,B|433:145,1,95,8|0
111,49,59802,2,0,B|79:145,1,95,10|2
80,139,59989,1,0
80,139,60052,6,0,B|64:184|80:236,1,95,8|0
144,304,60302,1,10
312,308,60427,2,0,B|276:276|216:272,1,95,0|8
144,304,60677,1,0
240,364,60802,1,10
280,192,60927,1,0
172,200,61052,6,0,B|172:248|232:276,1,95,8|0
356,144,61302,1,10
272,100,61427,1,0
280,192,61552,1,8
364,232,61677,1,10
16,264,61927,1,10
44,176,62052,6,0,B|126:128,1,95,8|0
140,32,62302,1,10
220,80,62427,1,0
220,176,62552,2,0,B|328:152,1,95,8|0
336,148,62739,1,0
356,144,62802,1,10
440,184,62927,1,0
356,48,63052,6,0,B|408:56|436:104,1,95,8|0
392,255,63302,1,10
508,129,63427,1,0
464,314,63552,2,0,B|430:353|369:345,1,95,8|0
305,285,63802,1,10
151,173,63927,1,8
241,339,64052,6,0,B|195:240,1,95,8|0
105,261,64302,1,10
11,277,64427,1,0
151,172,64552,1,8
57,191,64677,5,0
148,80,64802,1,10
256,176,64927,1,8
364,80,65052,1,0
456,192,65177,1,10
344,252,65301,5,8
344,252,65364,1,8
344,252,65427,2,0,B|280:252,2,47.5,10|8|8
292,332,65677,1,2
208,284,65802,1,8
184,284,65864,1,8
160,284,65927,1,10
136,284,65989,1,8
112,284,66052,1,8
180,128,68052,5,8
256,80,68302,1,8
332,128,68552,1,8
256,168,68802,1,8
256,256,69052,5,8
243,275,69114,1,8
230,294,69177,1,8
218,313,69239,1,8
205,333,69302,1,8
184,324,69364,1,8
164,312,69427,1,8
144,300,69489,1,8
124,288,69552,2,8,B|80:256,7,47.5
120,188,70052,5,8
56,56,70177,1,0
184,120,70302,1,10
320,72,70427,2,0,B|264:76|264:76|236:40|184:20|140:36,1,190
120,188,70802,2,0,B|160:220|220:212,1,95,10|0
296,160,71052,5,8
472,248,71177,1,0
280,280,71302,1,10
392,340,71427,1,0
376,228,71552,1,8
424,136,71677,1,0
424,136,71739,1,0
424,136,71802,2,0,B|452:92|432:32,1,95,10|2
340,64,72052,6,0,B|224:64,1,95,8|0
60,112,72302,1,10
84,276,72427,2,0,B|120:232|112:184|112:184|124:140|184:112,1,190
296,228,72802,1,10
204,244,72927,1,0
240,156,73052,6,0,B|288:128|348:152,1,95,8|0
456,72,73302,1,10
428,212,73427,2,0,B|444:264|412:320,1,95,0|8
332,340,73677,1,2
332,340,73739,1,0
332,340,73802,1,8
332,340,73864,1,0
332,340,73927,1,2
332,340,73989,1,0
332,340,74052,6,0,B|292:308|232:308,1,95,8|0
104,344,74302,1,10
112,212,74427,2,0,B|72:164|120:84|120:84|96:96|68:88,1,190
112,212,74802,2,0,B|156:248|216:244,1,95,10|0
196,148,75052,1,8
360,48,75177,1,0
264,212,75302,1,10
200,32,75427,1,0
352,192,75552,6,0,B|332:140|280:112,1,95,8|0
264,212,75802,1,2
332,280,75927,1,2
420,104,76052,6,0,B|452:56|496:48,1,95,8|2
496,144,76302,1,8
496,239,76427,1,2
420,280,76552,2,0,B|452:328|496:336,1,95,8|2
496,240,76802,1,8
496,144,76927,1,2
416,192,77052,6,0,B|304:192,1,95,10|2
228,192,77302,1,10
204,192,77364,1,8
180,192,77427,1,10
156,192,77489,1,8
132,192,77552,1,8
44,224,77677,1,2
80,312,77802,1,8
104,312,77864,1,8
128,312,77927,1,10
152,312,77989,1,8
176,312,78052,6,0,B|208:352|260:360,1,95,8|0
192,288,78302,2,0,B|240:305|288:285,1,95,10|2
192,260,78552,2,0,B|242:250|273:208,1,95,8|0
440,320,78802,5,10
440,320,78927,1,0
480,60,79052,6,0,B|448:20|396:12,1,95,8|0
464,84,79302,2,0,B|415:66|367:86,1,95,10|2
464,112,79552,2,0,B|413:121|382:163,1,95,8|0
204,76,79802,5,10
204,76,79927,1,0
156,192,80052,5,8
352,192,80177,1,0
256,192,80302,1,10
256,192,80427,1,2
256,97,80552,5,8
256,288,80677,1,0
256,192,80802,1,10
256,192,80927,1,2
256,192,81052,12,0,81802
58,158,82052,6,0,B|61:210|112:240,1,95,8|0
117,88,82302,2,0,B|68:112|58:158,1,95,10|2
163,165,82552,2,0,B|160:112|112:84,1,95,8|0
107,236,82802,2,0,B|156:216|163:165,1,95,10|0
379,297,83052,6,0,B|426:318|476:287,1,95,8|0
346,212,83302,2,0,B|343:266|380:296,1,95,10|2
436,208,83552,2,0,B|387:185|339:214,1,95,8|0
472,290,83802,2,0,B|476:237|435:207,1,95,10|0
200,304,84052,6,0,B|240:344|296:340,1,95,8|0
144,136,84302,2,0,B|104:176|108:232,1,95,2|2
312,80,84552,2,0,B|272:40|216:44,1,95,8|0
368,248,84802,2,0,B|408:208|404:152,1,95,10|0
308,168,85052,5,8
220,132,85177,1,10
192,224,85302,1,8
212,232,85364,1,8
236,240,85427,1,10
260,248,85489,1,8
284,256,85552,1,8
308,168,85677,1,2
220,132,85802,1,8
196,132,85864,1,8
172,132,85927,1,10
148,132,85989,1,8
124,132,86052,5,8
84,44,86177,1,0
36,128,86302,2,0,B|36:248,1,95,10|0
36,318,86552,1,8
116,268,86677,2,0,B|136:224,2,47.5,8|0|10
180,340,86927,1,0
256,284,87052,6,0,B|292:248|288:188,1,95,8|0
268,104,87302,1,10
388,236,87427,1,0
384,60,87552,2,0,B|348:96|352:156,1,95,8|2
388,236,87802,1,10
480,88,87927,1,2
452,180,88052,5,8
344,312,88177,1,0
476,268,88302,1,10
304,240,88427,1,0
220,288,88552,2,0,B|176:256|112:256,1,95,8|0
16,148,88802,2,0,B|52:184|124:180,1,95,10|0
176,120,89052,5,8
200,116,89114,1,0
224,112,89177,1,0
248,108,89239,1,0
272,104,89302,1,10
364,128,89427,1,0
292,192,89552,1,8
268,196,89614,1,0
244,200,89677,1,2
220,204,89739,1,0
196,208,89802,1,10
102,181,89927,1,2
44,256,90052,5,8
152,348,90177,2,0,B|202:340|227:295,2,95,0|10|0
140,252,90552,1,8
308,340,90677,2,0,B|356:368,2,47.5,8|8|10
388,164,90927,1,0
424,252,91052,5,8
336,288,91177,1,0
460,340,91302,1,10
508,216,91427,1,2
388,164,91552,6,0,B|340:140|284:152,1,95,8|2
124,220,91802,2,0,B|172:244|228:232,1,95,10|2
180,144,92052,5,8
256,296,92177,2,0,B|244:344|184:344,2,95,2|8|2
332,240,92552,1,8
256,88,92677,2,0,B|268:40|328:40,2,95,2|8|2
256,192,93052,5,0
96,88,93302,1,2
416,88,93552,1,0
356,188,93677,5,10
256,348,93802,1,8
156,188,93927,1,10
256,192,94052,6,0,B|280:136|252:88,1,95,8|0
164,92,94302,1,10
156,188,94427,1,0
80,244,94552,1,8
168,284,94677,1,0
168,284,94739,1,0
168,284,94802,1,10
92,344,94927,1,0
236,212,95052,6,0,B|268:260|248:304,1,95,8|0
184,372,95302,1,10
156,188,95427,1,0
216,116,95552,1,8
304,156,95677,1,2
304,156,95739,1,0
304,156,95802,1,10
388,108,95927,1,2
364,227,96052,6,0,B|288:143,1,95,8|0
129,16,96302,2,0,B|113:64|137:128,1,95,10|0
216,64,96552,2,0,B|328:64,1,95,8|0
400,28,96802,1,10
472,92,96927,1,0
480,184,97052,5,8
324,264,97177,1,0
428,268,97302,1,10
428,268,97427,1,0
372,344,97552,5,8
288,172,97677,1,2
480,184,97802,1,10
480,184,97864,1,0
480,184,97927,1,2
480,184,97989,1,0
480,184,98052,6,0,B|368:156,1,95,8|0
316,96,98302,1,10
316,96,98427,1,2
365,253,98552,6,0,B|389:157,1,95,8|0
196,288,98802,1,10
316,96,98927,1,0
32,184,99052,6,0,B|144:156,1,95,8|0
196,96,99302,1,10
196,96,99427,1,2
147,253,99552,6,0,B|123:157,1,95,8|2
316,288,99802,1,10
196,96,99927,1,2
316,288,100052,6,0,B|276:316|220:308,1,95,8|2
196,96,100302,2,0,B|236:68|292:76,1,95,8|2
256,192,100552,1,8
120,160,100677,2,0,B|60:132,2,47.5,2|0|8
148,304,100927,1,2
168,220,101052,5,10
52,344,101177,1,2
220,376,101302,1,8
220,376,101364,1,8
220,376,101427,2,8,B|272:356,2,47.5,10|8|8
148,304,101677,1,2
244,292,101802,1,8
264,282,101864,1,8
285,272,101927,1,10
306,262,101989,1,8
326,253,102052,1,8
104,308,105052,5,8
408,308,105302,1,8
168,204,105552,1,8
344,204,105802,1,8
204,76,106052,6,0,B|152:60|96:92,1,95,8|0
308,308,106302,2,0,B|360:324|416:292,1,95,0|2
252,148,106552,2,0,B|292:112|288:44,1,95,8|0
260,236,106802,2,0,B|220:272|224:340,1,95,10|0
344,204,107052,6,0,B|380:236|440:228,1,95,8|0
168,180,107302,2,0,B|132:148|72:156,1,95,10|2
400,140,107552,2,0,B|424:92|388:44,1,95,8|0
112,244,107802,2,0,B|88:292|124:340,1,95,10|0
328,100,108052,6,0,B|276:84|232:104,1,95,8|0
184,284,108302,2,0,B|236:300|280:280,1,95,10|2
168,44,108552,2,0,B|132:88|152:148,1,95,8|0
344,340,108802,2,0,B|380:296|360:236,1,95,2|0
78,187,109052,2,0,B|120:224|184:212,1,95,8|0
434,197,109302,2,0,B|392:160|328:172,1,95,10|2
256,96,109552,5,8
216,192,109677,1,8
256,288,109802,1,10
296,192,109927,1,10
256,192,110052,12,0,110802
304,124,111052,5,8
164,252,111177,1,10
208,124,111302,1,10
352,248,111427,1,10
256,208,111552,1,10
256,304,111677,5,2
256,304,111802,1,10
256,304,111927,1,10
168,336,112052,6,0,B|76:356,2,95,8|0|10
356,368,112427,2,0,B|204:232,1,190
108,144,112802,2,0,B|88:192|108:240,1,95,10|0
196,68,113052,1,8
316,216,113177,1,0
292,28,113302,2,0,B|300:80|260:132,1,95,10|0
196,180,113552,1,8
108,144,113677,1,2
108,144,113739,1,0
108,144,113802,1,10
108,144,113864,1,0
108,144,113927,1,2
108,144,113989,1,0
108,144,114052,6,0,B|96:88|56:68,2,95,8|0|10
312,288,114427,2,0,B|240:296|184:284|128:224,1,190
44,216,114802,2,0,B|24:264|48:320,1,95,10|0
44,216,115052,2,0,B|108:240|152:148|256:204,1,190,8|10
456,68,115427,2,0,B|408:112|348:108,1,95,0|8
240,52,115677,1,2
240,52,115739,1,0
240,52,115802,1,10
240,52,115864,1,8
240,52,115927,1,10
240,52,115989,1,8
240,52,116052,6,0,B|288:144,2,95,0|0|10
172,120,116427,2,0,B|120:120|120:120|96:164|40:176|-16:136,1,190,0|0
44,60,116802,1,10
136,32,116927,1,0
172,120,117052,5,8
156,292,117177,1,0
308,216,117302,1,10
172,120,117427,1,0
156,292,117552,1,8
240,356,117677,1,2
240,356,117739,1,0
240,356,117802,2,0,B|264:308|232:248,1,95,10|2
256,172,118052,5,8
208,92,118177,2,0,B|256:80|316:96,1,95,2|8
256,8,118427,1,2
96,176,118552,1,8
212,248,118677,2,0,B|260:272|332:236,1,95,2|8
416,176,118927,1,2
484,240,119052,5,10
484,240,119177,1,2
408,312,119301,1,8
408,312,119364,1,8
408,312,119427,2,8,B|392:368,2,47.5,10|8|10
316,328,119677,1,2
340,236,119802,1,8
328,216,119864,1,8
316,196,119927,1,10
304,176,119989,1,8
292,156,120052,6,0,B|248:132|192:144,2,95,8|0|10
232,228,120427,2,0,B|160:240|92:220|60:152,1,190
232,228,120802,2,0,B|232:284|192:320,1,95,10|0
116,360,121052,5,8
28,324,121177,2,8,B|72:304,2,47.5,0|0|10
8,240,121427,1,0
66,165,121552,2,0,B|110:133|174:133,1,95,8|2
220,64,121802,1,10
336,216,121927,1,2
482,131,122052,6,0,B|428:124|388:136,1,95,8|0
248,112,122302,1,10
336,216,122427,2,0,B|316:268|344:324,1,95,0|8
420,264,122677,1,0
468,344,122802,1,10
420,264,122927,1,0
468,344,123052,2,0,B|380:328|344:328|264:340,1,190,8|10
100,280,123427,2,0,B|152:264|196:284,1,95,0|8
352,192,123677,5,10
304,192,123739,1,8
257,192,123802,1,10
209,192,123864,1,8
162,192,123927,1,10
116,128,124052,6,0,B|84:76|128:20,2,95,8|0|10
300,124,124427,2,0,B|220:84|184:164|108:124,1,190
28,172,124802,1,10
100,336,124927,1,0
40,264,125052,5,8
162,192,125177,1,2
212,376,125302,1,8
348,244,125427,1,2
236,288,125552,1,8
272,200,125677,1,2
272,200,125739,1,0
272,200,125802,1,8
220,120,125927,1,2
124,92,126052,6,0,B|136:40|192:24,2,95,8|2|8
196,280,126427,1,2
388,92,126552,2,0,B|376:40|320:24,2,95,8|2|8
316,280,126927,1,2
256,160,127052,5,8
120,344,127302,1,10
392,344,127552,1,10
256,264,127802,6,0,B|256:300,6,23.75,2|0|0|0|0|0|0
176,232,128052,6,0,B|124:232|80:268,1,95,8|0
336,152,128302,2,0,B|388:152|432:116,1,95,10|2
128,192,128552,2,0,B|80:171|25:187,1,95,8|0
384,192,128802,2,0,B|431:212|486:196,1,95,10|0
216,156,129052,6,0,B|189:111|135:92,1,95,8|0
296,228,129302,2,0,B|322:272|376:291,1,95,10|2
188,272,129552,2,0,B|148:300|148:356,1,95,8|0
324,112,129802,2,0,B|368:80|364:24,1,95,10|0
176,232,130052,6,0,B|124:236|92:188,1,95,8|0
336,152,130302,2,0,B|388:148|420:196,1,95,10|2
96,100,130552,2,0,B|40:104|16:148,1,95,8|0
416,284,130802,2,0,B|472:280|496:236,1,95,10|0
452,120,131052,5,8
356,44,131177,1,0
256,120,131302,2,0,B|228:140,8,23.75,2|0|0|0|0|0|0|0|0
281,212,131677,2,0,B|301:248,4,23.75,2|0|0|0|0
256,212,131864,1,0
232,212,131927,1,0
208,212,131989,1,0
184,212,132052,6,0,B|148:252|160:308,1,95,8|0
328,212,132302,2,0,B|364:252|352:308,1,95,10|2
128,236,132552,6,0,B|92:276|104:332,1,95,8|0
384,236,132802,2,0,B|420:276|408:332,1,95,2|0
96,184,133052,6,0,B|49:210|43:267,1,95,8|0
416,184,133302,2,0,B|462:210|468:267,1,95,10|2
115,114,133552,6,0,B|62:118|31:167,1,95,8|0
396,114,133802,2,0,B|449:118|480:167,1,95,10|0
176,96,134052,6,0,B|156:48|108:24,1,95,8|0
336,96,134302,2,0,B|356:48|404:24,1,95,10|2
198,172,134552,6,0,B|253:159|257:99,1,95,8|0
315,173,134802,2,0,B|260:160|256:100,1,95,2|0
256,192,135052,12,4,136052
120,88,142052,5,8
88,197,142302,1,8
198,229,142552,1,8
229,119,142802,1,8
344,64,143052,5,8
344,87,143114,1,8
344,110,143177,1,8
344,133,143239,1,8
344,156,143302,1,8
344,179,143364,1,8
344,202,143427,1,8
344,225,143489,1,8
344,248,143552,2,8,B|344:304,7,47.5
260,272,144052,5,8
80,332,144177,1,0
196,184,144302,1,10
204,372,144427,2,0,B|176:304|152:264|76:224,1,190
85,229,144802,1,10
85,229,144927,1,0
106,116,145052,5,8
293,99,145177,1,0
130,8,145302,1,10
196,184,145427,2,0,B|195:110|201:64|255:-2,1,190
249,8,145802,1,10
249,8,145927,1,0
352,88,146052,5,8
493,213,146177,1,0
307,187,146302,1,10
466,86,146427,2,0,B|421:144|398:185|401:270,1,190
402,259,146802,1,10
402,259,146927,1,0
320,352,147052,5,8
92,260,147302,1,10
172,28,147552,1,8
408,100,147802,1,10
164,140,148052,6,0,B|120:120|56:140,2,95,8|0|10
164,140,148427,2,0,B|112:200|104:268|160:340,1,190
248,240,148802,1,10
248,240,148927,1,0
316,104,149052,6,0,B|308:52|344:8,2,95,8|0|10
316,104,149427,2,0,B|384:88|448:104|496:160,1,190
384,208,149802,1,10
384,208,149927,1,0
336,296,150052,5,8
432,288,150177,1,0
392,372,150302,1,10
336,296,150427,1,8
336,296,150677,5,8
256,176,150802,1,10
176,296,150927,1,8
84,268,151052,5,8
156,204,151177,1,0
80,148,151302,1,10
144,76,151427,1,10
224,24,151552,5,8
224,24,151677,1,0
308,68,151802,1,10
308,68,151927,1,0
424,24,152052,1,8
424,24,152177,1,0
428,176,152302,1,10
428,176,152427,1,2
312,228,152552,1,8
312,228,152677,1,0
196,148,152802,1,10
196,148,152927,1,0
72,220,153052,5,8
72,220,153177,1,2
160,332,153302,1,8
160,332,153427,1,2
350,332,153552,1,8
350,332,153677,1,2
350,142,153802,1,8
350,142,153927,1,10
220,44,154052,6,0,B|268:16,7,47.5
200,56,154552,1,0
180,68,154614,1,0
160,80,154677,1,0
140,92,154739,1,0
120,104,154802,1,0
100,116,154864,1,0
120,128,154927,1,0
140,140,154989,1,0
160,152,155052,2,0,B|196:168,15,23.75
192,168,155552,6,0,B|240:188,14,47.5
136,328,156052,5,8
216,276,156177,1,0
300,316,156302,1,10
288,220,156427,2,0,B|328:172|376:192|376:192|440:200|468:136,1,190
288,220,156802,2,0,B|244:184|256:128,1,95,10|0
332,80,157052,5,8
248,32,157177,1,0
248,32,157239,1,0
248,32,157302,1,10
160,68,157427,1,0
68,92,157552,2,0,B|84:140|136:164,1,95,8|2
224,160,157802,1,10
204,312,157927,1,2
132,248,158052,5,8
112,340,158177,1,0
232,228,158302,1,10
292,304,158427,2,0,B|408:332,1,95,0|8
476,304,158677,1,0
400,184,158802,1,10
476,304,158927,1,0
400,184,159052,6,0,B|296:156,1,95,8|0
188,12,159302,1,10
220,200,159427,2,0,B|208:148|232:104,1,95,0|8
296,40,159677,5,2
120,116,159802,1,10
308,160,159927,1,2
364,84,160052,6,0,B|476:124,1,95,8|0
484,204,160302,1,10
277,312,160427,2,0,B|336:303|338:237|338:237|350:198|427:173,1,190
399,183,160802,1,10
424,276,160927,1,0
380,360,161052,5,8
304,200,161177,1,0
256,60,161302,1,10
208,200,161427,1,0
132,360,161552,1,8
256,272,161677,2,0,B|256:324,2,47.5,0|0|2
128,256,161927,1,2
48,188,162052,5,8
213,101,162177,2,0,B|161:101|117:145,1,95,2|8
16,292,162427,1,2
48,188,162552,2,0,B|24:136|48:88,1,95,8|2
104,24,162802,1,8
204,180,162927,1,2
393,180,163052,5,8
393,180,163177,1,2
316,236,163302,1,8
316,236,163364,1,8
316,236,163427,2,0,B|264:284,2,47.5,10|8|8
300,140,163677,1,2
260,56,163802,1,10
283,56,163864,1,8
306,56,163927,1,10
329,56,163989,1,8
352,56,164052,6,0,B|452:56,2,95,8|0|10
300,140,164427,2,0,B|100:140,1,190
14,140,164802,1,10
56,56,164927,1,0
104,224,165052,5,8
72,356,165177,2,0,B|12:336,2,47.5,0|0|10
196,324,165427,1,0
232,188,165552,1,8
324,272,165677,1,2
324,272,165739,1,0
324,272,165802,2,0,B|440:300,1,95,10|2
488,232,166052,5,8
404,188,166177,1,0
484,140,166302,1,10
420,68,166427,2,0,B|376:100|328:100,1,95,0|8
264,168,166677,1,0
264,25,166802,1,10
140,96,166927,1,0
264,168,167052,2,0,B|308:204|356:204,1,95,8|0
448,204,167302,1,10
404,288,167427,2,0,B|364:340|304:340,1,95,0|8
244,292,167677,5,10
220,292,167739,1,8
196,292,167802,1,10
172,292,167864,1,8
148,292,167927,1,10
124,292,167989,1,8
100,292,168052,6,0,B|80:240|96:196,1,95,8|0
188,176,168302,1,10
321,70,168427,2,0,B|247:50|183:58|121:110,1,190
44,108,168802,1,10
188,176,168927,1,0
276,208,169052,5,8
436,108,169177,1,2
436,298,169302,1,8
276,208,169427,1,2
364,160,169552,2,0,B|364:268,1,95,8|2
364,278,169739,1,0
364,301,169802,1,8
304,376,169927,1,2
223,373,170052,6,0,B|208:328|224:280,2,95,8|2|8
256,192,170427,1,2
288,10,170552,2,0,B|304:56|288:104,2,95,8|2|8
256,192,170927,1,2
161,192,171052,5,0
351,192,171302,1,10
100,128,171552,1,0
412,256,171802,1,10
32,192,172052,1,0
480,192,172302,1,10
100,256,172552,1,2
412,128,172802,1,8
412,128,172864,1,8
412,128,172927,1,8
412,128,172989,1,8
412,128,173052,1,12
