osu file format v9

[General]
AudioFilename: Arrow of Love.mp3
AudioLeadIn: 0
PreviewTime: 44815
Countdown: 0
SampleSet: Soft
StackLeniency: 0.7
Mode: 0
LetterboxInBreaks: 1

[Editor]
Bookmarks: 42259
DistanceSpacing: 0.6
BeatDivisor: 3
GridSize: 32

[Metadata]
Title:Arrow of Love
Artist:Hatsune Miku
Creator:Pokie
Version:Insane
Source:tokuP
Tags:eveless goodbye Crazy Jay toku MARiA Vocaloid Vocaloid2

[Difficulty]
HPDrainRate:7
CircleSize:4
OverallDifficulty:8
ApproachRate:9
SliderMultiplier:1.7
SliderTickRate:1

[Events]
//Background and Video events
0,0,"BG.jpg"
//Break Periods
2,67033,77121
2,132488,150758
//Storyboard Layer 0 (Background)
//Storyboard Layer 1 (Fail)
//Storyboard Layer 2 (Pass)
//Storyboard Layer 3 (Foreground)
//Storyboard Sound Samples
//Background Colour Transformations
3,100,0,0,0

[TimingPoints]
1379,340.909090909091,4,2,1,60,1,0
12288,-181.818181818182,4,2,1,50,0,0
14333,-181.818181818182,4,2,1,35,0,0
14844,-181.818181818182,4,2,1,45,0,0
15015,-181.818181818182,4,2,1,50,0,0
19788,-181.818181818182,4,2,1,35,0,0
20129,-181.818181818182,4,2,1,45,0,0
20469,-181.818181818182,4,2,1,50,0,0
23708,-133.333333333333,4,2,1,50,0,0
33765,-100,4,1,1,45,0,0
34106,-100,4,1,1,60,0,0
41606,-100,4,1,1,48,0,0
41776,-100,4,1,1,55,0,0
41947,-100,4,1,1,60,0,0
42117,-100,4,1,1,65,0,0
65469,-181.818181818182,4,1,1,65,0,0
65555,-181.818181818182,4,1,1,30,0,0
66833,-181.818181818182,4,1,1,65,0,0
77742,-181.818181818182,4,2,1,50,0,0
79788,-181.818181818182,4,2,1,38,0,0
80129,-181.818181818182,4,2,1,45,0,0
80469,-181.818181818182,4,2,1,50,0,0
83197,-133.333333333333,4,2,1,50,0,0
88310,-100,4,1,1,43,0,0
88651,-100,4,1,1,50,0,0
99560,-100,4,1,1,60,0,0
110469,-100,4,1,1,65,0,0
129560,-100,4,1,1,65,0,0
151208,-181.818181818182,4,2,1,40,0,0
162288,-133.333333333333,4,2,1,50,0,0
167742,-133.333333333333,4,1,1,40,0,0
167913,-133.333333333333,4,2,1,45,0,0
168594,-133.333333333333,4,1,1,45,0,0
168765,-133.333333333333,4,2,1,45,0,0
169106,-133.333333333333,4,1,1,45,0,0
169617,-133.333333333333,4,2,1,50,0,0
169958,-133.333333333333,4,2,1,55,0,0
170129,-133.333333333333,4,1,1,60,0,0
170384,-133.333333333333,4,1,1,40,0,0
170469,-100,4,1,1,70,0,0
180697,-100,4,1,1,60,0,0
180867,-100,4,1,1,65,0,0
181038,-100,4,1,1,68,0,0
181208,-100,4,1,1,70,0,0
185129,-100,4,1,1,65,0,0
185214,-100,4,1,1,62,0,0
185299,-181.818181818182,4,1,1,70,0,0
185384,-181.818181818182,4,2,1,5,0,0
186663,-181.818181818182,4,2,1,20,0,0
188026,-133.333333333333,4,2,1,45,0,0
190754,-133.333333333333,4,2,1,50,0,0
190924,-133.333333333333,4,1,1,60,0,0
196038,-100,4,1,1,60,0,0
196464,-100,4,2,1,60,0,0

[Colours]
Combo1 : 216,225,233
Combo2 : 136,179,204
Combo3 : 65,111,156
SliderBorder : 255,255,255

[HitObjects]
40,158,12288,1,0
40,158,12458,2,0,B|48:117|82:76,1,93.4999972134829
86,289,12969,2,0,B|151:244|133:165,1,140.249995820224
455,333,13992,1,0
455,333,14333,6,0,B|398:282|322:296,1,140.249995820224,4|0
309,187,15015,5,0
309,187,15185,2,0,B|312:140|288:94,1,93.4999972134829
200,302,15697,2,0,B|168:230|219:168,1,140.249995820224
391,107,16549,2,0,B|441:120|490:96,1,93.4999972134829
336,46,17060,6,0,B|311:50|293:66,1,46.7499986067415,0|0
215,99,17401,2,0,B|173:80|113:87,1,93.4999972134829,0|0
15,28,17913,6,0,B|5:78|27:121,1,93.4999972134829
118,202,18424,2,0,B|80:229|56:274,1,93.4999972134829
224,232,18935,6,0,B|247:186|238:139,1,93.4999972134829
231,356,19447,2,0,B|267:326|317:316,1,93.4999972134829,0|4
506,342,20128,1,0
474,256,20299,1,0
473,153,20469,6,0,B|436:182|386:192,1,93.4999972134829,0|0
209,60,20981,2,0,B|246:89|296:99,1,93.4999972134829,0|0
255,191,21492,6,0,B|306:197,1,46.7499986067415
250,199,21833,1,0
256,192,21918,12,4,23197
127,103,23708,5,2
127,103,23878,2,0,B|128:160|96:224,1,95.624997150153
82,228,24219,2,0,B|142:248|202:192,1,127.499996200204,8|0
274,67,24901,5,0
355,87,25072,1,2
355,87,25413,1,2
314,162,25583,2,0,B|294:191|291:223,1,63.749998100102
370,279,25924,5,0
291,220,26094,2,0,B|345:188|417:191,1,127.499996200204,0|2
238,286,26606,2,0,B|203:286|178:270,1,63.749998100102,0|0
159,276,26861,1,0
141,281,26947,2,0,B|120:256|116:220,1,63.749998100102,8|0
105,131,27288,5,2
151,55,27458,1,0
58,43,27628,1,8
171,31,27969,5,0
33,70,28140,1,8
96,179,28310,2,0,B|143:201|193:182,1,95.624997150153,0|0
214,163,28651,5,2
288,119,28822,2,0,B|319:118|353:131,1,63.749998100102,0|8
424,78,29163,1,2
424,78,29333,2,0,B|427:145|462:193,1,95.624997150153
477,198,29674,2,0,B|414:200|354:234,1,127.499996200204,8|0
266,345,30356,6,0,B|265:310|252:279,1,63.749998100102,0|2
253,282,30867,1,2
178,244,31038,1,8
114,302,31208,1,0
40,258,31378,1,0
40,258,31549,6,0,B|20:192|53:132,1,127.499996200204,2|0
106,68,32060,2,0,B|136:91|177:94,1,63.749998100102,2|0
178,79,32316,1,0
193,68,32401,2,0,B|232:73|265:61,1,63.749998100102,8|2
351,48,32742,5,0
423,113,32913,2,0,B|419:150|398:180,1,63.749998100102,0|2
324,74,33253,5,8
442,193,33424,2,0,B|408:230|360:244,1,95.624997150153,8|0
368,262,33765,6,0,B|281:258,1,85,8|0
205,216,34106,1,4
195,324,34276,2,0,B|157:290|157:290|30:276,1,170,0|8
281,146,34958,1,0
347,212,35128,2,0,B|381:174|381:174|395:47,1,170,8|8
503,133,35640,6,0,B|501:45,1,85
465,328,35981,2,0,B|480:237,1,85,8|0
465,328,36322,1,8
375,302,36492,1,8
347,212,36663,1,0
281,146,36833,6,0,B|236:120|236:120|109:133,1,170,4|8
19,236,37344,2,0,B|63:261|63:261|190:248,1,170,8|0
221,38,37856,2,0,B|309:31,1,85,0|8
446,190,38367,1,8
221,38,38708,1,8
168,115,38878,1,0
188,206,39049,1,8
120,270,39219,1,0
30,295,39390,6,0,B|115:318,1,85,0|4
255,139,39901,1,8
188,206,40072,2,0,B|154:167|154:167|140:40,1,170,8|0
254,325,40583,6,0,B|295:252,1,85,8|0
295,250,40924,1,8
403,302,41094,2,0,B|444:229,1,85,8|8
444,227,41435,1,0
399,134,41606,1,8
408,120,41691,1,8
417,105,41776,1,0
426,90,41861,1,0
435,75,41947,6,0,B|479:64,3,42.5
388,50,42288,2,0,B|301:68,1,85,4|0
218,30,42628,2,0,B|131:48,1,85,8|0
178,168,42969,2,0,B|45:193,2,127.5,0|8|0
291,147,43651,6,0,B|306:234,1,85
121,80,43992,2,0,B|136:167,1,85,8|0
75,322,44333,2,0,B|163:306,1,85,0|8
432,270,44844,5,0
432,270,44930,1,0
432,270,45015,1,4
432,172,45185,1,0
334,49,45356,2,0,B|315:88|314:137,1,85,8|0
356,329,45697,2,0,B|375:290|376:241,1,85,0|0
231,189,46038,1,8
201,60,46208,6,0,B|177:26,2,42.5,0|8|0
222,198,46549,1,0
182,282,46719,2,0,B|224:292|269:270,1,85,8|0
126,110,47060,2,0,B|84:100|39:122,1,85,0|8
19,283,47401,6,0,B|105:303|186:256,1,170,0|4
337,325,47998,1,0
361,316,48083,2,0,B|405:293|447:304,1,85,8|0
486,190,48424,1,0
451,89,48594,1,0
430,104,48680,1,8
407,116,48765,2,0,B|363:139|321:128,1,85,0|0
212,152,49106,5,0
188,142,49191,1,0
165,130,49276,2,0,B|141:98|143:51,1,85,8|0
295,244,49617,5,0
318,254,49702,1,8
341,264,49788,2,0,B|343:312|319:344,1,85,8|0
389,151,50128,2,0,B|386:102|410:70,1,85,8|0
478,219,50469,6,0,B|464:261|424:294|369:291|340:263,1,170,4|8
389,151,50981,1,0
325,45,51151,2,0,B|283:59|250:99|253:154|281:183,1,170,0|8
248,338,51663,1,0
181,245,51833,2,0,B|148:273|138:315,1,85,8|0
151,150,52174,1,8
118,48,52344,2,0,B|177:77|244:61,1,127.5,8|8
251,37,52685,6,0,B|296:19|339:24,1,85,0|0
435,31,53026,1,8
321,133,53197,2,0,B|406:118|497:151,1,170,4|0
419,239,53708,1,8
466,339,53878,2,0,B|381:354|290:321,1,170,4|8
245,210,54390,6,0,B|205:203,2,42.5,0|8|0
339,135,54731,1,0
226,97,54901,2,0,B|214:55,2,42.5,0|0|8
200,242,55242,5,0
354,224,55413,1,8
336,65,55583,1,8
182,82,55753,1,0
200,242,55924,6,0,B|146:210|70:228,1,127.5
37,294,56265,2,0,B|80:313|126:289,1,85,8|8
380,345,56606,2,0,B|337:326|291:350,1,85,0|8
412,207,56947,1,8
353,138,57117,6,0,B|384:104,2,42.5,0|8|0
398,216,57458,1,0
267,295,57628,2,0,B|229:268|182:279,1,85,8|0
37,294,57969,2,0,B|79:274|93:228,1,85,0|8
76,30,58310,6,0,B|33:49|19:95,1,85,0|8
108,112,58651,1,4
242,188,58992,2,8,B|284:169|331:176,1,85,8|8
377,42,59333,1,0
508,91,59503,1,0
460,228,59674,1,8
325,175,59844,6,0,B|236:153|161:208,1,170,4|0
292,264,60356,1,8
176,296,60526,1,8
68,354,60697,1,0
20,251,60867,6,0,B|40:215|41:169,1,85,0|8
97,36,61208,1,8
186,67,61378,2,0,B|201:145|185:193,1,127.5,4|8
183,218,61719,1,0
243,306,61890,1,0
363,202,62060,6,0,B|399:180|456:180,1,85,8|0
499,353,62401,2,0,B|410:386|340:319,1,170,8|4
444,180,63083,1,8
289,96,63253,2,0,B|253:74|196:74,1,85,8|0
146,262,63594,2,8,B|233:286|314:243,1,170
224,172,64106,5,4
41,63,64617,5,4
470,185,65128,5,4
324,271,65469,6,0,B|265:275|265:275|239:267|239:267|184:272,1,140.249995820224,0|0
256,192,66066,12,4,66833
96,204,77742,6,0,B|108:245|175:263|220:239,1,140.249995820224
70,120,78424,1,2
432,50,78765,1,0
432,50,78935,2,0,B|380:38|340:61,1,93.4999972134829,4|0
297,128,79447,1,0
407,299,79788,5,4
476,237,80129,1,2
191,268,80469,2,0,B|177:234|101:214|62:245,1,140.249995820224
248,340,81151,1,2
245,38,81492,1,0
245,38,81663,2,0,B|243:89|277:127,1,93.4999972134829,4|0
336,188,82174,1,0
472,56,82515,5,2
472,56,82685,1,0
472,56,82856,2,0,B|462:124,1,70.1249979101122,0|2
458,144,83197,6,0,B|329:164,1,127.499996200204,0|8
33,161,83879,2,0,B|136:177,1,95.624997150153,0|0
146,178,84219,2,0,B|133:83,1,95.624997150153,8|0
117,72,84560,6,0,B|246:52,1,127.499996200204,0|8
461,187,85242,2,0,B|360:171,1,95.624997150153,4|0
353,158,85583,2,0,B|282:145,1,63.749998100102,8|2
50,342,85924,6,0,B|182:324,1,127.499996200204,0|8
461,187,86606,2,0,B|360:203,1,95.624997150153,0|0
353,216,86947,2,0,B|282:229,1,63.749998100102,8|0
156,146,87288,5,0
156,146,87458,2,0,B|224:162,1,63.749998100102,8|2
361,80,87799,2,0,B|291:102,1,63.749998100102,8|0
213,36,88140,5,8
213,36,88225,1,0
213,36,88310,2,8,B|130:17,1,85,8|8
43,73,88651,1,4
49,198,88822,2,0,B|76:166|76:166|205:154,1,170,0|8
57,297,89333,2,0,B|185:284,1,127.5,0|8
194,265,89674,2,0,B|291:254,1,85,0|8
376,196,90015,5,0
468,288,90185,1,8
431,119,90356,2,0,B|334:108,1,85,0|8
262,46,90697,1,8
262,46,90782,1,0
262,46,90867,2,0,B|165:35,1,85,0|8
81,66,91208,1,0
57,158,91379,6,0,B|82:191|82:191|67:319,1,170,0|8
214,114,91890,2,0,B|181:141|181:141|169:270,1,170,4|8
275,340,92401,1,8
367,307,92572,1,0
457,278,92742,1,8
457,105,92913,6,8,B|329:90|329:90|296:115,1,170,0|8
54,211,93424,2,8,B|87:236|87:236|180:224,1,127.5,0|0
186,209,93765,2,0,B|283:198,1,85,8|0
270,199,94106,1,4
293,310,94276,6,0,B|390:299,1,85,8|0
377,300,94617,1,0
361,142,94788,2,0,B|458:131,1,85,8|0
445,132,95129,5,8
396,51,95299,1,0
303,64,95469,1,0
276,157,95640,1,0
256,246,95810,6,0,B|168:232,1,85,0|8
172,232,96151,1,0
164,103,96322,2,0,B|76:89,1,85,0|8
80,89,96663,1,8
32,245,96833,6,0,B|154:264,2,113.333333333333,4|8|0
217,211,97515,6,0,B|348:188,1,127.5,0|8
359,201,97856,1,0
322,329,98026,1,8
456,317,98197,1,8
493,189,98367,1,8
380,77,98538,6,0,B|468:63,1,85,8|8
199,48,98879,2,0,B|287:34,1,85,0|8
51,142,99219,2,0,B|139:128,1,85,8|8
149,144,99475,1,0
163,158,99560,1,4
298,234,99731,6,0,B|129:260,1,170,8|8
405,331,100413,2,0,B|308:347,2,85,0|8|0
298,234,100924,1,8
441,84,101094,2,0,B|386:148,1,85,0|8
278,294,101435,6,0,B|237:220,1,85,8|0
98,159,101776,2,0,B|57:85,1,85,8|8
98,159,102117,1,0
20,253,102288,6,0,B|189:279,1,170,4|8
419,127,102799,2,0,B|253:153,1,170,8|0
210,357,103310,2,0,B|299:345,1,85
444,317,103651,1,8
475,199,103822,2,0,B|386:211,1,85,0|8
283,144,104163,1,0
473,86,104333,6,0,B|382:62,1,85,0|8
270,49,104674,2,0,B|179:25,1,85,8|8
270,49,105015,1,4
53,124,105356,1,0
53,124,105526,2,0,B|217:168,1,170,8|8
280,341,106038,2,0,B|251:257,2,85,8|0|0
349,79,106549,2,0,B|319:166,2,85,0|8|0
466,62,107060,5,8
460,82,107146,1,0
454,102,107231,1,0
448,122,107316,1,0
442,142,107401,6,0,B|457:188,3,42.5
469,198,107742,2,0,B|389:228,1,85
384,336,108083,2,0,B|252:311,1,127.5,8|0
246,294,108424,1,8
326,162,108594,2,0,B|241:171,1,85,0|8
241,170,108935,1,0
41,51,109106,6,0,B|126:42,1,85,0|8
134,61,109361,1,0
143,79,109447,1,8
20,195,109617,2,0,B|198:176,1,170,8|4
384,336,110299,5,0
466,276,110469,2,0,B|511:194|460:114,1,170,4|8
340,44,110981,2,0,B|322:84,2,42.5,0|8|0
360,183,111322,1,8
214,58,111492,2,0,B|200:105|228:138,1,85,8|0
360,183,111833,2,0,B|374:230|346:263,1,85,8|0
333,280,112089,1,8
312,288,112174,2,0,B|276:300|225:303,1,85,0|8
1,261,112515,2,0,B|60:259|85:252,1,85
254,188,112856,6,0,B|240:148|200:120|144:120|108:145,1,170,0|4
147,342,113452,2,0,B|200:336,1,42.5,0|8
290,323,113708,1,0
396,256,113879,2,0,B|419:300|394:340,1,85
361,161,114219,2,0,B|338:117|363:77,1,85,8|0
382,79,114475,1,8
403,78,114560,6,0,B|450:82|501:71,1,85,0|0
294,228,114901,2,0,B|252:226|196:235,1,85,8|0
46,104,115242,2,0,B|108:111|176:96,1,127.5,0|0
186,113,115583,1,8
288,160,115754,1,8
319,51,115924,6,0,B|383:36|445:43,1,127.5,4|0
459,60,116265,1,8
402,151,116435,1,0
456,248,116606,1,0
456,248,116691,1,8
456,248,116776,1,0
341,236,116947,2,0,B|296:222|258:224,1,85,8|0
131,252,117288,2,0,B|87:269|77:316,1,85,8|0
162,342,117629,6,0,B|207:356|245:354,1,85,8|0
182,152,117969,2,0,B|154:118,2,42.5,0|8|0
295,145,118310,2,0,B|333:147|378:133,1,85,8|0
397,122,118566,1,0
414,109,118651,5,4
332,37,118822,1,0
228,52,118992,1,8
182,152,119163,1,0
182,152,119333,5,0
216,305,119504,1,0
78,264,119674,1,8
182,152,119844,5,0
182,152,119930,1,8
182,152,120015,1,4
291,226,120185,1,0
303,102,120356,1,0
303,102,120441,1,0
303,102,120526,1,8
160,233,120697,5,0
179,66,120867,1,8
354,80,121038,1,8
333,254,121208,1,8
441,321,121379,6,0,B|469:260|441:195,1,127.5,4|0
495,144,121719,2,8,B|519:188|523:225,1,85,8|0
331,182,122060,2,8,B|307:138|303:101,1,85,0|8
241,237,122401,2,8,B|237:272|213:316,1,85,8|8
82,132,122742,6,0,B|54:193|82:258,1,127.5,4|0
28,309,123083,2,8,B|4:265|0:228,1,85,8|0
82,132,123424,2,0,B|66:94|70:49,1,85,0|8
183,129,123765,2,0,B|187:85|207:45,1,85,0|8
280,148,124106,6,0,B|300:84|343:33,1,127.5,4|0
358,24,124447,1,8
458,64,124617,1,8
416,168,124788,2,0,B|390:210|381:250,1,85,0|8
382,245,125129,1,0
280,324,125299,6,0,B|363:312|448:358,1,170,4|0
382,245,125810,1,8
270,170,125981,2,0,B|187:158|102:204,1,170,0|8
105,201,126492,1,8
54,297,126663,1,0
54,297,126748,1,0
54,297,126833,1,4
49,147,127004,6,0,B|47:63,1,85,0|8
162,188,127344,2,0,B|151:96,1,85
265,43,127685,1,8
248,181,127856,1,8
265,43,128026,1,8
345,108,128197,6,0,B|361:194,1,85,4|0
360,191,128538,1,8
464,58,128708,2,0,B|462:148,1,85
462,142,129049,1,8
458,256,129219,5,0
458,256,129305,1,8
458,256,129390,1,0
458,256,129475,1,0
458,256,129560,1,4
256,192,129646,12,0,132288
51,95,151379,6,0,B|79:119|144:124|192:81|201:36,1,186.999994426966,4|0
283,112,152401,1,0
433,203,152742,2,0,B|405:179|340:174|292:217|283:262,1,186.999994426966,4|0
95,61,154106,6,0,B|21:86|21:173,1,140.249995820224,0|0
39,239,154788,1,0
142,173,155129,1,2
252,122,155469,2,0,B|276:150|281:215|238:263|193:272,1,186.999994426966,4|0
405,345,156833,6,0,B|479:320|479:233,1,140.249995820224,0|0
461,167,157515,1,0
295,51,158026,6,0,B|346:36,1,46.7499986067415,0|4
209,120,158708,1,0
209,120,158879,2,0,B|199:79|151:46|90:48|49:78,1,186.999994426966,0|0
102,239,160072,2,0,B|135:280,1,46.7499986067415,2|0
266,272,160583,1,0
337,338,160924,2,0,B|401:297|388:215,1,140.249995820224,0|0
341,94,161606,2,0,B|303:132|308:184,1,93.4999972134829,4|0
266,272,162117,6,0,B|212:287,1,46.7499986067415,0|0
220,284,162458,1,0
107,266,162629,2,0,B|76:210|88:136,1,127.499996200204,2|0
258,39,163310,2,0,B|271:72|267:103,1,63.749998100102,2|0
375,238,163651,2,0,B|344:182|356:108,1,127.499996200204,0|2
472,195,164163,6,0,B|485:226|481:257,1,63.749998100102
472,195,164504,1,0
418,131,164674,2,0,B|362:162|288:150,1,127.499996200204,2|0
130,125,165356,1,2
52,160,165526,1,0
88,238,165697,2,0,B|144:207|218:219,1,127.499996200204,0|2
295,258,166208,1,0
352,358,166379,5,0
420,324,166549,1,0
458,261,166719,1,2
364,11,167060,5,0
428,52,167231,1,0
455,123,167401,2,0,B|408:122|359:130,1,95.624997150153
340,146,167742,6,0,B|305:158|274:152,1,63.749998100102
180,233,168083,2,0,B|215:221|246:227,1,63.749998100102,8|2
213,92,168424,6,0,B|192:118|161:129,1,63.749998100102
246,293,168765,2,0,B|282:239|360:225,1,127.499996200204,8|4
447,326,169617,5,8
447,326,169958,1,6
469,225,170129,2,0,B|456:127,1,95.624997150153,8|0
453,109,170469,6,0,B|416:79|368:84,1,85,4|8
148,38,170810,2,0,B|185:68|233:63,1,85,0|8
32,179,171151,2,0,B|85:147|159:163,1,127.5,0|8
194,228,171492,2,0,B|252:168,1,85,0|8
340,344,171833,6,0,B|299:268,1,85,4|8
445,255,172174,2,0,B|413:202|429:128,1,127.5,0|8
494,93,172515,2,0,B|434:35,1,85,0|8
281,184,172856,6,0,B|317:99,1,85,0|8
322,86,173111,1,0
331,66,173197,1,4
209,55,173367,2,0,B|162:57,1,42.5,0|8
142,32,173538,2,0,B|100:20|55:42,1,85,0|8
71,210,173879,2,0,B|113:222|158:200,1,85,0|8
266,281,174219,6,0,B|313:283,1,42.5,0|8
322,314,174390,2,0,B|369:316,1,42.5,0|8
388,291,174560,2,0,B|430:279|475:301,1,85,4|8
486,141,174901,2,0,B|444:153|399:131,1,85,0|8
286,124,175242,2,0,B|296:81|338:53,1,85,0|8
178,129,175583,5,0
189,146,175668,1,8
197,165,175754,1,0
201,185,175839,1,8
202,206,175924,5,4
161,323,176094,1,0
41,282,176265,1,0
41,282,176350,1,8
82,157,176521,5,8
82,157,176606,2,0,B|96:115|70:73,1,85,0|8
256,15,176947,2,0,B|242:57|268:99,1,85,8|8
291,119,177202,6,0,B|335:135,1,42.5,0|12
427,46,177458,1,8
511,147,177629,1,0
511,147,177714,1,8
402,254,177884,1,8
402,254,177969,2,0,B|361:241|317:261,1,85,0|8
179,288,178310,2,0,B|210:258|215:210,1,85,0|8
186,111,178651,5,4
106,51,178822,1,8
39,124,178992,1,0
186,111,179163,5,8
336,84,179333,1,4
416,144,179504,1,8
483,71,179674,1,0
336,84,179844,5,8
265,234,180015,1,8
265,234,180100,1,8
255,331,180271,1,8
255,331,180356,1,8
265,234,180526,5,0
258,213,180611,1,0
254,191,180697,1,0
251,169,180782,1,0
269,158,180867,1,8
288,148,180952,1,8
302,134,181038,1,0
309,113,181123,1,0
313,92,181208,1,8
307,71,181293,1,0
296,52,181378,6,0,B|256:40|210:63,1,85,4|0
82,43,181719,1,8
82,43,181805,2,0,B|37:59|20:98,1,85,0|0
117,139,182146,1,0
117,139,182231,1,8
30,248,182401,2,0,B|74:244|120:260,1,85,8|8
361,346,182742,6,0,B|408:339|437:300,1,85,4|0
376,125,183083,1,8
376,125,183168,2,0,B|374:173|402:210,1,85,0|8
418,196,183424,1,0
437,188,183509,1,0
456,180,183594,1,8
438,36,183765,2,0,B|396:18|346:21,1,85,0|8
176,104,184106,6,0,B|218:86|268:89,1,85,4|8
170,240,184447,2,0,B|204:209|252:197,1,85,0|0
263,208,184702,1,8
270,307,184873,1,0
288,297,184958,1,8
398,340,185128,5,8
410,328,185214,1,0
423,316,185299,6,0,B|425:255|370:191|370:191|422:192|422:192|415:122|346:71,1,327.24999024719,4|4
256,192,186663,12,0,187856
249,125,188197,6,0,B|225:76|225:76|151:49|90:105,1,191.249994300306,2|0
94,205,188878,2,0,B|119:183|159:178,1,63.749998100102,0|2
243,221,189219,1,4
401,349,189560,6,0,B|454:336|454:336|475:308|476:264,1,127.499996200204,2|0
482,137,190072,2,0,B|428:130|428:130|364:176|378:259,1,191.249994300306,2|0
312,354,190753,1,2
312,354,190924,5,4
22,149,191435,5,4
378,20,191947,5,12
378,20,192117,2,0,B|351:80|351:80|361:122|361:122|331:197,1,191.249994300306,0|0
229,250,192799,1,8
228,158,192969,2,0,B|253:93,1,63.749998100102,0|8
119,34,193310,2,0,B|141:93,1,63.749998100102,0|8
141,93,193651,5,4
46,216,193992,1,0
46,216,194163,2,0,B|56:255|65:276|65:276|140:284|187:243,1,191.249994300306
394,336,194844,5,8
394,336,195015,2,0,B|389:317|379:297|379:297|342:290|298:319,1,127.499996200204,0|8
373,154,195526,2,8,B|377:172|388:193|388:193|425:200|469:171,1,127.499996200204,0|8
333,68,196038,6,0,B|307:35|307:35|244:17|182:56,1,170,0|4
256,192,196464,12,4,199106
