osu file format v12

[General]
AudioFilename: Vocaloid (Miku Hatsune) Heki i Usagi.mp3
AudioLeadIn: 0
PreviewTime: 65873
Countdown: 0
SampleSet: Soft
StackLeniency: 0.7
Mode: 0
LetterboxInBreaks: 1
SkinPreference:Default

[Editor]
Bookmarks: 2233,11352,29638,39071,47280,65873,84714,93849,110977,129818,150657,166358,184628,203183
DistanceSpacing: 1.2
BeatDivisor: 8
GridSize: 4

[Metadata]
Title:Aoi Usagi
TitleUnicode:Aoi Usagi
Artist:Hatsune Miku
ArtistUnicode:Hatsune Miku
Creator:GabrielRKF
Version:Hard
Source:Hoshi no Kinka
Tags:Vocaloid Flower
BeatmapID:236695
BeatmapSetID:86408

[Difficulty]
HPDrainRate:7
CircleSize:5
OverallDifficulty:6
ApproachRate:7
SliderMultiplier:1.6
SliderTickRate:1

[Events]
//Background and Video events
0,0,"moe 92522 sample.jpg",0,0
//Break Periods
//Storyboard Layer 0 (Background)
//Storyboard Layer 1 (Fail)
//Storyboard Layer 2 (Pass)
//Storyboard Layer 3 (Foreground)
//Storyboard Sound Samples
//Background Colour Transformations
3,100,255,0,128

[TimingPoints]
-70,570.937735849059,4,2,0,60,1,0
184913,-100,4,2,0,60,0,1
185056,-100,4,2,0,60,0,0
203183,-100,4,2,0,60,0,1
205467,-100,4,2,0,60,0,0

[Colours]
Combo1 : 255,255,255
Combo2 : 251,47,129

[HitObjects]
336,96,2213,1,0,0:0:0:0:
256,96,2499,1,0,0:0:0:0:
296,160,2784,1,2,0:0:0:0:
336,96,3070,1,0,0:0:0:0:
376,32,3355,5,8,3:0:0:0:
296,32,3641,1,0,0:0:0:0:
336,96,3926,1,2,0:0:0:0:
416,96,4212,1,0,0:0:0:0:
376,168,4497,5,0,0:0:0:0:
456,168,4782,1,0,0:0:0:0:
376,168,5068,1,2,0:0:0:0:
416,240,5353,1,8,3:0:0:0:
336,240,5639,5,8,3:0:0:0:
416,240,5924,1,0,0:0:0:0:
336,240,6210,1,2,0:0:0:0:
376,312,6495,1,0,0:0:0:0:
296,312,6781,5,0,0:0:0:0:
336,240,7066,1,0,0:0:0:0:
296,168,7352,1,2,0:0:0:0:
216,168,7637,1,0,0:0:0:0:
256,240,7923,5,8,3:0:0:0:
296,168,8208,1,0,0:0:0:0:
256,96,8494,1,2,0:0:0:0:
176,96,8779,1,0,0:0:0:0:
256,96,9065,5,0,0:0:0:0:
216,168,9350,1,0,0:0:0:0:
176,240,9635,1,2,0:0:0:0:
136,312,9921,1,8,3:0:0:0:
96,240,10206,5,8,3:0:0:0:
136,168,10492,2,0,L|136:112,2,40,0|8|8,0:0|3:0|3:0,0:0:0:0:
176,240,11063,1,8,3:0:0:0:
256,336,11348,6,0,L|288:336,8,20,4|0|0|0|0|0|0|0|0,0:0|0:0|0:0|0:0|0:0|0:0|0:0|0:0|0:0,0:0:0:0:
440,272,12205,1,0,0:0:0:0:
400,264,12347,1,0,0:0:0:0:
360,256,12490,6,0,L|336:256,8,20
88,200,13347,1,0,0:0:0:0:
140,188,13489,1,0,0:0:0:0:
192,176,13632,6,0,L|216:176,8,20
492,116,14488,1,0,0:0:0:0:
428,104,14630,1,0,0:0:0:0:
364,88,14774,2,0,P|308:80|244:88,2,120
384,168,15916,6,0,L|392:200,8,20
256,320,16772,1,0,0:0:0:0:
264,280,16915,1,0,0:0:0:0:
272,240,17057,6,0,L|264:208,8,20
192,40,17914,1,0,0:0:0:0:
180,92,18057,1,0,0:0:0:0:
172,144,18199,6,0,L|180:176,8,20
80,368,19056,1,0,0:0:0:0:
60,308,19199,1,0,0:0:0:0:
44,248,19341,2,0,P|36:184|52:128,2,120
144,264,20483,6,0,L|144:296,8,20
424,224,21340,1,0,0:0:0:0:
384,224,21482,1,0,0:0:0:0:
344,224,21625,6,0,L|344:256,8,20
48,120,22482,1,0,0:0:0:0:
100,120,22624,1,0,0:0:0:0:
152,120,22767,6,0,L|152:152,8,20
440,36,23623,1,0,0:0:0:0:
376,36,23765,1,0,0:0:0:0:
312,36,23908,2,0,P|288:92|312:148,2,120
256,192,25051,12,4,28476,0:0:0:0:
240,60,29904,5,0,0:0:0:0:
164,36,30190,1,0,0:0:0:0:
184,112,30475,1,0,0:0:0:0:
260,136,30760,2,0,P|236:180|172:192,2,120
436,232,33900,5,0,0:0:0:0:
356,240,34186,2,0,P|392:304|440:312,2,120
392,168,35328,2,0,P|400:92|336:48,1,160
324,128,36184,1,0,0:0:0:0:
260,80,36470,1,0,0:0:0:0:
100,312,39039,5,0,0:0:0:0:
168,356,39324,1,0,0:0:0:0:
236,308,39610,1,0,0:0:0:0:
168,264,39895,2,0,L|168:144,2,120
168,64,41322,1,0,0:0:0:0:
396,320,43035,5,0,0:0:0:0:
364,248,43321,2,0,P|356:200|380:128,2,120
396,320,44463,5,0,0:0:0:0:
172,320,45034,1,0,0:0:0:0:
84,112,45605,2,0,B|208:56|284:144|400:108,1,320
452,268,47032,1,0,0:0:0:0:
452,268,47175,1,8,3:0:0:0:
452,268,47317,2,0,L|368:268,1,80
292,320,47888,6,0,L|268:236,1,80,4|0,0:0|0:0,0:0:0:0:
188,196,48459,1,0,0:0:0:0:
232,112,48745,1,0,0:0:0:0:
232,112,48887,2,0,L|380:112,1,120
224,300,49887,5,0,0:0:0:0:
140,348,50172,2,0,L|112:272,1,80
20,252,50743,1,0,0:0:0:0:
64,168,51028,1,0,0:0:0:0:
64,168,51171,2,0,L|192:168,1,120
420,124,52170,5,0,0:0:0:0:
420,124,52456,2,0,P|464:180|420:244,2,160
344,64,53883,2,0,L|256:64,1,80
280,160,54454,2,0,L|196:160,1,80
128,96,55025,1,0,0:0:0:0:
128,96,55168,1,0,0:0:0:0:
416,308,56167,5,0,0:0:0:0:
456,220,56452,1,0,0:0:0:0:
364,292,56738,1,0,0:0:0:0:
372,196,57023,1,0,0:0:0:0:
312,300,57309,1,0,0:0:0:0:
284,208,57594,1,0,0:0:0:0:
264,332,57880,1,0,0:0:0:0:
264,332,58022,2,0,P|240:276|188:236,1,120
208,100,59022,5,0,0:0:0:0:
208,100,59307,2,0,P|128:96|88:108,2,120
292,148,60449,2,0,P|372:152|412:140,2,120
204,188,61591,2,0,L|188:360,1,160
400,144,62733,5,0,0:0:0:0:
304,136,63018,1,0,0:0:0:0:
212,156,63304,1,0,0:0:0:0:
116,144,63589,1,0,0:0:0:0:
168,256,63875,5,0,0:0:0:0:
344,256,64160,1,0,0:0:0:0:
128,256,64445,1,0,0:0:0:0:
384,256,64730,1,0,0:0:0:0:
260,56,65873,5,0,0:0:0:0:
308,64,66016,1,0,0:0:0:0:
356,72,66158,1,0,0:0:0:0:
