osu file format v5

[General]
AudioFilename: Hatsune Miku - Alice.mp3
AudioLeadIn: 0
PreviewTime: -1
Countdown: 2
SampleSet: Soft
StackLeniency: 0.7
Mode: 0
LetterboxInBreaks: 1

[Editor]
Bookmarks: 11217,35202,70475
DistanceSpacing: 0.800000011920929
BeatDivisor: 4
GridSize: 16

[Metadata]
Title:Alice
Artist:Hatsune Miku
Creator:Piccthepix
Version:Normal
Source:Vocaloid
Tags:Vocaloid Hatsune Miku Alice

[Difficulty]
HPDrainRate:5
CircleSize:5
OverallDifficulty:4
SliderMultiplier:0.7
SliderTickRate:0.5

[Events]
//Background and Video events
0,0,"alice.png"
//Break Periods
2,58638,69860
//Storyboard Layer 0 (Background)
//Storyboard Layer 1 (Fail)
//Storyboard Layer 2 (Pass)
//Storyboard Layer 3 (Foreground)
//Storyboard Sound Samples
//Background Colour Transformations
3,100,163,162,255

[TimingPoints]
-25,375,4,2,0,71,1,0

[Colours]
Combo1 : 16,214,169
Combo2 : 112,194,118
Combo3 : 136,96,51
Combo4 : 255,255,255

[HitObjects]
96,96,11225,1,0
144,128,11600,1,0
192,96,11975,1,2
160,208,12725,1,0
192,320,13475,1,2
320,320,14225,5,0
368,288,14600,1,0
416,320,14975,1,2
448,208,15725,1,0
416,96,16475,1,4
304,80,17225,5,0
256,112,17600,1,0
208,80,17975,1,2
128,144,18725,1,0
48,80,19475,1,2
48,192,20225,5,0
96,192,20600,1,0
144,192,20975,2,2,B|288:192,2,140,0|0|0
80,288,23225,5,0
128,320,23600,1,0
176,288,23975,1,2
288,256,24725,1,0
400,288,25475,1,2
400,176,26225,5,0
352,144,26600,1,0
304,176,26975,1,2
192,208,27725,1,0
80,176,28475,1,4
144,80,29225,5,0
192,112,29600,1,0
240,80,29975,1,2
352,48,30725,1,0
464,80,31475,1,2
464,192,32225,5,0
416,192,32600,1,0
368,192,32975,2,2,B|224:192,2,140
416,288,35225,5,0
368,256,35600,1,0
320,288,35975,1,2
352,176,36725,1,0
320,64,37475,1,2
192,64,38225,5,0
144,96,38600,1,0
96,64,38975,1,2
64,112,39350,1,0
96,160,39725,1,0
64,208,40100,1,0
96,256,40475,1,4
224,304,41225,5,0
272,272,41600,1,0
320,304,41975,1,2
400,240,42725,1,0
480,304,43475,1,2
480,192,44225,5,0
432,192,44600,1,0
384,192,44975,1,2
336,192,45350,1,2
288,192,45725,1,2
240,192,46100,1,2
192,192,46475,1,4
96,128,47225,5,0
144,96,47600,1,0
192,128,47975,1,2
304,112,48725,1,0
416,128,49475,1,2
416,240,50225,5,0
368,272,50600,1,0
320,240,50975,1,2
208,256,51725,1,0
96,240,52475,1,4
96,128,53225,5,0
144,96,53600,1,0
192,128,53975,1,2
288,112,54725,1,0
384,128,55475,1,2
448,192,56225,5,0
400,192,56600,1,0
352,192,56975,2,2,B|208:192,2,140,2|2|2
256,32,71225,5,0
256,144,71975,1,2
368,144,72725,5,0
400,192,73100,1,0
368,240,73475,1,2
304,304,74131,5,0
256,336,74506,1,0
208,304,74881,1,0
144,240,75631,5,0
112,192,76006,1,0
144,144,76381,1,2
