osu file format v12

[General]
AudioFilename: aikotoba.mp3
AudioLeadIn: 2989
PreviewTime: 69467
Countdown: 1
SampleSet: None
StackLeniency: 0.7
Mode: 3
LetterboxInBreaks: 1
SpecialStyle: 0
WidescreenStoryboard: 0

[Editor]
DistanceSpacing: 1
BeatDivisor: 4
GridSize: 8
TimelineZoom: 1

[Metadata]
Title:Ai Kotoba
TitleUnicode:Ai Kotoba
Artist:Hatsune Miku
ArtistUnicode:Hatsune Miku
Creator:c36098651
Version:LV.21
Source:
Tags:
BeatmapID:413125
BeatmapSetID:170676

[Difficulty]
HPDrainRate:8
CircleSize:7
OverallDifficulty:7
ApproachRate:5
SliderMultiplier:1.4
SliderTickRate:1

[Events]
//Background and Video events
0,0,"miku.jpg",0,0
//Break Periods
//Storyboard Layer 0 (Background)
//Storyboard Layer 1 (Fail)
//Storyboard Layer 2 (Pass)
//Storyboard Layer 3 (Foreground)
//Storyboard Sound Samples
//Background Colour Transformations
3,100,163,162,255

[TimingPoints]
272,437.956204379562,4,2,0,41,1,0
56330,875.912408759124,4,2,0,41,1,0
63337,437.956204379562,4,2,0,41,1,0
69030,43.7956204379562,4,2,0,41,1,0
69249,437.956204379562,4,2,0,41,1,0
69467,437.956204379562,4,2,0,41,1,0
70342,437.956204379562,4,2,0,41,1,0
70342,-100,4,2,0,41,0,1
97495,3503.6496350365,4,2,0,41,1,1
98152,437.956204379562,4,2,0,41,1,1
98371,437.956204379562,4,2,0,41,1,0
153553,43.7956204379562,4,2,0,41,1,0
153772,437.956204379562,4,2,0,41,1,0
153990,43.7956204379562,4,2,0,41,1,0
154209,875.912408759124,4,2,0,41,1,0
154427,437.956204379562,4,2,0,41,1,0
168441,875.912408759124,4,2,0,41,1,0
175448,437.956204379562,4,2,0,41,1,0
198221,-100,4,2,0,41,0,1
226250,-100,4,2,0,41,0,0
254280,875.912408759124,4,2,0,41,1,0
257783,437.956204379562,4,2,0,41,1,0

[HitObjects]
256,192,272,128,0,2023:0:0:0:0:
182,192,272,1,0,0:0:0:0:
475,192,272,1,0,0:0:0:0:
36,192,490,1,0,0:0:0:0:
329,192,490,1,0,0:0:0:0:
109,192,709,1,0,0:0:0:0:
402,192,709,1,0,0:0:0:0:
475,192,928,1,0,0:0:0:0:
182,192,928,1,0,0:0:0:0:
109,192,1147,128,0,1366:0:0:0:0:
329,192,1147,128,0,1366:0:0:0:0:
182,192,1366,1,0,0:0:0:0:
402,192,1366,1,0,0:0:0:0:
109,192,1585,128,0,1804:0:0:0:0:
329,192,1585,128,0,1804:0:0:0:0:
182,192,1804,1,0,0:0:0:0:
402,192,1804,1,0,0:0:0:0:
36,192,2023,128,0,2242:0:0:0:0:
475,192,2023,1,0,0:0:0:0:
402,192,2242,128,0,2461:0:0:0:0:
109,192,2242,1,0,0:0:0:0:
329,192,2242,1,0,0:0:0:0:
182,192,2461,128,0,2680:0:0:0:0:
256,192,2461,1,0,0:0:0:0:
475,192,2461,1,0,0:0:0:0:
329,192,2680,128,0,2899:0:0:0:0:
109,192,2680,1,0,0:0:0:0:
36,192,2899,128,0,3556:0:0:0:0:
256,192,2899,1,0,0:0:0:0:
475,192,2899,1,0,0:0:0:0:
402,192,3118,1,0,0:0:0:0:
182,192,3118,1,0,0:0:0:0:
109,192,3337,1,0,0:0:0:0:
329,192,3337,1,0,0:0:0:0:
475,192,3556,128,0,3775:0:0:0:0:
182,192,3556,1,0,0:0:0:0:
402,192,3556,1,0,0:0:0:0:
329,192,3775,1,0,0:0:0:0:
256,192,3775,128,0,5527:0:0:0:0:
36,192,3775,1,0,0:0:0:0:
182,192,3994,1,0,0:0:0:0:
475,192,3994,1,0,0:0:0:0:
36,192,4213,1,0,0:0:0:0:
329,192,4213,1,0,0:0:0:0:
402,192,4432,1,0,0:0:0:0:
475,192,4432,1,0,0:0:0:0:
109,192,4432,1,0,0:0:0:0:
182,192,4432,1,0,0:0:0:0:
36,192,4651,1,0,0:0:0:0:
329,192,4651,1,0,0:0:0:0:
182,192,4870,1,0,0:0:0:0:
475,192,4870,1,0,0:0:0:0:
36,192,5089,1,0,0:0:0:0:
329,192,5089,1,0,0:0:0:0:
109,192,5308,1,0,0:0:0:0:
182,192,5308,1,0,0:0:0:0:
402,192,5308,1,0,0:0:0:0:
475,192,5308,1,0,0:0:0:0:
36,192,5527,128,0,5746:0:0:0:0:
329,192,5527,1,0,0:0:0:0:
402,192,5746,128,0,5965:0:0:0:0:
109,192,5746,1,0,0:0:0:0:
182,192,5965,128,0,6184:0:0:0:0:
256,192,5965,1,0,0:0:0:0:
475,192,6184,128,0,6403:0:0:0:0:
109,192,6184,1,0,0:0:0:0:
256,192,6403,128,0,7060:0:0:0:0:
329,192,6403,1,0,0:0:0:0:
36,192,6403,1,0,0:0:0:0:
182,192,6622,1,0,0:0:0:0:
402,192,6622,1,0,0:0:0:0:
182,192,6841,1,0,0:0:0:0:
402,192,6841,1,0,0:0:0:0:
329,192,7060,128,0,7279:0:0:0:0:
36,192,7060,1,0,0:0:0:0:
475,192,7060,1,0,0:0:0:0:
182,192,7279,128,0,9031:0:0:0:0:
36,192,7279,128,0,7498:0:0:0:0:
256,192,7279,1,0,0:0:0:0:
402,192,7498,1,0,0:0:0:0:
475,192,7498,1,0,0:0:0:0:
36,192,7717,128,0,7936:0:0:0:0:
256,192,7717,1,0,0:0:0:0:
402,192,7936,1,0,0:0:0:0:
475,192,7936,1,0,0:0:0:0:
36,192,8155,128,0,8374:0:0:0:0:
256,192,8155,1,0,0:0:0:0:
402,192,8374,1,0,0:0:0:0:
475,192,8374,1,0,0:0:0:0:
36,192,8593,128,0,8812:0:0:0:0:
256,192,8593,1,0,0:0:0:0:
402,192,8812,1,0,0:0:0:0:
475,192,8812,1,0,0:0:0:0:
109,192,9031,128,0,9907:0:0:0:0:
256,192,9031,128,0,9250:0:0:0:0:
475,192,9250,1,0,0:0:0:0:
256,192,9469,128,0,9688:0:0:0:0:
475,192,9688,1,0,0:0:0:0:
402,192,9907,128,0,10782:0:0:0:0:
256,192,9907,128,0,10126:0:0:0:0:
36,192,10126,1,0,0:0:0:0:
256,192,10344,128,0,10563:0:0:0:0:
36,192,10563,1,0,0:0:0:0:
329,192,10782,128,0,12534:0:0:0:0:
475,192,10782,128,0,11001:0:0:0:0:
182,192,10782,1,0,0:0:0:0:
36,192,11001,1,0,0:0:0:0:
475,192,11220,128,0,11439:0:0:0:0:
256,192,11220,1,0,0:0:0:0:
36,192,11439,1,0,0:0:0:0:
109,192,11439,1,0,0:0:0:0:
475,192,11658,128,0,11877:0:0:0:0:
182,192,11658,1,0,0:0:0:0:
109,192,11877,1,0,0:0:0:0:
475,192,12096,128,0,12315:0:0:0:0:
256,192,12096,1,0,0:0:0:0:
36,192,12315,1,0,0:0:0:0:
109,192,12315,1,0,0:0:0:0:
256,192,12534,128,0,14286:0:0:0:0:
402,192,12534,1,0,0:0:0:0:
182,192,12534,1,0,0:0:0:0:
402,192,12753,1,0,0:0:0:0:
36,192,12753,1,0,0:0:0:0:
402,192,12972,1,0,0:0:0:0:
182,192,12972,1,0,0:0:0:0:
329,192,13191,1,0,0:0:0:0:
109,192,13191,1,0,0:0:0:0:
402,192,13410,1,0,0:0:0:0:
182,192,13410,1,0,0:0:0:0:
402,192,13629,1,0,0:0:0:0:
36,192,13629,1,0,0:0:0:0:
182,192,13848,1,0,0:0:0:0:
402,192,13848,1,0,0:0:0:0:
109,192,13848,1,0,0:0:0:0:
475,192,14067,1,0,0:0:0:0:
109,192,14067,1,0,0:0:0:0:
109,192,14177,1,0,0:0:0:0:
109,192,14286,1,0,0:0:0:0:
182,192,14286,128,0,16038:0:0:0:0:
329,192,14286,128,0,16038:0:0:0:0:
36,192,14286,128,0,14505:0:0:0:0:
402,192,14286,1,0,0:0:0:0:
402,192,14505,1,0,0:0:0:0:
36,192,14724,128,0,14943:0:0:0:0:
402,192,14724,1,0,0:0:0:0:
475,192,14943,1,0,0:0:0:0:
36,192,15162,128,0,15381:0:0:0:0:
475,192,15381,1,0,0:0:0:0:
36,192,15600,128,0,15819:0:0:0:0:
256,192,15819,1,0,0:0:0:0:
109,192,16038,128,0,17790:0:0:0:0:
402,192,16038,128,0,17790:0:0:0:0:
256,192,16038,128,0,16257:0:0:0:0:
36,192,16257,1,0,0:0:0:0:
256,192,16476,128,0,16695:0:0:0:0:
475,192,16695,1,0,0:0:0:0:
256,192,16914,128,0,17133:0:0:0:0:
36,192,17133,1,0,0:0:0:0:
256,192,17352,128,0,17571:0:0:0:0:
475,192,17571,1,0,0:0:0:0:
182,192,17790,128,0,19542:0:0:0:0:
329,192,17790,128,0,18009:0:0:0:0:
36,192,18009,1,0,0:0:0:0:
329,192,18228,128,0,18447:0:0:0:0:
36,192,18447,1,0,0:0:0:0:
329,192,18666,128,0,18885:0:0:0:0:
36,192,18885,1,0,0:0:0:0:
329,192,19104,128,0,19323:0:0:0:0:
36,192,19323,1,0,0:0:0:0:
402,192,19542,128,0,19761:0:0:0:0:
256,192,19542,1,0,0:0:0:0:
109,192,19761,128,0,19980:0:0:0:0:
329,192,19761,1,0,0:0:0:0:
36,192,19761,1,0,0:0:0:0:
475,192,19980,128,0,20199:0:0:0:0:
182,192,19980,1,0,0:0:0:0:
36,192,20199,128,0,20417:0:0:0:0:
256,192,20199,1,0,0:0:0:0:
402,192,20199,1,0,0:0:0:0:
109,192,20417,128,0,21074:0:0:0:0:
182,192,20417,1,0,0:0:0:0:
329,192,20417,1,0,0:0:0:0:
256,192,20636,1,0,0:0:0:0:
402,192,20636,1,0,0:0:0:0:
329,192,20855,1,0,0:0:0:0:
475,192,20855,1,0,0:0:0:0:
182,192,21074,1,0,0:0:0:0:
402,192,21074,1,0,0:0:0:0:
36,192,21074,128,0,21293:0:0:0:0:
329,192,21293,128,0,23045:0:0:0:0:
109,192,21293,128,0,21512:0:0:0:0:
256,192,21293,1,0,0:0:0:0:
256,192,21512,1,0,0:0:0:0:
109,192,21731,128,0,21950:0:0:0:0:
256,192,21731,1,0,0:0:0:0:
402,192,21950,1,0,0:0:0:0:
109,192,22169,128,0,22388:0:0:0:0:
182,192,22169,1,0,0:0:0:0:
475,192,22388,1,0,0:0:0:0:
109,192,22607,128,0,22826:0:0:0:0:
182,192,22607,1,0,0:0:0:0:
402,192,22826,1,0,0:0:0:0:
36,192,23045,128,0,23921:0:0:0:0:
109,192,23045,128,0,23264:0:0:0:0:
182,192,23045,1,0,0:0:0:0:
402,192,23264,1,0,0:0:0:0:
109,192,23483,128,0,23702:0:0:0:0:
182,192,23483,1,0,0:0:0:0:
329,192,23702,1,0,0:0:0:0:
475,192,23921,128,0,24797:0:0:0:0:
402,192,23921,128,0,24140:0:0:0:0:
182,192,23921,1,0,0:0:0:0:
256,192,24140,1,0,0:0:0:0:
402,192,24359,128,0,24578:0:0:0:0:
182,192,24359,1,0,0:0:0:0:
182,192,24578,1,0,0:0:0:0:
36,192,24797,1,0,0:0:0:0:
329,192,24797,1,0,0:0:0:0:
256,192,24797,128,0,26549:0:0:0:0:
109,192,25016,1,0,0:0:0:0:
402,192,25016,1,0,0:0:0:0:
36,192,25235,1,0,0:0:0:0:
329,192,25235,1,0,0:0:0:0:
475,192,25454,1,0,0:0:0:0:
182,192,25454,1,0,0:0:0:0:
36,192,25673,1,0,0:0:0:0:
329,192,25673,1,0,0:0:0:0:
109,192,25892,1,0,0:0:0:0:
182,192,25892,1,0,0:0:0:0:
402,192,25892,1,0,0:0:0:0:
475,192,25892,1,0,0:0:0:0:
36,192,26111,1,0,0:0:0:0:
329,192,26111,1,0,0:0:0:0:
109,192,26330,1,0,0:0:0:0:
402,192,26330,1,0,0:0:0:0:
36,192,26549,128,0,26768:0:0:0:0:
329,192,26768,128,0,26987:0:0:0:0:
182,192,26768,1,0,0:0:0:0:
109,192,26987,128,0,27206:0:0:0:0:
475,192,26987,1,0,0:0:0:0:
402,192,27206,128,0,27425:0:0:0:0:
256,192,27206,1,0,0:0:0:0:
182,192,27425,128,0,27644:0:0:0:0:
36,192,27425,1,0,0:0:0:0:
475,192,27644,128,0,27863:0:0:0:0:
329,192,27644,1,0,0:0:0:0:
256,192,27863,128,0,28082:0:0:0:0:
36,192,27863,1,0,0:0:0:0:
36,192,28082,128,0,28301:0:0:0:0:
402,192,28082,1,0,0:0:0:0:
182,192,28301,1,0,0:0:0:0:
109,192,28301,1,0,0:0:0:0:
329,192,28301,128,0,28739:0:0:0:0:
109,192,28520,1,0,0:0:0:0:
109,192,28739,1,0,0:0:0:0:
402,192,28739,1,0,0:0:0:0:
109,192,28958,1,0,0:0:0:0:
402,192,28958,1,0,0:0:0:0:
109,192,29177,1,0,0:0:0:0:
109,192,29396,1,0,0:0:0:0:
109,192,29615,1,0,0:0:0:0:
329,192,29615,128,0,30053:0:0:0:0:
109,192,29834,1,0,0:0:0:0:
182,192,29834,1,0,0:0:0:0:
109,192,30053,1,0,0:0:0:0:
475,192,30053,1,0,0:0:0:0:
109,192,30271,1,0,0:0:0:0:
475,192,30271,1,0,0:0:0:0:
109,192,30490,1,0,0:0:0:0:
109,192,30709,1,0,0:0:0:0:
256,192,30709,1,0,0:0:0:0:
109,192,30928,1,0,0:0:0:0:
329,192,30928,1,0,0:0:0:0:
109,192,31147,1,0,0:0:0:0:
402,192,31147,1,0,0:0:0:0:
109,192,31366,1,0,0:0:0:0:
475,192,31366,1,0,0:0:0:0:
109,192,31585,1,0,0:0:0:0:
402,192,31585,1,0,0:0:0:0:
36,192,31804,1,0,0:0:0:0:
109,192,31804,1,0,0:0:0:0:
329,192,31804,128,0,32242:0:0:0:0:
36,192,32023,1,0,0:0:0:0:
109,192,32023,1,0,0:0:0:0:
36,192,32242,1,0,0:0:0:0:
109,192,32242,1,0,0:0:0:0:
402,192,32242,1,0,0:0:0:0:
36,192,32461,1,0,0:0:0:0:
109,192,32461,1,0,0:0:0:0:
182,192,32461,1,0,0:0:0:0:
402,192,32461,1,0,0:0:0:0:
36,192,32680,1,0,0:0:0:0:
109,192,32680,1,0,0:0:0:0:
36,192,32899,1,0,0:0:0:0:
109,192,32899,1,0,0:0:0:0:
36,192,33118,1,0,0:0:0:0:
109,192,33118,1,0,0:0:0:0:
256,192,33118,128,0,33556:0:0:0:0:
109,192,33337,1,0,0:0:0:0:
36,192,33337,1,0,0:0:0:0:
109,192,33556,1,0,0:0:0:0:
36,192,33556,1,0,0:0:0:0:
475,192,33556,1,0,0:0:0:0:
109,192,33775,1,0,0:0:0:0:
36,192,33775,1,0,0:0:0:0:
475,192,33775,1,0,0:0:0:0:
109,192,33994,1,0,0:0:0:0:
36,192,33994,1,0,0:0:0:0:
36,192,34213,1,0,0:0:0:0:
109,192,34213,1,0,0:0:0:0:
475,192,34213,1,0,0:0:0:0:
36,192,34432,1,0,0:0:0:0:
109,192,34432,1,0,0:0:0:0:
402,192,34432,1,0,0:0:0:0:
36,192,34651,1,0,0:0:0:0:
109,192,34651,1,0,0:0:0:0:
329,192,34651,1,0,0:0:0:0:
36,192,34870,1,0,0:0:0:0:
109,192,34870,1,0,0:0:0:0:
256,192,34870,1,0,0:0:0:0:
109,192,35089,1,0,0:0:0:0:
36,192,35089,1,0,0:0:0:0:
256,192,35089,1,0,0:0:0:0:
256,192,35199,1,0,0:0:0:0:
109,192,35308,1,0,0:0:0:0:
256,192,35308,1,0,0:0:0:0:
402,192,35308,128,0,35746:0:0:0:0:
109,192,35527,1,0,0:0:0:0:
109,192,35746,1,0,0:0:0:0:
475,192,35746,1,0,0:0:0:0:
109,192,35965,1,0,0:0:0:0:
475,192,35965,1,0,0:0:0:0:
109,192,36184,1,0,0:0:0:0:
109,192,36403,1,0,0:0:0:0:
109,192,36622,1,0,0:0:0:0:
329,192,36622,128,0,37060:0:0:0:0:
109,192,36841,1,0,0:0:0:0:
109,192,37060,1,0,0:0:0:0:
475,192,37060,1,0,0:0:0:0:
109,192,37279,1,0,0:0:0:0:
475,192,37279,1,0,0:0:0:0:
402,192,37279,128,0,37717:0:0:0:0:
182,192,37279,1,0,0:0:0:0:
109,192,37498,1,0,0:0:0:0:
109,192,37717,1,0,0:0:0:0:
329,192,37717,1,0,0:0:0:0:
109,192,37936,1,0,0:0:0:0:
475,192,37936,1,0,0:0:0:0:
109,192,38155,1,0,0:0:0:0:
329,192,38155,1,0,0:0:0:0:
109,192,38374,1,0,0:0:0:0:
402,192,38374,1,0,0:0:0:0:
109,192,38593,1,0,0:0:0:0:
475,192,38593,1,0,0:0:0:0:
36,192,38812,1,0,0:0:0:0:
182,192,38812,1,0,0:0:0:0:
329,192,38812,128,0,39688:0:0:0:0:
36,192,39031,1,0,0:0:0:0:
182,192,39031,1,0,0:0:0:0:
36,192,39250,1,0,0:0:0:0:
182,192,39250,1,0,0:0:0:0:
36,192,39469,1,0,0:0:0:0:
182,192,39469,1,0,0:0:0:0:
36,192,39688,1,0,0:0:0:0:
182,192,39688,1,0,0:0:0:0:
402,192,39688,1,0,0:0:0:0:
475,192,39688,1,0,0:0:0:0:
36,192,39907,1,0,0:0:0:0:
182,192,39907,1,0,0:0:0:0:
256,192,39907,1,0,0:0:0:0:
36,192,40126,1,0,0:0:0:0:
182,192,40126,1,0,0:0:0:0:
36,192,40345,1,0,0:0:0:0:
182,192,40345,1,0,0:0:0:0:
182,192,40563,1,0,0:0:0:0:
36,192,40563,1,0,0:0:0:0:
402,192,40563,128,0,41439:0:0:0:0:
182,192,40782,1,0,0:0:0:0:
36,192,40782,1,0,0:0:0:0:
182,192,41001,1,0,0:0:0:0:
36,192,41001,1,0,0:0:0:0:
182,192,41220,1,0,0:0:0:0:
36,192,41220,1,0,0:0:0:0:
36,192,41439,1,0,0:0:0:0:
182,192,41439,1,0,0:0:0:0:
329,192,41439,1,0,0:0:0:0:
475,192,41439,1,0,0:0:0:0:
36,192,41658,1,0,0:0:0:0:
182,192,41658,1,0,0:0:0:0:
36,192,41877,1,0,0:0:0:0:
182,192,41877,1,0,0:0:0:0:
36,192,42096,1,0,0:0:0:0:
182,192,42096,1,0,0:0:0:0:
329,192,42096,1,0,0:0:0:0:
402,192,42096,128,0,42315:0:0:0:0:
109,192,42315,128,0,42534:0:0:0:0:
475,192,42315,1,0,0:0:0:0:
256,192,42534,128,0,42753:0:0:0:0:
36,192,42534,1,0,0:0:0:0:
402,192,42534,1,0,0:0:0:0:
182,192,42753,128,0,42972:0:0:0:0:
329,192,42753,1,0,0:0:0:0:
475,192,42972,128,0,43191:0:0:0:0:
402,192,42972,1,0,0:0:0:0:
109,192,42972,1,0,0:0:0:0:
36,192,43191,128,0,43410:0:0:0:0:
256,192,43191,1,0,0:0:0:0:
329,192,43191,1,0,0:0:0:0:
109,192,43410,1,0,0:0:0:0:
402,192,43410,1,0,0:0:0:0:
256,192,43629,1,0,0:0:0:0:
182,192,43848,128,0,44067:0:0:0:0:
109,192,43848,1,0,0:0:0:0:
256,192,44067,128,0,44286:0:0:0:0:
329,192,44067,1,0,0:0:0:0:
475,192,44067,1,0,0:0:0:0:
402,192,44286,128,0,44505:0:0:0:0:
36,192,44286,1,0,0:0:0:0:
109,192,44505,128,0,44724:0:0:0:0:
182,192,44505,1,0,0:0:0:0:
475,192,44505,1,0,0:0:0:0:
182,192,44724,128,0,44943:0:0:0:0:
36,192,44724,1,0,0:0:0:0:
329,192,44943,128,0,45162:0:0:0:0:
256,192,44943,1,0,0:0:0:0:
402,192,45162,128,0,45381:0:0:0:0:
109,192,45162,1,0,0:0:0:0:
475,192,45381,128,0,45600:0:0:0:0:
256,192,45381,1,0,0:0:0:0:
329,192,45600,128,0,45819:0:0:0:0:
36,192,45600,1,0,0:0:0:0:
475,192,45819,128,0,46038:0:0:0:0:
182,192,45819,1,0,0:0:0:0:
256,192,45819,1,0,0:0:0:0:
402,192,46038,128,0,46257:0:0:0:0:
36,192,46038,1,0,0:0:0:0:
475,192,46257,128,0,46476:0:0:0:0:
182,192,46257,1,0,0:0:0:0:
256,192,46257,1,0,0:0:0:0:
402,192,46476,128,0,46695:0:0:0:0:
36,192,46476,1,0,0:0:0:0:
475,192,46695,128,0,46914:0:0:0:0:
182,192,46695,1,0,0:0:0:0:
256,192,46695,1,0,0:0:0:0:
402,192,46914,128,0,47133:0:0:0:0:
36,192,46914,1,0,0:0:0:0:
475,192,47133,128,0,47352:0:0:0:0:
182,192,47133,1,0,0:0:0:0:
256,192,47133,1,0,0:0:0:0:
402,192,47352,128,0,47571:0:0:0:0:
36,192,47352,1,0,0:0:0:0:
475,192,47571,128,0,48009:0:0:0:0:
256,192,47571,1,0,0:0:0:0:
329,192,47571,1,0,0:0:0:0:
256,192,47790,1,0,0:0:0:0:
329,192,47790,1,0,0:0:0:0:
182,192,48009,128,0,48447:0:0:0:0:
329,192,48009,1,0,0:0:0:0:
402,192,48009,1,0,0:0:0:0:
329,192,48228,1,0,0:0:0:0:
402,192,48228,1,0,0:0:0:0:
329,192,48447,128,0,49323:0:0:0:0:
36,192,48447,1,0,0:0:0:0:
109,192,48447,1,0,0:0:0:0:
36,192,48666,1,0,0:0:0:0:
109,192,48666,1,0,0:0:0:0:
109,192,48885,1,0,0:0:0:0:
36,192,48885,1,0,0:0:0:0:
36,192,49104,1,0,0:0:0:0:
109,192,49104,1,0,0:0:0:0:
109,192,49323,128,0,49542:0:0:0:0:
402,192,49323,1,0,0:0:0:0:
475,192,49323,1,0,0:0:0:0:
36,192,49542,128,0,49761:0:0:0:0:
256,192,49542,1,0,0:0:0:0:
109,192,49761,128,0,49980:0:0:0:0:
402,192,49761,1,0,0:0:0:0:
475,192,49761,1,0,0:0:0:0:
36,192,49980,128,0,50199:0:0:0:0:
256,192,49980,1,0,0:0:0:0:
109,192,50199,128,0,50417:0:0:0:0:
402,192,50199,1,0,0:0:0:0:
475,192,50199,1,0,0:0:0:0:
36,192,50417,128,0,50636:0:0:0:0:
256,192,50417,1,0,0:0:0:0:
109,192,50636,128,0,50855:0:0:0:0:
402,192,50636,1,0,0:0:0:0:
475,192,50636,1,0,0:0:0:0:
36,192,50855,128,0,51074:0:0:0:0:
256,192,50855,1,0,0:0:0:0:
182,192,51074,128,0,51512:0:0:0:0:
256,192,51074,1,0,0:0:0:0:
329,192,51074,1,0,0:0:0:0:
256,192,51293,1,0,0:0:0:0:
329,192,51293,1,0,0:0:0:0:
475,192,51512,128,0,51950:0:0:0:0:
402,192,51512,1,0,0:0:0:0:
329,192,51512,1,0,0:0:0:0:
329,192,51731,1,0,0:0:0:0:
402,192,51731,1,0,0:0:0:0:
256,192,51950,128,0,52826:0:0:0:0:
109,192,51950,1,0,0:0:0:0:
402,192,51950,1,0,0:0:0:0:
109,192,52169,128,0,52826:0:0:0:0:
402,192,52169,128,0,52826:0:0:0:0:
36,192,52826,1,0,0:0:0:0:
182,192,52826,1,0,0:0:0:0:
329,192,52826,128,0,53483:0:0:0:0:
36,192,53045,1,0,0:0:0:0:
182,192,53045,1,0,0:0:0:0:
36,192,53264,1,0,0:0:0:0:
182,192,53264,1,0,0:0:0:0:
256,192,53264,1,0,0:0:0:0:
36,192,53483,1,0,0:0:0:0:
182,192,53483,1,0,0:0:0:0:
475,192,53483,1,0,0:0:0:0:
36,192,53702,1,0,0:0:0:0:
182,192,53702,1,0,0:0:0:0:
475,192,53702,1,0,0:0:0:0:
402,192,53702,128,0,54140:0:0:0:0:
109,192,53921,1,0,0:0:0:0:
256,192,53921,1,0,0:0:0:0:
329,192,53921,1,0,0:0:0:0:
36,192,54140,1,0,0:0:0:0:
182,192,54140,1,0,0:0:0:0:
475,192,54140,128,0,54578:0:0:0:0:
182,192,54359,1,0,0:0:0:0:
329,192,54359,1,0,0:0:0:0:
256,192,54359,1,0,0:0:0:0:
109,192,54578,1,0,0:0:0:0:
36,192,54578,1,0,0:0:0:0:
402,192,54578,128,0,55235:0:0:0:0:
109,192,54797,1,0,0:0:0:0:
36,192,54797,1,0,0:0:0:0:
109,192,55016,1,0,0:0:0:0:
36,192,55016,1,0,0:0:0:0:
182,192,55016,1,0,0:0:0:0:
109,192,55235,1,0,0:0:0:0:
36,192,55235,1,0,0:0:0:0:
329,192,55235,1,0,0:0:0:0:
109,192,55454,1,0,0:0:0:0:
36,192,55454,1,0,0:0:0:0:
329,192,55454,1,0,0:0:0:0:
36,192,55673,1,0,0:0:0:0:
109,192,55673,1,0,0:0:0:0:
182,192,55673,1,0,0:0:0:0:
109,192,55892,1,0,0:0:0:0:
36,192,55892,1,0,0:0:0:0:
329,192,55892,1,0,0:0:0:0:
109,192,56111,1,0,0:0:0:0:
36,192,56111,1,0,0:0:0:0:
182,192,56111,1,0,0:0:0:0:
109,192,56330,128,0,57205:0:0:0:0:
402,192,56330,128,0,57205:0:0:0:0:
182,192,56986,1,0,0:0:0:0:
475,192,56986,1,0,0:0:0:0:
182,192,57205,1,0,0:0:0:0:
475,192,57205,1,0,0:0:0:0:
36,192,57643,1,0,0:0:0:0:
109,192,57643,1,0,0:0:0:0:
329,192,57643,1,0,0:0:0:0:
402,192,57643,1,0,0:0:0:0:
182,192,58081,128,0,58957:0:0:0:0:
475,192,58081,128,0,58957:0:0:0:0:
36,192,58738,1,0,0:0:0:0:
329,192,58738,1,0,0:0:0:0:
36,192,58957,1,0,0:0:0:0:
329,192,58957,1,0,0:0:0:0:
109,192,59395,1,0,0:0:0:0:
182,192,59395,1,0,0:0:0:0:
475,192,59395,1,0,0:0:0:0:
402,192,59395,1,0,0:0:0:0:
36,192,59833,128,0,60709:0:0:0:0:
329,192,59833,128,0,60709:0:0:0:0:
109,192,60490,1,0,0:0:0:0:
402,192,60490,1,0,0:0:0:0:
109,192,60709,1,0,0:0:0:0:
402,192,60709,1,0,0:0:0:0:
182,192,61147,1,0,0:0:0:0:
36,192,61147,1,0,0:0:0:0:
329,192,61147,1,0,0:0:0:0:
475,192,61147,1,0,0:0:0:0:
109,192,61585,128,0,62461:0:0:0:0:
402,192,61585,128,0,62461:0:0:0:0:
256,192,61585,128,0,62461:0:0:0:0:
36,192,62242,1,0,0:0:0:0:
475,192,62242,1,0,0:0:0:0:
36,192,62461,1,0,0:0:0:0:
475,192,62461,1,0,0:0:0:0:
182,192,62899,1,0,0:0:0:0:
329,192,62899,1,0,0:0:0:0:
182,192,63337,1,0,0:0:0:0:
402,192,63337,128,0,63993:0:0:0:0:
36,192,63555,1,0,0:0:0:0:
182,192,63774,1,0,0:0:0:0:
36,192,63993,1,0,0:0:0:0:
329,192,63993,1,0,0:0:0:0:
182,192,64212,1,0,0:0:0:0:
475,192,64212,1,0,0:0:0:0:
36,192,64430,1,0,0:0:0:0:
182,192,64649,1,0,0:0:0:0:
402,192,64650,128,0,65088:0:0:0:0:
36,192,64868,1,0,0:0:0:0:
182,192,65088,1,0,0:0:0:0:
475,192,65088,128,0,65745:0:0:0:0:
36,192,65306,1,0,0:0:0:0:
182,192,65525,1,0,0:0:0:0:
36,192,65744,1,0,0:0:0:0:
329,192,65745,1,0,0:0:0:0:
182,192,65964,1,0,0:0:0:0:
402,192,65964,1,0,0:0:0:0:
36,192,66182,1,0,0:0:0:0:
182,192,66401,1,0,0:0:0:0:
329,192,66402,1,0,0:0:0:0:
36,192,66620,1,0,0:0:0:0:
182,192,66621,1,0,0:0:0:0:
182,192,66731,1,0,0:0:0:0:
36,192,66840,1,0,0:0:0:0:
109,192,66840,1,0,0:0:0:0:
182,192,66840,1,0,0:0:0:0:
402,192,66840,1,0,0:0:0:0:
36,192,67278,1,0,0:0:0:0:
109,192,67278,1,0,0:0:0:0:
402,192,67497,1,0,0:0:0:0:
36,192,67716,1,0,0:0:0:0:
109,192,67716,1,0,0:0:0:0:
475,192,67716,1,0,0:0:0:0:
329,192,67716,128,0,68373:0:0:0:0:
36,192,68154,1,0,0:0:0:0:
109,192,68154,1,0,0:0:0:0:
402,192,68373,1,0,0:0:0:0:
402,192,68592,1,0,0:0:0:0:
36,192,68811,1,0,0:0:0:0:
109,192,68811,1,0,0:0:0:0:
182,192,68811,1,0,0:0:0:0:
329,192,68811,1,0,0:0:0:0:
402,192,68811,1,0,0:0:0:0:
475,192,68811,1,0,0:0:0:0:
475,192,69030,128,0,69467:0:0:0:0:
402,192,69030,128,0,69467:0:0:0:0:
329,192,69030,128,0,69467:0:0:0:0:
182,192,69030,128,0,69467:0:0:0:0:
109,192,69030,128,0,69467:0:0:0:0:
36,192,69030,128,0,69467:0:0:0:0:
109,192,69904,1,0,0:0:0:0:
182,192,69904,1,0,0:0:0:0:
36,192,69904,1,0,0:0:0:0:
329,192,69904,1,0,0:0:0:0:
402,192,69904,1,0,0:0:0:0:
475,192,69904,1,0,0:0:0:0:
256,192,70342,128,0,70560:0:0:0:0:
182,192,70342,1,0,0:0:0:0:
402,192,70560,128,0,70779:0:0:0:0:
36,192,70560,1,0,0:0:0:0:
109,192,70779,128,0,70998:0:0:0:0:
182,192,70779,1,0,0:0:0:0:
475,192,70779,1,0,0:0:0:0:
329,192,70998,128,0,71217:0:0:0:0:
256,192,70998,1,0,0:0:0:0:
182,192,71217,1,0,0:0:0:0:
402,192,71217,1,0,0:0:0:0:
36,192,71436,128,0,71655:0:0:0:0:
256,192,71436,1,0,0:0:0:0:
475,192,71436,1,0,0:0:0:0:
182,192,71655,128,0,71874:0:0:0:0:
329,192,71655,1,0,0:0:0:0:
402,192,71874,128,0,72969:0:0:0:0:
109,192,71874,1,0,0:0:0:0:
36,192,72093,1,0,0:0:0:0:
109,192,72312,1,0,0:0:0:0:
36,192,72531,1,0,0:0:0:0:
182,192,72750,1,0,0:0:0:0:
109,192,72969,128,0,73407:0:0:0:0:
256,192,72969,1,0,0:0:0:0:
329,192,72969,1,0,0:0:0:0:
475,192,73188,1,0,0:0:0:0:
329,192,73407,128,0,73845:0:0:0:0:
182,192,73407,1,0,0:0:0:0:
36,192,73407,1,0,0:0:0:0:
402,192,73626,1,0,0:0:0:0:
182,192,73845,128,0,74064:0:0:0:0:
256,192,73845,1,0,0:0:0:0:
475,192,74064,128,0,74283:0:0:0:0:
109,192,74064,1,0,0:0:0:0:
36,192,74283,128,0,74502:0:0:0:0:
402,192,74283,1,0,0:0:0:0:
329,192,74283,1,0,0:0:0:0:
109,192,74502,128,0,74721:0:0:0:0:
256,192,74502,1,0,0:0:0:0:
182,192,74502,1,0,0:0:0:0:
329,192,74721,1,0,0:0:0:0:
402,192,74940,128,0,75159:0:0:0:0:
36,192,74940,1,0,0:0:0:0:
256,192,74940,1,0,0:0:0:0:
182,192,75159,128,0,75378:0:0:0:0:
475,192,75159,1,0,0:0:0:0:
256,192,75378,128,0,76254:0:0:0:0:
109,192,75378,1,0,0:0:0:0:
329,192,75378,1,0,0:0:0:0:
475,192,75597,1,0,0:0:0:0:
329,192,75816,1,0,0:0:0:0:
475,192,76035,1,0,0:0:0:0:
182,192,76254,128,0,76473:0:0:0:0:
329,192,76254,1,0,0:0:0:0:
36,192,76254,1,0,0:0:0:0:
402,192,76473,128,0,76911:0:0:0:0:
109,192,76473,1,0,0:0:0:0:
256,192,76692,1,0,0:0:0:0:
329,192,76911,1,0,0:0:0:0:
182,192,77130,1,0,0:0:0:0:
109,192,77349,128,0,77568:0:0:0:0:
256,192,77349,1,0,0:0:0:0:
402,192,77568,128,0,77787:0:0:0:0:
36,192,77568,1,0,0:0:0:0:
182,192,77787,128,0,78006:0:0:0:0:
256,192,77787,1,0,0:0:0:0:
329,192,78006,128,0,78225:0:0:0:0:
475,192,78006,1,0,0:0:0:0:
36,192,78006,1,0,0:0:0:0:
109,192,78225,1,0,0:0:0:0:
256,192,78444,128,0,78663:0:0:0:0:
182,192,78444,1,0,0:0:0:0:
402,192,78444,1,0,0:0:0:0:
475,192,78663,128,0,78882:0:0:0:0:
109,192,78663,1,0,0:0:0:0:
402,192,78882,128,0,79539:0:0:0:0:
182,192,78882,1,0,0:0:0:0:
36,192,78882,1,0,0:0:0:0:
256,192,79101,1,0,0:0:0:0:
182,192,79320,1,0,0:0:0:0:
36,192,79320,1,0,0:0:0:0:
329,192,79539,1,0,0:0:0:0:
109,192,79758,128,0,79977:0:0:0:0:
475,192,79758,1,0,0:0:0:0:
182,192,79977,128,0,80414:0:0:0:0:
329,192,79977,1,0,0:0:0:0:
329,192,80196,1,0,0:0:0:0:
36,192,80414,128,0,80852:0:0:0:0:
109,192,80414,1,0,0:0:0:0:
256,192,80414,1,0,0:0:0:0:
182,192,80852,128,0,81728:0:0:0:0:
329,192,80852,128,0,81728:0:0:0:0:
402,192,80852,1,0,0:0:0:0:
475,192,80852,1,0,0:0:0:0:
256,192,81290,1,0,0:0:0:0:
109,192,81728,128,0,82166:0:0:0:0:
402,192,81728,128,0,82166:0:0:0:0:
256,192,81728,1,0,0:0:0:0:
36,192,82166,128,0,82604:0:0:0:0:
256,192,82166,128,0,82604:0:0:0:0:
475,192,82166,128,0,82604:0:0:0:0:
109,192,82604,128,0,83261:0:0:0:0:
402,192,82604,128,0,83261:0:0:0:0:
256,192,83261,128,0,83480:0:0:0:0:
182,192,83261,1,0,0:0:0:0:
329,192,83261,1,0,0:0:0:0:
36,192,83480,128,0,84137:0:0:0:0:
182,192,83480,128,0,84137:0:0:0:0:
329,192,83480,128,0,84137:0:0:0:0:
475,192,83480,128,0,84137:0:0:0:0:
256,192,83918,1,0,0:0:0:0:
256,192,84137,1,0,0:0:0:0:
402,192,84356,128,0,84575:0:0:0:0:
182,192,84356,1,0,0:0:0:0:
109,192,84575,128,0,84794:0:0:0:0:
329,192,84575,1,0,0:0:0:0:
256,192,84794,128,0,85013:0:0:0:0:
36,192,84794,1,0,0:0:0:0:
182,192,85013,128,0,85232:0:0:0:0:
402,192,85013,1,0,0:0:0:0:
475,192,85013,1,0,0:0:0:0:
329,192,85232,1,0,0:0:0:0:
36,192,85232,1,0,0:0:0:0:
109,192,85451,128,0,85670:0:0:0:0:
256,192,85451,1,0,0:0:0:0:
402,192,85451,1,0,0:0:0:0:
36,192,85670,128,0,85889:0:0:0:0:
329,192,85670,1,0,0:0:0:0:
182,192,85889,1,0,0:0:0:0:
402,192,85889,1,0,0:0:0:0:
475,192,85889,128,0,86984:0:0:0:0:
109,192,86108,1,0,0:0:0:0:
329,192,86108,1,0,0:0:0:0:
36,192,86108,1,0,0:0:0:0:
182,192,86327,1,0,0:0:0:0:
402,192,86327,1,0,0:0:0:0:
36,192,86546,1,0,0:0:0:0:
109,192,86546,1,0,0:0:0:0:
329,192,86546,1,0,0:0:0:0:
182,192,86765,1,0,0:0:0:0:
402,192,86765,1,0,0:0:0:0:
109,192,86984,128,0,87422:0:0:0:0:
256,192,86984,1,0,0:0:0:0:
329,192,86984,1,0,0:0:0:0:
182,192,87203,1,0,0:0:0:0:
329,192,87422,128,0,87860:0:0:0:0:
36,192,87422,1,0,0:0:0:0:
402,192,87422,1,0,0:0:0:0:
109,192,87641,1,0,0:0:0:0:
182,192,87860,128,0,88079:0:0:0:0:
256,192,87860,1,0,0:0:0:0:
475,192,87860,1,0,0:0:0:0:
36,192,88079,128,0,88298:0:0:0:0:
109,192,88079,1,0,0:0:0:0:
402,192,88298,128,0,88517:0:0:0:0:
256,192,88298,1,0,0:0:0:0:
182,192,88517,128,0,88955:0:0:0:0:
329,192,88517,1,0,0:0:0:0:
109,192,88517,1,0,0:0:0:0:
475,192,88736,1,0,0:0:0:0:
329,192,88955,128,0,89393:0:0:0:0:
402,192,88955,1,0,0:0:0:0:
36,192,88955,1,0,0:0:0:0:
109,192,89174,1,0,0:0:0:0:
109,192,89393,128,0,90269:0:0:0:0:
256,192,89393,1,0,0:0:0:0:
475,192,89393,1,0,0:0:0:0:
36,192,89612,1,0,0:0:0:0:
256,192,89831,1,0,0:0:0:0:
475,192,89831,1,0,0:0:0:0:
36,192,90050,1,0,0:0:0:0:
402,192,90269,128,0,90487:0:0:0:0:
256,192,90269,1,0,0:0:0:0:
329,192,90487,128,0,90925:0:0:0:0:
182,192,90487,1,0,0:0:0:0:
36,192,90487,1,0,0:0:0:0:
256,192,90706,1,0,0:0:0:0:
36,192,90925,128,0,91363:0:0:0:0:
475,192,90925,1,0,0:0:0:0:
109,192,90925,1,0,0:0:0:0:
402,192,91144,1,0,0:0:0:0:
256,192,91363,128,0,91801:0:0:0:0:
182,192,91363,1,0,0:0:0:0:
402,192,91582,1,0,0:0:0:0:
109,192,91801,128,0,92020:0:0:0:0:
475,192,91801,1,0,0:0:0:0:
36,192,91801,1,0,0:0:0:0:
329,192,92020,128,0,92458:0:0:0:0:
182,192,92020,1,0,0:0:0:0:
475,192,92239,1,0,0:0:0:0:
256,192,92458,1,0,0:0:0:0:
36,192,92458,1,0,0:0:0:0:
402,192,92458,128,0,92896:0:0:0:0:
182,192,92677,1,0,0:0:0:0:
36,192,92896,128,0,93772:0:0:0:0:
256,192,92896,1,0,0:0:0:0:
329,192,92896,1,0,0:0:0:0:
109,192,92896,1,0,0:0:0:0:
182,192,93115,1,0,0:0:0:0:
475,192,93334,1,0,0:0:0:0:
256,192,93553,1,0,0:0:0:0:
182,192,93772,128,0,93991:0:0:0:0:
329,192,93772,1,0,0:0:0:0:
402,192,93772,1,0,0:0:0:0:
109,192,93991,128,0,94429:0:0:0:0:
475,192,93991,1,0,0:0:0:0:
256,192,94210,1,0,0:0:0:0:
475,192,94429,128,0,94867:0:0:0:0:
36,192,94429,1,0,0:0:0:0:
329,192,94429,1,0,0:0:0:0:
402,192,94429,1,0,0:0:0:0:
256,192,94648,1,0,0:0:0:0:
182,192,94867,128,0,95743:0:0:0:0:
109,192,94867,1,0,0:0:0:0:
329,192,94867,1,0,0:0:0:0:
109,192,95305,1,0,0:0:0:0:
329,192,95305,1,0,0:0:0:0:
329,192,95743,128,0,96181:0:0:0:0:
109,192,95743,1,0,0:0:0:0:
402,192,95743,1,0,0:0:0:0:
256,192,96181,1,0,0:0:0:0:
402,192,96181,1,0,0:0:0:0:
475,192,96181,128,0,96619:0:0:0:0:
256,192,96619,128,0,97495:0:0:0:0:
36,192,96619,1,0,0:0:0:0:
182,192,96619,1,0,0:0:0:0:
329,192,96619,1,0,0:0:0:0:
36,192,97057,1,0,0:0:0:0:
182,192,97057,1,0,0:0:0:0:
329,192,97057,1,0,0:0:0:0:
109,192,97495,128,0,98152:0:0:0:0:
36,192,97495,1,0,0:0:0:0:
402,192,97495,1,0,0:0:0:0:
402,192,98152,128,0,98371:0:0:0:0:
256,192,98152,1,0,0:0:0:0:
256,192,98370,128,0,100122:0:0:0:0:
36,192,98370,1,0,0:0:0:0:
329,192,98370,1,0,0:0:0:0:
475,192,98589,1,0,0:0:0:0:
182,192,98589,1,0,0:0:0:0:
36,192,98808,1,0,0:0:0:0:
329,192,98808,1,0,0:0:0:0:
109,192,99027,1,0,0:0:0:0:
182,192,99027,1,0,0:0:0:0:
402,192,99027,1,0,0:0:0:0:
475,192,99027,1,0,0:0:0:0:
329,192,99246,1,0,0:0:0:0:
36,192,99246,1,0,0:0:0:0:
182,192,99465,1,0,0:0:0:0:
475,192,99465,1,0,0:0:0:0:
402,192,99684,1,0,0:0:0:0:
109,192,99684,1,0,0:0:0:0:
329,192,99903,1,0,0:0:0:0:
36,192,99903,1,0,0:0:0:0:
329,192,100122,128,0,101874:0:0:0:0:
109,192,100122,1,0,0:0:0:0:
182,192,100122,1,0,0:0:0:0:
475,192,100341,1,0,0:0:0:0:
36,192,100560,1,0,0:0:0:0:
109,192,100560,1,0,0:0:0:0:
402,192,100779,1,0,0:0:0:0:
109,192,100998,1,0,0:0:0:0:
256,192,100998,1,0,0:0:0:0:
475,192,101217,1,0,0:0:0:0:
36,192,101436,1,0,0:0:0:0:
109,192,101436,1,0,0:0:0:0:
402,192,101655,1,0,0:0:0:0:
182,192,101874,128,0,103626:0:0:0:0:
36,192,101874,128,0,102093:0:0:0:0:
475,192,101874,1,0,0:0:0:0:
329,192,102093,1,0,0:0:0:0:
36,192,102312,128,0,102531:0:0:0:0:
475,192,102312,1,0,0:0:0:0:
329,192,102531,1,0,0:0:0:0:
36,192,102750,128,0,102969:0:0:0:0:
475,192,102750,1,0,0:0:0:0:
329,192,102969,1,0,0:0:0:0:
36,192,103188,128,0,103407:0:0:0:0:
475,192,103188,1,0,0:0:0:0:
329,192,103407,1,0,0:0:0:0:
475,192,103626,128,0,105378:0:0:0:0:
402,192,103626,128,0,103845:0:0:0:0:
109,192,103626,1,0,0:0:0:0:
329,192,103845,1,0,0:0:0:0:
402,192,104064,128,0,104283:0:0:0:0:
109,192,104064,1,0,0:0:0:0:
256,192,104283,1,0,0:0:0:0:
402,192,104502,128,0,104721:0:0:0:0:
109,192,104502,1,0,0:0:0:0:
182,192,104721,1,0,0:0:0:0:
402,192,104940,128,0,105159:0:0:0:0:
109,192,104940,1,0,0:0:0:0:
109,192,105159,1,0,0:0:0:0:
36,192,105378,128,0,107130:0:0:0:0:
182,192,105378,1,0,0:0:0:0:
256,192,105378,1,0,0:0:0:0:
329,192,105597,1,0,0:0:0:0:
182,192,105816,1,0,0:0:0:0:
256,192,105816,1,0,0:0:0:0:
402,192,106035,1,0,0:0:0:0:
182,192,106254,1,0,0:0:0:0:
256,192,106254,1,0,0:0:0:0:
475,192,106473,1,0,0:0:0:0:
182,192,106692,1,0,0:0:0:0:
256,192,106692,1,0,0:0:0:0:
402,192,106911,1,0,0:0:0:0:
256,192,107130,128,0,108881:0:0:0:0:
182,192,107130,128,0,107349:0:0:0:0:
329,192,107130,1,0,0:0:0:0:
475,192,107349,1,0,0:0:0:0:
182,192,107568,128,0,107787:0:0:0:0:
329,192,107568,1,0,0:0:0:0:
475,192,107787,1,0,0:0:0:0:
329,192,108006,128,0,108225:0:0:0:0:
36,192,108006,1,0,0:0:0:0:
182,192,108225,1,0,0:0:0:0:
329,192,108443,128,0,108662:0:0:0:0:
36,192,108443,1,0,0:0:0:0:
182,192,108662,1,0,0:0:0:0:
182,192,108881,128,0,110633:0:0:0:0:
329,192,108881,128,0,110633:0:0:0:0:
36,192,108881,128,0,109100:0:0:0:0:
475,192,108881,128,0,109100:0:0:0:0:
109,192,109100,128,0,109319:0:0:0:0:
402,192,109100,128,0,109319:0:0:0:0:
36,192,109319,128,0,109538:0:0:0:0:
475,192,109319,128,0,109538:0:0:0:0:
109,192,109538,128,0,109757:0:0:0:0:
402,192,109538,128,0,109757:0:0:0:0:
36,192,109757,128,0,109976:0:0:0:0:
475,192,109757,128,0,109976:0:0:0:0:
109,192,109976,128,0,110195:0:0:0:0:
402,192,109976,128,0,110195:0:0:0:0:
36,192,110195,128,0,110414:0:0:0:0:
475,192,110195,128,0,110414:0:0:0:0:
109,192,110414,128,0,110633:0:0:0:0:
402,192,110414,128,0,110633:0:0:0:0:
256,192,110633,128,0,112385:0:0:0:0:
109,192,110852,1,0,0:0:0:0:
402,192,110852,1,0,0:0:0:0:
109,192,111071,1,0,0:0:0:0:
402,192,111071,1,0,0:0:0:0:
36,192,111290,1,0,0:0:0:0:
329,192,111290,1,0,0:0:0:0:
109,192,111509,1,0,0:0:0:0:
402,192,111509,1,0,0:0:0:0:
109,192,111728,1,0,0:0:0:0:
402,192,111728,1,0,0:0:0:0:
109,192,111947,1,0,0:0:0:0:
402,192,111947,1,0,0:0:0:0:
182,192,112166,1,0,0:0:0:0:
475,192,112166,1,0,0:0:0:0:
402,192,112385,1,0,0:0:0:0:
109,192,112385,128,0,112823:0:0:0:0:
402,192,112604,1,0,0:0:0:0:
402,192,112823,1,0,0:0:0:0:
329,192,112823,1,0,0:0:0:0:
182,192,112823,1,0,0:0:0:0:
402,192,113042,1,0,0:0:0:0:
182,192,113042,1,0,0:0:0:0:
402,192,113261,1,0,0:0:0:0:
402,192,113480,1,0,0:0:0:0:
402,192,113699,1,0,0:0:0:0:
329,192,113699,1,0,0:0:0:0:
109,192,113699,128,0,114137:0:0:0:0:
402,192,113918,1,0,0:0:0:0:
402,192,114137,1,0,0:0:0:0:
36,192,114137,1,0,0:0:0:0:
402,192,114356,1,0,0:0:0:0:
36,192,114356,1,0,0:0:0:0:
402,192,114575,1,0,0:0:0:0:
329,192,114575,1,0,0:0:0:0:
402,192,114794,1,0,0:0:0:0:
182,192,114794,1,0,0:0:0:0:
402,192,115013,1,0,0:0:0:0:
36,192,115013,1,0,0:0:0:0:
402,192,115232,1,0,0:0:0:0:
109,192,115232,1,0,0:0:0:0:
402,192,115451,1,0,0:0:0:0:
329,192,115451,1,0,0:0:0:0:
182,192,115451,1,0,0:0:0:0:
402,192,115670,1,0,0:0:0:0:
109,192,115670,1,0,0:0:0:0:
402,192,115889,1,0,0:0:0:0:
475,192,115889,1,0,0:0:0:0:
36,192,115889,128,0,116327:0:0:0:0:
402,192,116108,1,0,0:0:0:0:
475,192,116108,1,0,0:0:0:0:
402,192,116327,1,0,0:0:0:0:
475,192,116327,1,0,0:0:0:0:
329,192,116327,1,0,0:0:0:0:
182,192,116327,1,0,0:0:0:0:
402,192,116546,1,0,0:0:0:0:
475,192,116546,1,0,0:0:0:0:
109,192,116546,1,0,0:0:0:0:
475,192,116765,1,0,0:0:0:0:
402,192,116765,1,0,0:0:0:0:
402,192,116984,1,0,0:0:0:0:
475,192,116984,1,0,0:0:0:0:
475,192,117203,1,0,0:0:0:0:
402,192,117203,1,0,0:0:0:0:
329,192,117203,1,0,0:0:0:0:
182,192,117203,128,0,117641:0:0:0:0:
402,192,117422,1,0,0:0:0:0:
475,192,117422,1,0,0:0:0:0:
402,192,117641,1,0,0:0:0:0:
475,192,117641,1,0,0:0:0:0:
36,192,117641,1,0,0:0:0:0:
475,192,117860,1,0,0:0:0:0:
402,192,117860,1,0,0:0:0:0:
109,192,117860,1,0,0:0:0:0:
402,192,118079,1,0,0:0:0:0:
475,192,118079,1,0,0:0:0:0:
329,192,118079,1,0,0:0:0:0:
475,192,118298,1,0,0:0:0:0:
402,192,118298,1,0,0:0:0:0:
182,192,118298,1,0,0:0:0:0:
475,192,118516,1,0,0:0:0:0:
402,192,118516,1,0,0:0:0:0:
36,192,118516,1,0,0:0:0:0:
402,192,118735,1,0,0:0:0:0:
475,192,118735,1,0,0:0:0:0:
109,192,118735,1,0,0:0:0:0:
182,192,118735,1,0,0:0:0:0:
475,192,118954,1,0,0:0:0:0:
402,192,118954,1,0,0:0:0:0:
329,192,118954,1,0,0:0:0:0:
36,192,118954,1,0,0:0:0:0:
182,192,119173,1,0,0:0:0:0:
402,192,119173,1,0,0:0:0:0:
475,192,119173,1,0,0:0:0:0:
475,192,119392,1,0,0:0:0:0:
109,192,119392,128,0,119830:0:0:0:0:
475,192,119611,1,0,0:0:0:0:
475,192,119830,1,0,0:0:0:0:
329,192,119830,1,0,0:0:0:0:
36,192,119830,1,0,0:0:0:0:
475,192,120049,1,0,0:0:0:0:
182,192,120049,1,0,0:0:0:0:
475,192,120268,1,0,0:0:0:0:
475,192,120487,1,0,0:0:0:0:
475,192,120706,1,0,0:0:0:0:
329,192,120706,1,0,0:0:0:0:
182,192,120706,128,0,121144:0:0:0:0:
475,192,120925,1,0,0:0:0:0:
475,192,121144,1,0,0:0:0:0:
109,192,121144,1,0,0:0:0:0:
475,192,121363,1,0,0:0:0:0:
36,192,121363,128,0,121801:0:0:0:0:
475,192,121582,1,0,0:0:0:0:
329,192,121582,1,0,0:0:0:0:
475,192,121801,1,0,0:0:0:0:
109,192,121801,1,0,0:0:0:0:
475,192,122020,1,0,0:0:0:0:
182,192,122020,1,0,0:0:0:0:
475,192,122239,1,0,0:0:0:0:
36,192,122239,1,0,0:0:0:0:
475,192,122458,1,0,0:0:0:0:
329,192,122458,1,0,0:0:0:0:
182,192,122458,1,0,0:0:0:0:
475,192,122677,1,0,0:0:0:0:
109,192,122677,1,0,0:0:0:0:
36,192,122677,1,0,0:0:0:0:
329,192,122896,1,0,0:0:0:0:
182,192,122896,128,0,123772:0:0:0:0:
329,192,123115,1,0,0:0:0:0:
329,192,123334,1,0,0:0:0:0:
402,192,123334,1,0,0:0:0:0:
329,192,123553,1,0,0:0:0:0:
36,192,123553,1,0,0:0:0:0:
329,192,123772,1,0,0:0:0:0:
36,192,123772,1,0,0:0:0:0:
329,192,123991,1,0,0:0:0:0:
402,192,124210,1,0,0:0:0:0:
329,192,124210,1,0,0:0:0:0:
36,192,124210,128,0,124648:0:0:0:0:
329,192,124429,1,0,0:0:0:0:
329,192,124648,1,0,0:0:0:0:
109,192,124648,128,0,125524:0:0:0:0:
329,192,124867,1,0,0:0:0:0:
329,192,125086,1,0,0:0:0:0:
402,192,125086,1,0,0:0:0:0:
329,192,125305,1,0,0:0:0:0:
36,192,125305,1,0,0:0:0:0:
329,192,125524,1,0,0:0:0:0:
182,192,125524,128,0,125962:0:0:0:0:
329,192,125743,1,0,0:0:0:0:
329,192,125962,1,0,0:0:0:0:
402,192,125962,1,0,0:0:0:0:
329,192,126181,1,0,0:0:0:0:
109,192,126181,128,0,126400:0:0:0:0:
182,192,126181,1,0,0:0:0:0:
402,192,126400,128,0,126619:0:0:0:0:
36,192,126400,1,0,0:0:0:0:
36,192,126619,128,0,126838:0:0:0:0:
182,192,126619,1,0,0:0:0:0:
256,192,126619,1,0,0:0:0:0:
475,192,126838,128,0,127057:0:0:0:0:
329,192,126838,1,0,0:0:0:0:
109,192,126838,1,0,0:0:0:0:
182,192,127057,128,0,127276:0:0:0:0:
256,192,127057,1,0,0:0:0:0:
329,192,127276,128,0,127495:0:0:0:0:
109,192,127276,1,0,0:0:0:0:
402,192,127276,1,0,0:0:0:0:
256,192,127495,1,0,0:0:0:0:
36,192,127495,1,0,0:0:0:0:
475,192,127495,1,0,0:0:0:0:
402,192,127714,1,0,0:0:0:0:
109,192,127933,128,0,128152:0:0:0:0:
182,192,127933,1,0,0:0:0:0:
475,192,127933,1,0,0:0:0:0:
329,192,127933,1,0,0:0:0:0:
402,192,128152,128,0,128371:0:0:0:0:
256,192,128152,1,0,0:0:0:0:
36,192,128152,1,0,0:0:0:0:
329,192,128371,128,0,128589:0:0:0:0:
182,192,128371,1,0,0:0:0:0:
475,192,128589,128,0,128808:0:0:0:0:
256,192,128589,1,0,0:0:0:0:
36,192,128589,1,0,0:0:0:0:
109,192,128808,128,0,129027:0:0:0:0:
182,192,128808,1,0,0:0:0:0:
402,192,128808,1,0,0:0:0:0:
256,192,129027,128,0,129246:0:0:0:0:
329,192,129027,1,0,0:0:0:0:
36,192,129027,1,0,0:0:0:0:
36,192,129246,128,0,129465:0:0:0:0:
182,192,129246,1,0,0:0:0:0:
475,192,129246,1,0,0:0:0:0:
402,192,129465,128,0,129684:0:0:0:0:
329,192,129465,1,0,0:0:0:0:
109,192,129465,1,0,0:0:0:0:
256,192,129684,1,0,0:0:0:0:
182,192,129684,1,0,0:0:0:0:
36,192,129684,128,0,129903:0:0:0:0:
475,192,129903,128,0,130122:0:0:0:0:
329,192,129903,1,0,0:0:0:0:
402,192,129903,1,0,0:0:0:0:
36,192,130122,128,0,130341:0:0:0:0:
109,192,130122,1,0,0:0:0:0:
182,192,130122,1,0,0:0:0:0:
475,192,130341,128,0,130560:0:0:0:0:
329,192,130341,1,0,0:0:0:0:
402,192,130341,1,0,0:0:0:0:
36,192,130560,128,0,130779:0:0:0:0:
109,192,130560,1,0,0:0:0:0:
182,192,130560,1,0,0:0:0:0:
475,192,130779,128,0,130998:0:0:0:0:
329,192,130779,1,0,0:0:0:0:
402,192,130779,1,0,0:0:0:0:
36,192,130998,128,0,131217:0:0:0:0:
109,192,130998,1,0,0:0:0:0:
182,192,130998,1,0,0:0:0:0:
475,192,131217,128,0,131436:0:0:0:0:
329,192,131217,1,0,0:0:0:0:
402,192,131217,1,0,0:0:0:0:
36,192,131436,128,0,131655:0:0:0:0:
109,192,131436,1,0,0:0:0:0:
182,192,131436,1,0,0:0:0:0:
329,192,131655,128,0,131874:0:0:0:0:
402,192,131655,1,0,0:0:0:0:
182,192,131874,128,0,132093:0:0:0:0:
109,192,131874,1,0,0:0:0:0:
475,192,131874,1,0,0:0:0:0:
402,192,132093,128,0,132531:0:0:0:0:
256,192,132093,1,0,0:0:0:0:
36,192,132093,1,0,0:0:0:0:
36,192,132312,1,0,0:0:0:0:
256,192,132312,1,0,0:0:0:0:
109,192,132531,128,0,132750:0:0:0:0:
329,192,132531,1,0,0:0:0:0:
329,192,132750,128,0,132969:0:0:0:0:
36,192,132750,1,0,0:0:0:0:
475,192,132750,1,0,0:0:0:0:
182,192,132969,128,0,133188:0:0:0:0:
256,192,132969,1,0,0:0:0:0:
475,192,133188,128,0,133407:0:0:0:0:
109,192,133188,1,0,0:0:0:0:
402,192,133188,1,0,0:0:0:0:
36,192,133407,128,0,133626:0:0:0:0:
109,192,133407,1,0,0:0:0:0:
329,192,133626,128,0,133845:0:0:0:0:
402,192,133626,1,0,0:0:0:0:
182,192,133626,1,0,0:0:0:0:
36,192,133845,128,0,134064:0:0:0:0:
109,192,133845,1,0,0:0:0:0:
475,192,133845,1,0,0:0:0:0:
329,192,134064,128,0,134283:0:0:0:0:
256,192,134064,1,0,0:0:0:0:
182,192,134064,1,0,0:0:0:0:
36,192,134283,128,0,134502:0:0:0:0:
109,192,134283,1,0,0:0:0:0:
475,192,134283,1,0,0:0:0:0:
329,192,134502,128,0,134721:0:0:0:0:
256,192,134502,1,0,0:0:0:0:
182,192,134502,1,0,0:0:0:0:
256,192,134721,128,0,135159:0:0:0:0:
402,192,134721,1,0,0:0:0:0:
109,192,134721,1,0,0:0:0:0:
475,192,134940,1,0,0:0:0:0:
36,192,135159,1,0,0:0:0:0:
182,192,135159,1,0,0:0:0:0:
402,192,135378,128,0,135597:0:0:0:0:
109,192,135378,1,0,0:0:0:0:
475,192,135378,1,0,0:0:0:0:
109,192,135597,128,0,135816:0:0:0:0:
256,192,135597,1,0,0:0:0:0:
182,192,135597,1,0,0:0:0:0:
329,192,135816,128,0,136035:0:0:0:0:
475,192,135816,1,0,0:0:0:0:
36,192,136035,128,0,136254:0:0:0:0:
256,192,136035,1,0,0:0:0:0:
402,192,136254,128,0,136473:0:0:0:0:
109,192,136254,1,0,0:0:0:0:
182,192,136254,1,0,0:0:0:0:
475,192,136473,128,0,136692:0:0:0:0:
329,192,136473,1,0,0:0:0:0:
109,192,136692,128,0,136911:0:0:0:0:
256,192,136692,1,0,0:0:0:0:
36,192,136911,1,0,0:0:0:0:
329,192,136911,1,0,0:0:0:0:
182,192,136911,128,0,137787:0:0:0:0:
329,192,137130,1,0,0:0:0:0:
329,192,137349,1,0,0:0:0:0:
329,192,137568,1,0,0:0:0:0:
36,192,137787,128,0,138225:0:0:0:0:
329,192,137787,1,0,0:0:0:0:
402,192,138006,1,0,0:0:0:0:
109,192,138225,128,0,138662:0:0:0:0:
329,192,138225,1,0,0:0:0:0:
475,192,138443,1,0,0:0:0:0:
329,192,138662,128,0,139100:0:0:0:0:
36,192,138662,1,0,0:0:0:0:
36,192,138881,1,0,0:0:0:0:
182,192,139100,128,0,139538:0:0:0:0:
36,192,139100,1,0,0:0:0:0:
36,192,139319,1,0,0:0:0:0:
475,192,139538,128,0,139976:0:0:0:0:
36,192,139538,1,0,0:0:0:0:
402,192,139757,1,0,0:0:0:0:
36,192,139976,128,0,140414:0:0:0:0:
109,192,139976,1,0,0:0:0:0:
256,192,140195,1,0,0:0:0:0:
182,192,140195,1,0,0:0:0:0:
182,192,140305,1,0,0:0:0:0:
182,192,140414,1,0,0:0:0:0:
109,192,140414,128,0,141290:0:0:0:0:
402,192,140852,1,0,0:0:0:0:
475,192,140852,1,0,0:0:0:0:
402,192,141071,1,0,0:0:0:0:
475,192,141071,1,0,0:0:0:0:
182,192,141071,1,0,0:0:0:0:
182,192,141290,1,0,0:0:0:0:
402,192,141728,1,0,0:0:0:0:
475,192,141728,1,0,0:0:0:0:
182,192,141728,128,0,142166:0:0:0:0:
36,192,142166,128,0,143042:0:0:0:0:
475,192,142604,1,0,0:0:0:0:
402,192,142604,1,0,0:0:0:0:
402,192,142823,1,0,0:0:0:0:
475,192,142823,1,0,0:0:0:0:
109,192,142823,1,0,0:0:0:0:
109,192,143042,1,0,0:0:0:0:
402,192,143480,1,0,0:0:0:0:
475,192,143480,1,0,0:0:0:0:
182,192,143480,128,0,143918:0:0:0:0:
109,192,143918,128,0,144794:0:0:0:0:
402,192,144356,1,0,0:0:0:0:
475,192,144356,1,0,0:0:0:0:
402,192,144575,1,0,0:0:0:0:
475,192,144575,1,0,0:0:0:0:
36,192,144575,1,0,0:0:0:0:
36,192,144794,1,0,0:0:0:0:
402,192,145232,1,0,0:0:0:0:
475,192,145232,1,0,0:0:0:0:
36,192,145232,128,0,145670:0:0:0:0:
182,192,145670,128,0,146546:0:0:0:0:
402,192,146108,1,0,0:0:0:0:
475,192,146108,1,0,0:0:0:0:
402,192,146327,1,0,0:0:0:0:
475,192,146327,1,0,0:0:0:0:
329,192,146327,1,0,0:0:0:0:
36,192,146327,1,0,0:0:0:0:
329,192,146546,128,0,146984:0:0:0:0:
36,192,146546,1,0,0:0:0:0:
475,192,146984,128,0,147422:0:0:0:0:
402,192,146984,1,0,0:0:0:0:
182,192,146984,128,0,147422:0:0:0:0:
256,192,147422,128,0,148298:0:0:0:0:
36,192,147860,1,0,0:0:0:0:
109,192,147860,1,0,0:0:0:0:
36,192,148079,1,0,0:0:0:0:
109,192,148079,1,0,0:0:0:0:
329,192,148079,1,0,0:0:0:0:
329,192,148298,1,0,0:0:0:0:
36,192,148735,1,0,0:0:0:0:
109,192,148735,1,0,0:0:0:0:
475,192,148735,128,0,149173:0:0:0:0:
329,192,149173,128,0,150049:0:0:0:0:
36,192,149611,1,0,0:0:0:0:
109,192,149611,1,0,0:0:0:0:
109,192,149830,1,0,0:0:0:0:
36,192,149830,1,0,0:0:0:0:
402,192,149830,1,0,0:0:0:0:
402,192,150049,1,0,0:0:0:0:
109,192,150486,1,0,0:0:0:0:
36,192,150486,1,0,0:0:0:0:
475,192,150487,128,0,150925:0:0:0:0:
329,192,150925,128,0,151801:0:0:0:0:
36,192,151363,1,0,0:0:0:0:
109,192,151363,1,0,0:0:0:0:
109,192,151582,1,0,0:0:0:0:
36,192,151582,1,0,0:0:0:0:
402,192,151582,1,0,0:0:0:0:
402,192,151801,1,0,0:0:0:0:
475,192,151801,128,0,152239:0:0:0:0:
36,192,152238,1,0,0:0:0:0:
109,192,152238,1,0,0:0:0:0:
329,192,152239,128,0,152677:0:0:0:0:
36,192,152458,1,0,0:0:0:0:
109,192,152458,1,0,0:0:0:0:
36,192,152568,1,0,0:0:0:0:
109,192,152568,1,0,0:0:0:0:
475,192,152677,128,0,153115:0:0:0:0:
36,192,152677,1,0,0:0:0:0:
109,192,152677,1,0,0:0:0:0:
36,192,153115,1,0,0:0:0:0:
109,192,153115,1,0,0:0:0:0:
36,192,153334,1,0,0:0:0:0:
109,192,153334,1,0,0:0:0:0:
402,192,153553,128,0,153991:0:0:0:0:
109,192,153553,128,0,153991:0:0:0:0:
182,192,153553,128,0,153991:0:0:0:0:
329,192,153553,128,0,153991:0:0:0:0:
36,192,153991,128,0,154429:0:0:0:0:
475,192,153991,128,0,154429:0:0:0:0:
182,192,154427,128,0,155084:0:0:0:0:
256,192,154427,1,0,0:0:0:0:
402,192,154427,1,0,0:0:0:0:
109,192,154646,1,0,0:0:0:0:
402,192,154865,1,0,0:0:0:0:
36,192,154865,1,0,0:0:0:0:
329,192,155084,128,0,155303:0:0:0:0:
475,192,155084,1,0,0:0:0:0:
256,192,155084,1,0,0:0:0:0:
109,192,155303,128,0,155522:0:0:0:0:
36,192,155303,1,0,0:0:0:0:
256,192,155522,1,0,0:0:0:0:
402,192,155522,1,0,0:0:0:0:
475,192,155741,128,0,155960:0:0:0:0:
329,192,155741,1,0,0:0:0:0:
182,192,155960,128,0,156179:0:0:0:0:
36,192,155960,1,0,0:0:0:0:
329,192,156179,128,0,156836:0:0:0:0:
256,192,156179,1,0,0:0:0:0:
402,192,156179,1,0,0:0:0:0:
109,192,156398,1,0,0:0:0:0:
475,192,156398,1,0,0:0:0:0:
256,192,156617,1,0,0:0:0:0:
36,192,156836,128,0,157055:0:0:0:0:
182,192,156836,1,0,0:0:0:0:
402,192,156836,1,0,0:0:0:0:
109,192,157055,128,0,157274:0:0:0:0:
256,192,157055,1,0,0:0:0:0:
475,192,157055,1,0,0:0:0:0:
402,192,157274,1,0,0:0:0:0:
182,192,157274,1,0,0:0:0:0:
256,192,157493,128,0,157712:0:0:0:0:
36,192,157493,1,0,0:0:0:0:
329,192,157493,1,0,0:0:0:0:
182,192,157712,128,0,157931:0:0:0:0:
475,192,157712,1,0,0:0:0:0:
402,192,157931,128,0,158588:0:0:0:0:
329,192,157931,1,0,0:0:0:0:
36,192,157931,1,0,0:0:0:0:
109,192,158150,1,0,0:0:0:0:
256,192,158150,1,0,0:0:0:0:
182,192,158369,1,0,0:0:0:0:
109,192,158588,128,0,158807:0:0:0:0:
329,192,158588,1,0,0:0:0:0:
36,192,158588,1,0,0:0:0:0:
256,192,158807,128,0,159026:0:0:0:0:
182,192,158807,1,0,0:0:0:0:
475,192,158807,1,0,0:0:0:0:
402,192,159026,1,0,0:0:0:0:
109,192,159245,128,0,159683:0:0:0:0:
329,192,159245,1,0,0:0:0:0:
36,192,159245,1,0,0:0:0:0:
475,192,159683,128,0,160121:0:0:0:0:
182,192,159683,1,0,0:0:0:0:
402,192,159683,1,0,0:0:0:0:
329,192,159901,1,0,0:0:0:0:
182,192,160121,128,0,160559:0:0:0:0:
256,192,160121,1,0,0:0:0:0:
36,192,160340,1,0,0:0:0:0:
329,192,160340,1,0,0:0:0:0:
109,192,160449,1,0,0:0:0:0:
402,192,160449,1,0,0:0:0:0:
256,192,160559,128,0,160778:0:0:0:0:
329,192,160559,1,0,0:0:0:0:
475,192,160559,1,0,0:0:0:0:
475,192,160778,128,0,160997:0:0:0:0:
36,192,160778,1,0,0:0:0:0:
402,192,160778,1,0,0:0:0:0:
109,192,160997,1,0,0:0:0:0:
329,192,160997,1,0,0:0:0:0:
182,192,160997,128,0,161435:0:0:0:0:
256,192,161215,1,0,0:0:0:0:
402,192,161435,128,0,161873:0:0:0:0:
109,192,161435,1,0,0:0:0:0:
329,192,161435,1,0,0:0:0:0:
36,192,161654,1,0,0:0:0:0:
256,192,161873,128,0,162092:0:0:0:0:
182,192,161873,1,0,0:0:0:0:
109,192,162092,128,0,162311:0:0:0:0:
329,192,162092,1,0,0:0:0:0:
475,192,162311,128,0,162749:0:0:0:0:
36,192,162311,1,0,0:0:0:0:
182,192,162311,1,0,0:0:0:0:
402,192,162529,1,0,0:0:0:0:
109,192,162749,1,0,0:0:0:0:
36,192,162749,1,0,0:0:0:0:
182,192,162968,1,0,0:0:0:0:
256,192,162968,1,0,0:0:0:0:
329,192,162968,128,0,163187:0:0:0:0:
109,192,163187,128,0,163625:0:0:0:0:
475,192,163187,1,0,0:0:0:0:
256,192,163625,128,0,164063:0:0:0:0:
36,192,163625,1,0,0:0:0:0:
475,192,163625,1,0,0:0:0:0:
402,192,164063,128,0,164500:0:0:0:0:
182,192,164063,1,0,0:0:0:0:
329,192,164063,1,0,0:0:0:0:
109,192,164500,128,0,164719:0:0:0:0:
182,192,164500,1,0,0:0:0:0:
475,192,164500,1,0,0:0:0:0:
329,192,164719,128,0,164938:0:0:0:0:
36,192,164719,1,0,0:0:0:0:
402,192,164937,1,0,0:0:0:0:
475,192,164937,1,0,0:0:0:0:
36,192,164937,1,0,0:0:0:0:
109,192,164937,1,0,0:0:0:0:
256,192,164938,128,0,165376:0:0:0:0:
36,192,165376,1,0,0:0:0:0:
109,192,165376,1,0,0:0:0:0:
402,192,165376,1,0,0:0:0:0:
475,192,165376,1,0,0:0:0:0:
256,192,165814,128,0,166252:0:0:0:0:
402,192,165814,1,0,0:0:0:0:
475,192,165814,1,0,0:0:0:0:
36,192,165814,1,0,0:0:0:0:
109,192,165814,1,0,0:0:0:0:
182,192,166252,128,0,166690:0:0:0:0:
329,192,166252,128,0,166690:0:0:0:0:
36,192,166252,1,0,0:0:0:0:
475,192,166252,1,0,0:0:0:0:
36,192,166690,128,0,167128:0:0:0:0:
475,192,166690,128,0,167128:0:0:0:0:
256,192,166690,128,0,167566:0:0:0:0:
109,192,166909,1,0,0:0:0:0:
402,192,166909,1,0,0:0:0:0:
109,192,167128,1,0,0:0:0:0:
402,192,167128,1,0,0:0:0:0:
182,192,167566,128,0,168004:0:0:0:0:
329,192,167566,128,0,168004:0:0:0:0:
36,192,167566,1,0,0:0:0:0:
475,192,167566,1,0,0:0:0:0:
36,192,168004,128,0,168442:0:0:0:0:
475,192,168004,128,0,168442:0:0:0:0:
256,192,168004,1,0,0:0:0:0:
182,192,168442,1,0,0:0:0:0:
109,192,168442,1,0,0:0:0:0:
329,192,168661,1,0,0:0:0:0:
182,192,168880,1,0,0:0:0:0:
402,192,169099,1,0,0:0:0:0:
182,192,169318,1,0,0:0:0:0:
475,192,169537,1,0,0:0:0:0:
182,192,169756,1,0,0:0:0:0:
402,192,169975,1,0,0:0:0:0:
109,192,170194,1,0,0:0:0:0:
36,192,170194,1,0,0:0:0:0:
182,192,170194,1,0,0:0:0:0:
475,192,170413,1,0,0:0:0:0:
109,192,170632,1,0,0:0:0:0:
402,192,170851,1,0,0:0:0:0:
109,192,171070,1,0,0:0:0:0:
329,192,171289,1,0,0:0:0:0:
109,192,171508,1,0,0:0:0:0:
256,192,171727,1,0,0:0:0:0:
36,192,171946,1,0,0:0:0:0:
109,192,171946,1,0,0:0:0:0:
182,192,171946,1,0,0:0:0:0:
329,192,172165,1,0,0:0:0:0:
36,192,172384,1,0,0:0:0:0:
402,192,172603,1,0,0:0:0:0:
36,192,172822,1,0,0:0:0:0:
475,192,173041,1,0,0:0:0:0:
36,192,173260,1,0,0:0:0:0:
402,192,173479,1,0,0:0:0:0:
36,192,173698,1,0,0:0:0:0:
109,192,173698,1,0,0:0:0:0:
182,192,173698,1,0,0:0:0:0:
475,192,173917,1,0,0:0:0:0:
36,192,174136,1,0,0:0:0:0:
402,192,174354,1,0,0:0:0:0:
36,192,174573,1,0,0:0:0:0:
329,192,174792,1,0,0:0:0:0:
36,192,175011,1,0,0:0:0:0:
256,192,175230,1,0,0:0:0:0:
109,192,175449,1,0,0:0:0:0:
182,192,175449,1,0,0:0:0:0:
329,192,175449,1,0,0:0:0:0:
329,192,175668,1,0,0:0:0:0:
109,192,175887,1,0,0:0:0:0:
182,192,175887,1,0,0:0:0:0:
329,192,175887,1,0,0:0:0:0:
402,192,176106,1,0,0:0:0:0:
109,192,176325,1,0,0:0:0:0:
182,192,176325,1,0,0:0:0:0:
329,192,176325,1,0,0:0:0:0:
475,192,176544,1,0,0:0:0:0:
109,192,176763,1,0,0:0:0:0:
182,192,176763,1,0,0:0:0:0:
329,192,176763,1,0,0:0:0:0:
402,192,176982,1,0,0:0:0:0:
36,192,177200,128,0,177419:0:0:0:0:
109,192,177201,1,0,0:0:0:0:
402,192,177420,1,0,0:0:0:0:
36,192,177638,128,0,177857:0:0:0:0:
109,192,177639,1,0,0:0:0:0:
329,192,177858,1,0,0:0:0:0:
475,192,178076,128,0,178295:0:0:0:0:
109,192,178077,1,0,0:0:0:0:
256,192,178296,1,0,0:0:0:0:
475,192,178514,128,0,178733:0:0:0:0:
109,192,178515,1,0,0:0:0:0:
182,192,178734,1,0,0:0:0:0:
256,192,178953,128,0,179172:0:0:0:0:
36,192,178953,1,0,0:0:0:0:
109,192,178953,1,0,0:0:0:0:
329,192,179172,1,0,0:0:0:0:
256,192,179391,128,0,179610:0:0:0:0:
36,192,179391,1,0,0:0:0:0:
109,192,179391,1,0,0:0:0:0:
402,192,179610,1,0,0:0:0:0:
256,192,179829,128,0,180048:0:0:0:0:
36,192,179829,1,0,0:0:0:0:
109,192,179829,1,0,0:0:0:0:
475,192,180048,1,0,0:0:0:0:
256,192,180267,128,0,180486:0:0:0:0:
36,192,180267,1,0,0:0:0:0:
109,192,180267,1,0,0:0:0:0:
402,192,180486,1,0,0:0:0:0:
256,192,180705,1,0,0:0:0:0:
402,192,180705,1,0,0:0:0:0:
256,192,180924,1,0,0:0:0:0:
402,192,180924,1,0,0:0:0:0:
36,192,181143,1,0,0:0:0:0:
109,192,181143,1,0,0:0:0:0:
256,192,181143,1,0,0:0:0:0:
402,192,181143,1,0,0:0:0:0:
36,192,181362,1,0,0:0:0:0:
109,192,181362,1,0,0:0:0:0:
182,192,181362,1,0,0:0:0:0:
329,192,181362,1,0,0:0:0:0:
256,192,181580,1,0,0:0:0:0:
402,192,181580,1,0,0:0:0:0:
256,192,181799,1,0,0:0:0:0:
402,192,181799,1,0,0:0:0:0:
256,192,182018,1,0,0:0:0:0:
402,192,182018,1,0,0:0:0:0:
329,192,182237,1,0,0:0:0:0:
475,192,182237,1,0,0:0:0:0:
36,192,182237,1,0,0:0:0:0:
109,192,182237,1,0,0:0:0:0:
329,192,182455,1,0,0:0:0:0:
256,192,182456,128,0,183332:0:0:0:0:
402,192,182674,1,0,0:0:0:0:
329,192,182893,1,0,0:0:0:0:
36,192,182894,1,0,0:0:0:0:
109,192,182894,1,0,0:0:0:0:
475,192,183112,1,0,0:0:0:0:
329,192,183331,1,0,0:0:0:0:
402,192,183332,128,0,183770:0:0:0:0:
475,192,183550,1,0,0:0:0:0:
256,192,183769,1,0,0:0:0:0:
36,192,183770,1,0,0:0:0:0:
109,192,183770,1,0,0:0:0:0:
329,192,183770,128,0,184208:0:0:0:0:
402,192,183988,1,0,0:0:0:0:
182,192,184207,1,0,0:0:0:0:
475,192,184208,128,0,185083:0:0:0:0:
402,192,184426,1,0,0:0:0:0:
36,192,184645,1,0,0:0:0:0:
109,192,184645,1,0,0:0:0:0:
256,192,184645,1,0,0:0:0:0:
36,192,184864,1,0,0:0:0:0:
109,192,184864,1,0,0:0:0:0:
329,192,184864,1,0,0:0:0:0:
402,192,185083,128,0,185302:0:0:0:0:
256,192,185083,1,0,0:0:0:0:
475,192,185302,1,0,0:0:0:0:
329,192,185520,1,0,0:0:0:0:
36,192,185521,1,0,0:0:0:0:
109,192,185521,1,0,0:0:0:0:
256,192,185739,1,0,0:0:0:0:
256,192,185958,1,0,0:0:0:0:
329,192,185959,128,0,186835:0:0:0:0:
402,192,186177,1,0,0:0:0:0:
256,192,186396,1,0,0:0:0:0:
109,192,186397,1,0,0:0:0:0:
36,192,186397,1,0,0:0:0:0:
475,192,186615,1,0,0:0:0:0:
182,192,186834,1,0,0:0:0:0:
475,192,186835,128,0,187273:0:0:0:0:
329,192,187053,1,0,0:0:0:0:
36,192,187272,1,0,0:0:0:0:
109,192,187272,1,0,0:0:0:0:
256,192,187272,1,0,0:0:0:0:
402,192,187273,128,0,187711:0:0:0:0:
475,192,187491,1,0,0:0:0:0:
329,192,187710,1,0,0:0:0:0:
256,192,187711,128,0,188587:0:0:0:0:
475,192,187929,1,0,0:0:0:0:
329,192,188148,1,0,0:0:0:0:
36,192,188149,1,0,0:0:0:0:
109,192,188149,1,0,0:0:0:0:
402,192,188367,1,0,0:0:0:0:
109,192,188368,1,0,0:0:0:0:
36,192,188368,1,0,0:0:0:0:
329,192,188586,1,0,0:0:0:0:
475,192,188587,128,0,188806:0:0:0:0:
402,192,188805,1,0,0:0:0:0:
256,192,189024,1,0,0:0:0:0:
109,192,189025,1,0,0:0:0:0:
36,192,189025,1,0,0:0:0:0:
329,192,189243,128,0,189462:0:0:0:0:
475,192,189243,1,0,0:0:0:0:
256,192,189462,128,0,190338:0:0:0:0:
402,192,189462,1,0,0:0:0:0:
475,192,189681,1,0,0:0:0:0:
329,192,189900,1,0,0:0:0:0:
36,192,189901,1,0,0:0:0:0:
109,192,189901,1,0,0:0:0:0:
475,192,190119,1,0,0:0:0:0:
402,192,190338,128,0,190776:0:0:0:0:
182,192,190338,1,0,0:0:0:0:
329,192,190557,1,0,0:0:0:0:
109,192,190776,1,0,0:0:0:0:
36,192,190776,1,0,0:0:0:0:
475,192,190776,128,0,190995:0:0:0:0:
256,192,190776,1,0,0:0:0:0:
109,192,190995,1,0,0:0:0:0:
36,192,190995,1,0,0:0:0:0:
256,192,190995,128,0,191214:0:0:0:0:
329,192,190995,1,0,0:0:0:0:
402,192,191214,128,0,191871:0:0:0:0:
329,192,191214,1,0,0:0:0:0:
475,192,191433,1,0,0:0:0:0:
256,192,191652,1,0,0:0:0:0:
36,192,191653,1,0,0:0:0:0:
109,192,191653,1,0,0:0:0:0:
329,192,191871,128,0,192090:0:0:0:0:
475,192,191871,1,0,0:0:0:0:
256,192,192090,1,0,0:0:0:0:
402,192,192309,1,0,0:0:0:0:
402,192,192528,128,0,192966:0:0:0:0:
256,192,192528,1,0,0:0:0:0:
109,192,192529,1,0,0:0:0:0:
36,192,192529,1,0,0:0:0:0:
329,192,192747,1,0,0:0:0:0:
36,192,192748,1,0,0:0:0:0:
109,192,192748,1,0,0:0:0:0:
256,192,192966,128,0,193404:0:0:0:0:
329,192,192966,1,0,0:0:0:0:
402,192,193185,1,0,0:0:0:0:
329,192,193404,1,0,0:0:0:0:
109,192,193405,1,0,0:0:0:0:
36,192,193405,1,0,0:0:0:0:
329,192,193623,128,0,193842:0:0:0:0:
475,192,193623,1,0,0:0:0:0:
475,192,193842,128,0,194499:0:0:0:0:
256,192,193842,1,0,0:0:0:0:
402,192,194061,1,0,0:0:0:0:
256,192,194280,1,0,0:0:0:0:
36,192,194281,1,0,0:0:0:0:
109,192,194281,1,0,0:0:0:0:
109,192,194499,1,0,0:0:0:0:
36,192,194499,1,0,0:0:0:0:
256,192,194499,1,0,0:0:0:0:
329,192,194499,128,0,195593:0:0:0:0:
402,192,194718,1,0,0:0:0:0:
402,192,194937,1,0,0:0:0:0:
36,192,194937,1,0,0:0:0:0:
109,192,194937,1,0,0:0:0:0:
109,192,195156,1,0,0:0:0:0:
36,192,195156,1,0,0:0:0:0:
402,192,195156,1,0,0:0:0:0:
256,192,195375,1,0,0:0:0:0:
402,192,195593,128,0,195812:0:0:0:0:
256,192,195593,1,0,0:0:0:0:
36,192,195594,1,0,0:0:0:0:
109,192,195594,1,0,0:0:0:0:
329,192,195812,1,0,0:0:0:0:
329,192,196031,1,0,0:0:0:0:
109,192,196032,1,0,0:0:0:0:
36,192,196032,1,0,0:0:0:0:
402,192,196250,1,0,0:0:0:0:
36,192,196251,1,0,0:0:0:0:
109,192,196251,1,0,0:0:0:0:
109,192,196361,1,0,0:0:0:0:
36,192,196361,1,0,0:0:0:0:
36,192,196470,1,0,0:0:0:0:
109,192,196470,1,0,0:0:0:0:
329,192,198221,128,0,198440:0:0:0:0:
256,192,198221,1,0,0:0:0:0:
475,192,198221,1,0,0:0:0:0:
109,192,198440,128,0,198659:0:0:0:0:
182,192,198440,1,0,0:0:0:0:
402,192,198659,128,0,198878:0:0:0:0:
36,192,198659,1,0,0:0:0:0:
256,192,198659,1,0,0:0:0:0:
182,192,198878,1,0,0:0:0:0:
475,192,198878,1,0,0:0:0:0:
256,192,199097,1,0,0:0:0:0:
36,192,199097,1,0,0:0:0:0:
109,192,199316,128,0,199535:0:0:0:0:
329,192,199316,1,0,0:0:0:0:
182,192,199316,1,0,0:0:0:0:
475,192,199535,128,0,199754:0:0:0:0:
36,192,199535,1,0,0:0:0:0:
402,192,199535,1,0,0:0:0:0:
256,192,199754,128,0,200630:0:0:0:0:
182,192,199754,1,0,0:0:0:0:
402,192,199973,1,0,0:0:0:0:
182,192,200192,1,0,0:0:0:0:
402,192,200411,1,0,0:0:0:0:
36,192,200630,128,0,200849:0:0:0:0:
109,192,200630,1,0,0:0:0:0:
182,192,200849,128,0,201287:0:0:0:0:
329,192,200849,1,0,0:0:0:0:
475,192,200849,1,0,0:0:0:0:
329,192,201068,1,0,0:0:0:0:
475,192,201068,1,0,0:0:0:0:
402,192,201287,128,0,201725:0:0:0:0:
36,192,201287,1,0,0:0:0:0:
256,192,201287,1,0,0:0:0:0:
329,192,201506,1,0,0:0:0:0:
475,192,201506,1,0,0:0:0:0:
109,192,201725,128,0,201944:0:0:0:0:
256,192,201725,1,0,0:0:0:0:
182,192,201725,1,0,0:0:0:0:
329,192,201944,128,0,202163:0:0:0:0:
36,192,201944,1,0,0:0:0:0:
475,192,202163,128,0,202382:0:0:0:0:
256,192,202163,1,0,0:0:0:0:
402,192,202163,1,0,0:0:0:0:
182,192,202382,128,0,202820:0:0:0:0:
109,192,202382,1,0,0:0:0:0:
329,192,202382,1,0,0:0:0:0:
36,192,202601,1,0,0:0:0:0:
256,192,202601,1,0,0:0:0:0:
109,192,202820,128,0,203039:0:0:0:0:
329,192,202820,1,0,0:0:0:0:
475,192,202820,1,0,0:0:0:0:
402,192,203039,128,0,203258:0:0:0:0:
36,192,203039,1,0,0:0:0:0:
329,192,203258,128,0,204134:0:0:0:0:
475,192,203258,1,0,0:0:0:0:
182,192,203258,1,0,0:0:0:0:
256,192,203258,1,0,0:0:0:0:
36,192,203477,1,0,0:0:0:0:
182,192,203696,1,0,0:0:0:0:
256,192,203696,1,0,0:0:0:0:
475,192,203915,1,0,0:0:0:0:
109,192,204134,128,0,204353:0:0:0:0:
182,192,204134,1,0,0:0:0:0:
256,192,204353,128,0,204572:0:0:0:0:
475,192,204353,1,0,0:0:0:0:
402,192,204572,128,0,205229:0:0:0:0:
36,192,204572,1,0,0:0:0:0:
329,192,204572,1,0,0:0:0:0:
182,192,204791,1,0,0:0:0:0:
329,192,205010,1,0,0:0:0:0:
36,192,205229,128,0,205448:0:0:0:0:
256,192,205229,1,0,0:0:0:0:
109,192,205229,1,0,0:0:0:0:
475,192,205448,128,0,205666:0:0:0:0:
329,192,205448,1,0,0:0:0:0:
182,192,205666,128,0,205885:0:0:0:0:
256,192,205666,1,0,0:0:0:0:
109,192,205885,128,0,206104:0:0:0:0:
36,192,205885,1,0,0:0:0:0:
402,192,205885,1,0,0:0:0:0:
256,192,206104,1,0,0:0:0:0:
475,192,206104,1,0,0:0:0:0:
402,192,206323,128,0,206542:0:0:0:0:
329,192,206323,1,0,0:0:0:0:
36,192,206323,1,0,0:0:0:0:
182,192,206542,128,0,206761:0:0:0:0:
256,192,206761,128,0,207418:0:0:0:0:
36,192,206761,1,0,0:0:0:0:
329,192,206761,1,0,0:0:0:0:
109,192,206980,1,0,0:0:0:0:
475,192,206980,1,0,0:0:0:0:
402,192,207199,1,0,0:0:0:0:
182,192,207199,1,0,0:0:0:0:
36,192,207418,1,0,0:0:0:0:
475,192,207418,1,0,0:0:0:0:
109,192,207637,128,0,207856:0:0:0:0:
329,192,207637,1,0,0:0:0:0:
402,192,207856,128,0,208075:0:0:0:0:
36,192,207856,1,0,0:0:0:0:
256,192,207856,1,0,0:0:0:0:
182,192,208075,128,0,208294:0:0:0:0:
475,192,208075,1,0,0:0:0:0:
256,192,208294,128,0,208732:0:0:0:0:
109,192,208294,1,0,0:0:0:0:
329,192,208294,1,0,0:0:0:0:
182,192,208732,128,0,209608:0:0:0:0:
329,192,208732,128,0,209608:0:0:0:0:
109,192,208732,1,0,0:0:0:0:
475,192,208951,1,0,0:0:0:0:
109,192,209170,1,0,0:0:0:0:
36,192,209389,1,0,0:0:0:0:
256,192,209608,128,0,210046:0:0:0:0:
402,192,209608,128,0,210046:0:0:0:0:
109,192,209608,1,0,0:0:0:0:
36,192,209827,1,0,0:0:0:0:
329,192,210046,128,0,210484:0:0:0:0:
475,192,210046,128,0,210484:0:0:0:0:
182,192,210046,1,0,0:0:0:0:
36,192,210265,1,0,0:0:0:0:
256,192,210484,128,0,210922:0:0:0:0:
402,192,210484,128,0,210922:0:0:0:0:
109,192,210484,1,0,0:0:0:0:
182,192,210703,1,0,0:0:0:0:
109,192,210922,128,0,211141:0:0:0:0:
36,192,210922,1,0,0:0:0:0:
329,192,210922,1,0,0:0:0:0:
475,192,211141,128,0,211360:0:0:0:0:
256,192,211141,1,0,0:0:0:0:
182,192,211360,128,0,211798:0:0:0:0:
36,192,211360,1,0,0:0:0:0:
329,192,211360,1,0,0:0:0:0:
402,192,211798,128,0,212017:0:0:0:0:
329,192,211798,1,0,0:0:0:0:
109,192,212017,128,0,212236:0:0:0:0:
475,192,212017,1,0,0:0:0:0:
36,192,212236,1,0,0:0:0:0:
329,192,212236,1,0,0:0:0:0:
256,192,212236,128,0,213769:0:0:0:0:
182,192,212455,1,0,0:0:0:0:
475,192,212455,1,0,0:0:0:0:
36,192,212674,1,0,0:0:0:0:
329,192,212674,1,0,0:0:0:0:
109,192,212893,1,0,0:0:0:0:
402,192,212893,1,0,0:0:0:0:
475,192,212893,1,0,0:0:0:0:
329,192,213112,1,0,0:0:0:0:
36,192,213112,1,0,0:0:0:0:
182,192,213331,1,0,0:0:0:0:
475,192,213331,1,0,0:0:0:0:
36,192,213550,1,0,0:0:0:0:
329,192,213550,1,0,0:0:0:0:
182,192,213769,128,0,214864:0:0:0:0:
109,192,213769,1,0,0:0:0:0:
402,192,213769,1,0,0:0:0:0:
36,192,213988,1,0,0:0:0:0:
329,192,213988,1,0,0:0:0:0:
402,192,214207,1,0,0:0:0:0:
475,192,214207,1,0,0:0:0:0:
36,192,214426,1,0,0:0:0:0:
329,192,214426,1,0,0:0:0:0:
402,192,214645,1,0,0:0:0:0:
475,192,214645,1,0,0:0:0:0:
256,192,214864,128,0,215302:0:0:0:0:
109,192,214864,128,0,215302:0:0:0:0:
329,192,214864,1,0,0:0:0:0:
402,192,215302,128,0,215739:0:0:0:0:
182,192,215302,128,0,215739:0:0:0:0:
36,192,215302,1,0,0:0:0:0:
329,192,215739,128,0,217272:0:0:0:0:
109,192,215739,1,0,0:0:0:0:
475,192,215739,1,0,0:0:0:0:
256,192,215958,1,0,0:0:0:0:
36,192,216177,1,0,0:0:0:0:
109,192,216177,1,0,0:0:0:0:
475,192,216177,1,0,0:0:0:0:
402,192,216396,1,0,0:0:0:0:
182,192,216396,1,0,0:0:0:0:
182,192,216834,128,0,217272:0:0:0:0:
256,192,216834,1,0,0:0:0:0:
109,192,217272,128,0,218148:0:0:0:0:
36,192,217272,1,0,0:0:0:0:
402,192,217272,1,0,0:0:0:0:
256,192,217491,1,0,0:0:0:0:
475,192,217491,1,0,0:0:0:0:
36,192,217710,1,0,0:0:0:0:
329,192,217710,1,0,0:0:0:0:
402,192,217710,1,0,0:0:0:0:
475,192,217929,1,0,0:0:0:0:
182,192,218148,128,0,218367:0:0:0:0:
329,192,218148,1,0,0:0:0:0:
402,192,218148,1,0,0:0:0:0:
256,192,218367,128,0,218805:0:0:0:0:
36,192,218367,1,0,0:0:0:0:
329,192,218805,128,0,219243:0:0:0:0:
475,192,218805,128,0,219243:0:0:0:0:
182,192,218805,1,0,0:0:0:0:
402,192,218805,1,0,0:0:0:0:
109,192,219243,128,0,219681:0:0:0:0:
36,192,219243,1,0,0:0:0:0:
256,192,219243,1,0,0:0:0:0:
402,192,219462,1,0,0:0:0:0:
182,192,219681,128,0,219900:0:0:0:0:
329,192,219681,1,0,0:0:0:0:
475,192,219900,128,0,220119:0:0:0:0:
36,192,219900,1,0,0:0:0:0:
402,192,219900,1,0,0:0:0:0:
256,192,220119,1,0,0:0:0:0:
109,192,220338,128,0,220776:0:0:0:0:
329,192,220338,1,0,0:0:0:0:
36,192,220338,1,0,0:0:0:0:
182,192,220557,1,0,0:0:0:0:
402,192,220776,128,0,221214:0:0:0:0:
256,192,220776,1,0,0:0:0:0:
475,192,220776,1,0,0:0:0:0:
109,192,220995,1,0,0:0:0:0:
182,192,221214,128,0,221871:0:0:0:0:
329,192,221214,1,0,0:0:0:0:
36,192,221214,1,0,0:0:0:0:
256,192,221433,1,0,0:0:0:0:
402,192,221652,1,0,0:0:0:0:
36,192,221871,128,0,222309:0:0:0:0:
329,192,221871,1,0,0:0:0:0:
475,192,221871,1,0,0:0:0:0:
402,192,222309,128,0,222528:0:0:0:0:
256,192,222309,1,0,0:0:0:0:
109,192,222309,1,0,0:0:0:0:
182,192,222528,128,0,222747:0:0:0:0:
329,192,222528,1,0,0:0:0:0:
256,192,222747,128,0,223623:0:0:0:0:
36,192,222747,1,0,0:0:0:0:
475,192,222747,1,0,0:0:0:0:
182,192,223185,1,0,0:0:0:0:
329,192,223185,1,0,0:0:0:0:
109,192,223623,128,0,224061:0:0:0:0:
475,192,223623,1,0,0:0:0:0:
329,192,223623,1,0,0:0:0:0:
402,192,224061,128,0,224499:0:0:0:0:
182,192,224061,1,0,0:0:0:0:
475,192,224061,1,0,0:0:0:0:
36,192,224499,128,0,224937:0:0:0:0:
329,192,224499,1,0,0:0:0:0:
182,192,224499,1,0,0:0:0:0:
475,192,224937,128,0,225375:0:0:0:0:
256,192,224937,1,0,0:0:0:0:
109,192,224937,1,0,0:0:0:0:
402,192,224937,1,0,0:0:0:0:
182,192,225375,128,0,225812:0:0:0:0:
329,192,225375,1,0,0:0:0:0:
36,192,225375,1,0,0:0:0:0:
402,192,225812,128,0,226250:0:0:0:0:
109,192,225812,1,0,0:0:0:0:
256,192,225812,1,0,0:0:0:0:
475,192,225812,1,0,0:0:0:0:
256,192,226250,128,0,228002:0:0:0:0:
36,192,226250,1,0,0:0:0:0:
329,192,226250,1,0,0:0:0:0:
402,192,226469,1,0,0:0:0:0:
109,192,226469,1,0,0:0:0:0:
36,192,226688,1,0,0:0:0:0:
329,192,226688,1,0,0:0:0:0:
182,192,226907,1,0,0:0:0:0:
475,192,226907,1,0,0:0:0:0:
36,192,227126,1,0,0:0:0:0:
329,192,227126,1,0,0:0:0:0:
109,192,227345,1,0,0:0:0:0:
182,192,227345,1,0,0:0:0:0:
402,192,227345,1,0,0:0:0:0:
475,192,227345,1,0,0:0:0:0:
329,192,227564,1,0,0:0:0:0:
36,192,227564,1,0,0:0:0:0:
402,192,227783,1,0,0:0:0:0:
109,192,227783,1,0,0:0:0:0:
182,192,228002,128,0,229754:0:0:0:0:
36,192,228002,1,0,0:0:0:0:
402,192,228221,1,0,0:0:0:0:
475,192,228221,1,0,0:0:0:0:
36,192,228440,1,0,0:0:0:0:
329,192,228659,1,0,0:0:0:0:
402,192,228659,1,0,0:0:0:0:
36,192,228878,1,0,0:0:0:0:
256,192,229097,1,0,0:0:0:0:
329,192,229097,1,0,0:0:0:0:
36,192,229316,1,0,0:0:0:0:
109,192,229535,1,0,0:0:0:0:
256,192,229535,1,0,0:0:0:0:
109,192,229754,128,0,231506:0:0:0:0:
36,192,229754,1,0,0:0:0:0:
256,192,229973,1,0,0:0:0:0:
329,192,229973,1,0,0:0:0:0:
36,192,230192,1,0,0:0:0:0:
329,192,230411,1,0,0:0:0:0:
402,192,230411,1,0,0:0:0:0:
36,192,230630,1,0,0:0:0:0:
402,192,230849,1,0,0:0:0:0:
475,192,230849,1,0,0:0:0:0:
36,192,231068,1,0,0:0:0:0:
256,192,231287,1,0,0:0:0:0:
329,192,231287,1,0,0:0:0:0:
36,192,231506,128,0,231725:0:0:0:0:
182,192,231506,1,0,0:0:0:0:
475,192,231725,128,0,231944:0:0:0:0:
402,192,231725,1,0,0:0:0:0:
329,192,231725,1,0,0:0:0:0:
36,192,231944,128,0,232163:0:0:0:0:
109,192,231944,1,0,0:0:0:0:
402,192,232163,128,0,232382:0:0:0:0:
256,192,232163,1,0,0:0:0:0:
329,192,232163,1,0,0:0:0:0:
36,192,232382,128,0,232601:0:0:0:0:
109,192,232382,1,0,0:0:0:0:
329,192,232601,128,0,232820:0:0:0:0:
256,192,232601,1,0,0:0:0:0:
182,192,232601,1,0,0:0:0:0:
36,192,232820,128,0,233039:0:0:0:0:
109,192,232820,1,0,0:0:0:0:
256,192,233039,128,0,233258:0:0:0:0:
182,192,233039,1,0,0:0:0:0:
109,192,233258,128,0,233477:0:0:0:0:
36,192,233258,1,0,0:0:0:0:
329,192,233477,128,0,233696:0:0:0:0:
402,192,233477,1,0,0:0:0:0:
256,192,233477,1,0,0:0:0:0:
109,192,233696,128,0,233915:0:0:0:0:
36,192,233696,1,0,0:0:0:0:
402,192,233915,128,0,234134:0:0:0:0:
329,192,233915,1,0,0:0:0:0:
475,192,233915,1,0,0:0:0:0:
109,192,234134,128,0,234353:0:0:0:0:
36,192,234134,1,0,0:0:0:0:
475,192,234353,128,0,234572:0:0:0:0:
329,192,234353,1,0,0:0:0:0:
402,192,234353,1,0,0:0:0:0:
109,192,234572,128,0,234791:0:0:0:0:
36,192,234572,1,0,0:0:0:0:
402,192,234791,128,0,235010:0:0:0:0:
329,192,234791,1,0,0:0:0:0:
475,192,234791,1,0,0:0:0:0:
475,192,235010,128,0,235229:0:0:0:0:
36,192,235010,128,0,235885:0:0:0:0:
109,192,235229,128,0,235885:0:0:0:0:
182,192,235448,128,0,235885:0:0:0:0:
475,192,235448,128,0,235666:0:0:0:0:
256,192,235666,128,0,235885:0:0:0:0:
402,192,235885,128,0,236761:0:0:0:0:
475,192,235885,128,0,236104:0:0:0:0:
329,192,236104,128,0,236761:0:0:0:0:
256,192,236323,128,0,236761:0:0:0:0:
475,192,236323,128,0,236542:0:0:0:0:
182,192,236542,128,0,236761:0:0:0:0:
109,192,236761,128,0,237199:0:0:0:0:
36,192,236761,1,0,0:0:0:0:
329,192,236980,1,0,0:0:0:0:
256,192,236980,1,0,0:0:0:0:
182,192,237199,128,0,237637:0:0:0:0:
36,192,237199,1,0,0:0:0:0:
329,192,237418,1,0,0:0:0:0:
402,192,237418,1,0,0:0:0:0:
256,192,237637,128,0,238075:0:0:0:0:
109,192,237637,1,0,0:0:0:0:
402,192,237856,1,0,0:0:0:0:
475,192,237856,1,0,0:0:0:0:
109,192,238075,128,0,238513:0:0:0:0:
36,192,238075,1,0,0:0:0:0:
256,192,238294,1,0,0:0:0:0:
329,192,238294,1,0,0:0:0:0:
182,192,238513,128,0,240265:0:0:0:0:
329,192,238513,128,0,240265:0:0:0:0:
256,192,238513,1,0,0:0:0:0:
256,192,238732,1,0,0:0:0:0:
256,192,238951,1,0,0:0:0:0:
36,192,239170,1,0,0:0:0:0:
109,192,239170,1,0,0:0:0:0:
256,192,239389,1,0,0:0:0:0:
256,192,239608,1,0,0:0:0:0:
256,192,239827,1,0,0:0:0:0:
402,192,240046,1,0,0:0:0:0:
475,192,240046,1,0,0:0:0:0:
256,192,240265,128,0,242017:0:0:0:0:
109,192,240265,128,0,240484:0:0:0:0:
36,192,240265,1,0,0:0:0:0:
329,192,240484,1,0,0:0:0:0:
109,192,240703,128,0,240922:0:0:0:0:
36,192,240703,1,0,0:0:0:0:
402,192,240922,1,0,0:0:0:0:
109,192,241141,128,0,241360:0:0:0:0:
36,192,241141,1,0,0:0:0:0:
475,192,241360,1,0,0:0:0:0:
109,192,241579,128,0,241798:0:0:0:0:
36,192,241579,1,0,0:0:0:0:
329,192,241798,1,0,0:0:0:0:
182,192,242017,128,0,242236:0:0:0:0:
36,192,242017,1,0,0:0:0:0:
475,192,242017,1,0,0:0:0:0:
402,192,242236,128,0,242455:0:0:0:0:
329,192,242236,1,0,0:0:0:0:
109,192,242455,128,0,242674:0:0:0:0:
256,192,242455,1,0,0:0:0:0:
36,192,242455,1,0,0:0:0:0:
329,192,242674,128,0,242893:0:0:0:0:
182,192,242674,1,0,0:0:0:0:
475,192,242674,1,0,0:0:0:0:
256,192,242893,128,0,243769:0:0:0:0:
36,192,242893,128,0,243112:0:0:0:0:
402,192,242893,128,0,243112:0:0:0:0:
109,192,243112,1,0,0:0:0:0:
475,192,243112,1,0,0:0:0:0:
36,192,243331,128,0,243550:0:0:0:0:
402,192,243331,128,0,243550:0:0:0:0:
109,192,243550,1,0,0:0:0:0:
475,192,243550,1,0,0:0:0:0:
182,192,243769,128,0,243988:0:0:0:0:
475,192,243769,1,0,0:0:0:0:
402,192,243988,128,0,244207:0:0:0:0:
329,192,243988,1,0,0:0:0:0:
36,192,243988,1,0,0:0:0:0:
109,192,244207,128,0,244426:0:0:0:0:
256,192,244207,1,0,0:0:0:0:
475,192,244426,128,0,244645:0:0:0:0:
329,192,244426,1,0,0:0:0:0:
182,192,244426,1,0,0:0:0:0:
256,192,244645,1,0,0:0:0:0:
36,192,244645,1,0,0:0:0:0:
402,192,244645,128,0,244864:0:0:0:0:
329,192,244864,128,0,245083:0:0:0:0:
182,192,244864,1,0,0:0:0:0:
109,192,245083,128,0,245302:0:0:0:0:
475,192,245083,1,0,0:0:0:0:
182,192,245302,128,0,245520:0:0:0:0:
36,192,245302,1,0,0:0:0:0:
402,192,245302,1,0,0:0:0:0:
475,192,245520,1,0,0:0:0:0:
329,192,245520,1,0,0:0:0:0:
256,192,245520,128,0,247272:0:0:0:0:
36,192,245520,1,0,0:0:0:0:
109,192,245739,1,0,0:0:0:0:
402,192,245739,1,0,0:0:0:0:
36,192,245958,1,0,0:0:0:0:
329,192,245958,1,0,0:0:0:0:
475,192,246177,1,0,0:0:0:0:
402,192,246177,1,0,0:0:0:0:
182,192,246177,1,0,0:0:0:0:
109,192,246396,1,0,0:0:0:0:
329,192,246396,1,0,0:0:0:0:
475,192,246615,1,0,0:0:0:0:
182,192,246615,1,0,0:0:0:0:
109,192,246834,1,0,0:0:0:0:
402,192,246834,1,0,0:0:0:0:
36,192,247053,1,0,0:0:0:0:
329,192,247053,1,0,0:0:0:0:
182,192,247272,128,0,249024:0:0:0:0:
36,192,247272,128,0,247491:0:0:0:0:
109,192,247272,1,0,0:0:0:0:
329,192,247491,1,0,0:0:0:0:
36,192,247710,128,0,247929:0:0:0:0:
256,192,247710,1,0,0:0:0:0:
475,192,247929,1,0,0:0:0:0:
36,192,248148,128,0,248367:0:0:0:0:
256,192,248148,1,0,0:0:0:0:
402,192,248367,1,0,0:0:0:0:
36,192,248586,128,0,248805:0:0:0:0:
256,192,248586,1,0,0:0:0:0:
329,192,248805,1,0,0:0:0:0:
256,192,249024,128,0,250776:0:0:0:0:
109,192,249024,128,0,249243:0:0:0:0:
329,192,249024,1,0,0:0:0:0:
475,192,249243,1,0,0:0:0:0:
109,192,249462,128,0,249681:0:0:0:0:
329,192,249462,1,0,0:0:0:0:
475,192,249681,1,0,0:0:0:0:
402,192,249900,128,0,250119:0:0:0:0:
36,192,249900,1,0,0:0:0:0:
182,192,250119,1,0,0:0:0:0:
402,192,250338,128,0,250557:0:0:0:0:
36,192,250338,1,0,0:0:0:0:
182,192,250557,1,0,0:0:0:0:
36,192,250776,128,0,252528:0:0:0:0:
475,192,250776,128,0,252528:0:0:0:0:
109,192,250776,1,0,0:0:0:0:
182,192,250995,1,0,0:0:0:0:
256,192,250995,1,0,0:0:0:0:
109,192,251214,1,0,0:0:0:0:
256,192,251433,1,0,0:0:0:0:
329,192,251433,1,0,0:0:0:0:
109,192,251652,1,0,0:0:0:0:
329,192,251871,1,0,0:0:0:0:
402,192,251871,1,0,0:0:0:0:
109,192,252090,1,0,0:0:0:0:
329,192,252090,128,0,252528:0:0:0:0:
182,192,252309,1,0,0:0:0:0:
256,192,252309,1,0,0:0:0:0:
402,192,252528,128,0,252966:0:0:0:0:
109,192,252966,128,0,253404:0:0:0:0:
182,192,252966,1,0,0:0:0:0:
36,192,253404,128,0,253842:0:0:0:0:
329,192,253404,1,0,0:0:0:0:
256,192,253404,1,0,0:0:0:0:
402,192,253404,1,0,0:0:0:0:
475,192,253842,128,0,254280:0:0:0:0:
109,192,253842,1,0,0:0:0:0:
182,192,253842,1,0,0:0:0:0:
256,192,253842,1,0,0:0:0:0:
109,192,254280,1,0,0:0:0:0:
256,192,254498,1,0,0:0:0:0:
109,192,254717,1,0,0:0:0:0:
329,192,254936,1,0,0:0:0:0:
109,192,255155,1,0,0:0:0:0:
402,192,255374,1,0,0:0:0:0:
109,192,255593,1,0,0:0:0:0:
329,192,255812,1,0,0:0:0:0:
109,192,256031,1,0,0:0:0:0:
475,192,256250,1,0,0:0:0:0:
109,192,256469,1,0,0:0:0:0:
402,192,256688,1,0,0:0:0:0:
109,192,256907,1,0,0:0:0:0:
329,192,257126,1,0,0:0:0:0:
109,192,257345,1,0,0:0:0:0:
256,192,257564,1,0,0:0:0:0:
36,192,257783,128,0,258001:0:0:0:0:
109,192,257783,1,0,0:0:0:0:
256,192,258001,1,0,0:0:0:0:
36,192,258220,128,0,258439:0:0:0:0:
109,192,258220,1,0,0:0:0:0:
329,192,258439,1,0,0:0:0:0:
36,192,258658,128,0,258877:0:0:0:0:
109,192,258658,1,0,0:0:0:0:
402,192,258877,1,0,0:0:0:0:
36,192,259096,128,0,259315:0:0:0:0:
109,192,259096,1,0,0:0:0:0:
329,192,259315,1,0,0:0:0:0:
36,192,259534,128,0,259753:0:0:0:0:
109,192,259534,1,0,0:0:0:0:
475,192,259753,1,0,0:0:0:0:
36,192,259972,128,0,260191:0:0:0:0:
109,192,259972,1,0,0:0:0:0:
402,192,260191,1,0,0:0:0:0:
36,192,260410,128,0,260629:0:0:0:0:
109,192,260410,1,0,0:0:0:0:
329,192,260629,1,0,0:0:0:0:
36,192,260848,128,0,261067:0:0:0:0:
109,192,260848,1,0,0:0:0:0:
256,192,261067,1,0,0:0:0:0:
