osu file format v9

[General]
AudioFilename: Acute.mp3
AudioLeadIn: 0
PreviewTime: 241881
Countdown: 0
SampleSet: Normal
StackLeniency: 0.7
Mode: 0
LetterboxInBreaks: 0

[Editor]
Bookmarks: 47144,171618,181355,181618
DistanceSpacing: 1
BeatDivisor: 4
GridSize: 4

[Metadata]
Title:Acute
Artist:Hatsune Miku , Megurine Luka , KAITO
Creator:Snowy Dream
Version:Normal
Source:KurousaP
Tags:Vocaloid Vocaloid2

[Difficulty]
HPDrainRate:3
CircleSize:3
OverallDifficulty:3
ApproachRate:4
SliderMultiplier:1.4
SliderTickRate:1

[Events]
//Background and Video events
0,0,"Acute2.jpg"
Video,0,"acute.avi"
//Break Periods
2,27607,32403
2,48134,49772
2,56028,58193
2,65502,66614
2,117081,117666
2,193923,207140
//Storyboard Layer 0 (Background)
//Storyboard Layer 1 (Fail)
//Storyboard Layer 2 (Pass)
//Storyboard Layer 3 (Foreground)
//Storyboard Sound Samples
//Background Colour Transformations
3,100,0,0,64

[TimingPoints]
4250,526.315789473684,4,1,0,71,1,0
42539,-100,4,2,0,60,0,0
75171,-100,4,2,0,71,0,0
75828,-100,4,1,0,71,0,0
92539,-100,4,2,0,0,0,0
93723,-100,4,2,0,80,0,1
93855,-100,4,2,0,80,0,0
119381,-100,4,2,0,60,0,0
152013,-100,4,1,0,71,0,0
169381,-100,4,1,0,0,0,0
170565,-100,4,1,0,71,0,1
170697,-100,4,1,0,71,0,0
178986,-100,4,1,0,71,0,1
179118,-100,4,1,0,71,0,0
191749,-100,4,1,0,0,0,0
208460,-133.333333333333,4,1,0,71,0,0
214644,-76.9230769230769,4,1,0,71,0,0
216355,-100,4,1,0,71,0,0
225171,-100,4,2,0,50,0,0
239513,-100,4,1,0,54,0,0
239776,-100,4,1,0,62,0,0
240039,-100,4,1,0,70,0,0
242144,-100,4,1,0,71,0,1
242276,-100,4,1,0,71,0,0

[Colours]
Combo1 : 22,45,122
Combo2 : 254,112,165
Combo3 : 88,209,198

[HitObjects]
144,96,4249,5,4
108,232,4776,1,8
232,172,5302,2,0,B|304:148|376:164,1,140,2|8
444,280,6355,2,0,B|372:304|300:288,1,140,2|8
168,320,7407,1,0
72,216,7934,1,8
168,112,8460,6,0,B|224:56|296:56,1,140,4|8
380,168,9513,2,0,B|416:164|452:180,2,70,0|0|8
240,184,10565,1,0
276,320,11092,1,8
412,288,11618,2,0,B|456:288|476:256,2,70,0|0|8
280,244,12671,6,0,B|216:272|140:260,2,140,4|8|0
368,192,14250,1,8
400,56,14776,2,0,B|260:56|288:124|128:124,1,280,0|0
240,216,16355,1,8
364,156,16881,6,8,B|424:188|464:256,1,140,0|8
348,332,17934,1,0
244,240,18460,1,8
216,104,18986,2,0,B|148:84,1,70
148,84,19513,1,2
92,212,20039,2,0,B|160:232,1,70
160,232,20565,1,2
236,80,21092,6,0,B|160:76|108:128,1,140,0|8
108,128,21881,1,0
228,200,22407,1,0
228,200,22671,1,8
296,308,23197,2,0,B|372:312|424:260,1,140,0|8
424,260,23986,1,0
336,172,24513,21,0
404,152,24776,1,8
388,220,25039,1,0
388,220,25302,1,4
256,192,25565,12,0,27407
176,80,33723,6,0,B|152:56|112:56,2,70,4|0|8
248,200,34776,1,0
372,264,35302,1,8
376,124,35828,2,0,B|400:100|440:100,2,70,0|0|8
236,124,36881,1,0
208,260,37407,1,8
208,260,37671,1,0
208,260,37934,1,0
76,216,38460,22,0,B|96:144|180:136,1,140,8|0
172,204,39249,2,0,B|100:168|96:88,1,140,8|0
96,94,40039,1,0
236,112,40565,2,0,B|308:96|372:128,1,140,8|0
352,196,41355,1,0
296,236,41618,2,0,B|256:240|224:224,2,70,8|0|4
448,156,42671,5,10
308,144,43197,2,0,B|260:92,1,70
200,124,43723,1,8
88,212,44249,6,0,B|136:264,1,70
204,268,44776,1,2
272,288,45039,2,0,B|348:304|408:268,1,140,0|2
332,148,46092,5,0
332,148,46355,1,8
196,176,46881,1,0
196,176,47144,2,0,B|128:160|76:108,1,140
76,108,47934,1,8
96,128,51092,6,0,B|136:68|220:68,1,140,8|0
236,204,52144,1,2
304,184,52407,1,0
352,132,52671,1,8
436,244,53197,5,2
436,244,53460,1,8
316,316,53986,1,2
176,308,54513,1,0
244,188,55039,1,0
244,188,55302,2,0,B|172:204|100:188,1,140,8|0
112,288,59513,5,8
240,232,60039,2,0,B|324:220|352:152,1,140,0|8
208,156,61092,1,2
100,64,61618,5,8
168,44,61881,2,0,B|240:28|308:40,1,140
360,84,62671,1,8
452,192,63197,1,0
364,300,63723,1,8
364,300,63986,2,0,B|296:316|224:300,1,140,2|0
236,232,64776,2,0,B|165:216|96:232,1,140,8|0
456,248,67934,6,0,B|320:304|180:248,1,280,8|0
208,112,69513,1,0
100,164,70039,1,0
100,164,70302,1,8
164,40,70828,1,2
232,48,71092,1,8
280,100,71355,2,0,B|344:128,1,70,0|2
316,192,71881,2,0,B|252:164,1,70,0|8
256,192,72407,12,8,75302
64,208,75828,6,0,B|68:128|152:116,1,140,0|8
176,256,76881,1,0
244,244,77144,1,0
200,188,77407,1,8
288,80,77934,2,0,B|328:136|396:168,1,140,0|8
428,304,78986,2,0,B|432:264|472:248,2,70,0|0|8
292,332,80039,5,6
376,220,80565,2,0,B|348:156|280:116,1,140,8|0
268,256,81618,1,2
208,292,81881,1,0
144,264,82144,2,0,B|68:264,1,70,0|2
80,196,82671,2,0,B|24:140,1,70,8|2
88,104,83197,2,0,B|88:24,1,70,0|2
156,16,83723,1,8
252,116,84250,6,0,B|316:88|392:100,1,140,0|8
292,200,85302,1,0
292,200,85565,1,2
292,200,85828,1,8
360,324,86355,1,8
232,264,86881,1,8
372,240,87407,1,8
372,240,87671,1,2
372,240,87934,1,8
268,332,88460,6,0,B|232:372|172:384,2,105
216,284,89513,2,0,B|260:228|340:208,2,140,0|8|4
256,192,90828,12,0,92671
112,88,93723,5,4
208,188,94250,1,8
348,180,94776,1,0
408,144,95039,1,0
424,76,95302,2,0,B|464:68|496:80,2,70,8|0|2
296,128,96355,2,0,B|256:128|228:160,2,70,8|0|2
352,88,97144,1,0
288,60,97407,1,8
148,72,97934,5,0
148,72,98197,1,2
148,72,98460,1,8
20,128,98986,2,0,B|56:188,1,70,2|0
124,164,99513,2,0,B|192:164,1,70,8|0
228,224,100039,5,0
288,260,100302,1,2
352,232,100565,1,8
308,100,101092,2,0,B|324:68|352:48,2,70,2|0|8
216,204,102144,6,0,B|280:168|352:172,1,140,4|8
448,72,103197,1,2
464,212,103723,1,8
416,264,103986,1,0
344,260,104250,2,0,B|284:296|208:292,1,140,2|8
108,196,105302,1,2
168,160,105565,1,0
236,176,105828,1,8
368,132,106355,6,0,B|332:60|248:60,1,140,2|8
188,44,107144,1,0
168,112,107407,2,0,B|176:152|204:172,2,70,0|0|8
232,236,108460,5,2
272,100,108986,1,8
408,140,109513,1,2
372,276,110039,1,4
308,152,110565,6,0,B|248:192|216:260,1,140,0|8
148,256,111355,1,2
116,192,111618,2,0,B|176:152|208:84,1,140,0|8
206,86,112407,1,0
206,86,112671,1,2
424,52,113460,6,0,B|476:148|424:256,1,210,2|0
424,252,114513,1,2
424,252,114776,1,4
256,192,115039,12,0,116881
176,232,118986,5,4
296,304,119513,1,8
360,280,119776,1,0
368,212,120039,2,0,B|440:200|512:224,2,140,0|8|0
264,116,121618,5,8
312,68,121881,2,0,B|208:36|104:72,1,210,0|8
132,136,122934,1,0
104,200,123197,2,0,B|208:232|312:196,1,210,0|0
440,264,124776,5,8
416,128,125302,2,0,B|384:192|324:240,1,140,0|8
280,184,126092,1,0
248,120,126355,2,0,B|180:132|108:112,1,140,2|8
108,112,127407,1,4
140,248,127934,5,8
264,312,128460,2,0,B|328:336,1,70
360,272,128986,2,0,B|428:252,1,70,8|0
428,252,129513,1,2
416,112,130039,5,8
416,112,130302,1,2
300,36,130828,2,2,B|304:160|168:164,1,210,0|2
32,132,132144,1,8
32,132,132407,1,0
52,200,132671,6,0,B|96:264|176:264,1,140,2|8
240,276,133460,1,0
240,276,133723,1,0
356,200,134250,1,8
356,200,134513,1,0
380,136,134776,2,0,B|304:124|240:136,1,140,2|8
240,136,135828,1,2
112,196,136355,6,0,B|160:252|244:244,1,140,8|0
292,288,137144,1,2
352,252,137407,1,8
292,288,137671,1,0
156,128,138460,6,0,B|224:104|296:128,1,140,8|0
356,160,139250,1,2
316,216,139513,1,8
356,160,139776,1,0
400,108,140039,2,0,B|424:180|480:224,1,140,0|8
352,284,141092,1,2
120,152,141618,5,0
184,184,141881,1,0
232,136,142144,1,8
264,272,142671,1,0
312,224,142934,1,0
244,220,143197,1,8
352,144,143723,2,0,B|320:112|280:112,2,70,0|0|8
432,296,144776,5,2
312,220,145302,2,2,B|244:220,1,70
232,288,145828,2,0,B|162:288,1,70,8|0
160,288,146355,1,0
36,220,146881,5,8
36,220,147144,2,0,B|-4:152|40:88,1,140,2|0
148,180,148197,1,0
148,180,148460,1,4
256,192,148723,12,0,152144
128,96,152671,5,0
196,76,152934,1,0
264,100,153197,1,8
188,220,153723,1,0
252,244,153986,1,0
320,220,154250,1,8
460,236,154776,5,0
460,236,155039,1,2
348,320,155565,2,0,B|424:320,2,70,2|0|2
276,324,156355,1,8
96,320,156881,5,0
144,272,157144,1,0
160,204,157407,1,8
300,228,157934,1,0
260,172,158197,1,0
300,228,158460,1,8
256,64,158986,5,0
388,112,159513,1,8
336,244,160039,1,0
204,192,160565,1,8
88,272,161092,6,0,B|116:296|160:304,1,70
220,304,161618,1,8
312,196,162144,2,0,B|280:220|240:228,1,70
180,228,162671,1,8
264,116,163197,5,0
240,52,163460,1,0
196,104,163723,1,8
128,120,163986,2,0,B|92:132|72:164,2,70,2|0|0
172,176,164776,1,8
232,304,165302,5,6
316,192,165828,1,0
180,240,166355,1,2
316,276,166881,1,8
232,164,167407,1,4
256,192,167671,12,0,169381
80,112,170565,5,4
216,84,171092,1,0
248,220,171618,2,2,B|340:212|352:136,1,140
440,248,172671,1,0
384,288,172934,1,0
316,296,173197,1,8
200,220,173723,1,0
200,220,173986,1,0
200,220,174250,1,8
276,336,174776,6,2,B|128:336,1,140,2|8
92,204,175828,2,0,B|24:204,2,70,0|0|8
224,248,176881,1,0
348,188,177407,1,8
228,112,177934,2,0,B|204:80|164:72,2,70,0|0|8
88,200,178986,5,2
48,336,179513,2,0,B|200:344|308:248,1,280,8|8
376,128,181092,1,0
308,144,181355,1,0
248,108,181618,2,0,B|184:56|112:108|112:176|184:228|252:172,1,280,8|8
392,144,183197,5,0
408,284,183723,2,0,B|392:320|352:336,2,70,8|0|0
296,204,184776,1,8
168,144,185302,2,0,B|124:204|168:276,1,140,2|8
292,336,186355,1,0
312,268,186618,1,0
280,204,186881,1,0
344,80,187407,6,0,B|416:44|488:80,2,140,2|8|0
212,124,188986,1,8
156,164,189250,1,0
88,164,189513,1,2
252,296,190302,5,2
380,240,190828,1,2
364,172,191092,1,8
296,192,191355,2,0,B|276:188|260:172,2,35,2|0|4
256,192,191881,12,0,193723
144,80,208460,6,0,B|72:176|124:280,1,209.999993741512,4|2
224,300,210039,1,8
204,252,210302,1,0
200,200,210565,1,2
256,112,211092,1,0
280,160,211355,1,0
284,212,211618,1,2
364,144,212144,1,8
416,296,212671,6,0,B|492:212|472:96,1,209.999993741512,0|2
368,100,214250,1,8
192,148,214776,2,0,B|216:108|204:60,2,90.9999983727932,0|0|8
12,172,215828,2,0,B|-12:212|0:260,2,90.9999983727932,0|0|8
128,248,216881,5,4
128,248,217407,1,4
128,108,217934,2,0,B|168:104|200:124,2,70,0|0|8
204,228,218986,1,0
272,220,219250,1,0
336,192,219513,1,8
284,324,220039,2,0,B|328:312|348:284,2,70,0|0|8
216,200,221092,5,0
216,200,221618,1,8
80,224,222144,2,0,B|84:184|116:164,1,70,2|0
184,168,222671,2,0,B|207:135|245:134,1,70,2|0
308,156,223197,2,0,B|344:139|377:157,1,70,2|0
280,260,223986,5,0
212,252,224250,1,4
252,196,224513,1,0
108,36,225302,6,2,B|52:92|60:164,1,140
144,272,226355,1,0
188,220,226618,1,0
196,152,226881,1,8
320,216,227407,2,2,B|304:288|256:344,2,140
388,196,228723,1,0
336,152,228986,1,8
204,200,229513,6,0,B|168:132|92:128,1,140,2|8
48,260,230565,1,0
48,260,230828,1,0
48,260,231092,1,8
188,264,231618,2,0,B|112:272|88:352,1,140,2|8
228,344,232671,1,2
296,324,232934,1,0
344,272,233197,1,8
228,196,233723,6,2,B|172:132|220:60,2,140
344,116,235302,1,0
412,128,235565,1,0
460,176,235828,2,2,B|500:240|456:312,2,140
332,120,237407,1,0
264,104,237671,1,0
204,140,237934,2,2,B|164:208|208:276,2,140
328,208,239513,5,0
328,208,239776,1,2
328,208,240039,1,4
192,180,240565,6,8,B|120:180,1,70,8|2
160,256,241092,2,8,B|228:256,1,70,8|2
272,200,241618,1,2
408,164,242144,5,0
376,104,242407,1,0
312,76,242671,1,8
244,84,242934,1,0
176,100,243197,2,0,B|136:64|72:80,2,105,0|2|0
148,164,244250,5,0
184,224,244513,1,0
252,248,244776,1,8
380,188,245302,2,0,B|348:160|304:152,2,70,0|2|8
464,300,246355,5,0
412,348,246618,1,0
372,292,246881,1,8
424,244,247144,1,0
448,180,247407,2,0,B|476:136|488:72,2,105,0|2|0
396,132,248460,5,0
340,88,248723,1,0
272,96,248986,1,8
132,104,249513,2,0,B|84:104|64:144,1,70
128,176,250039,1,8
232,272,250565,6,2,B|296:316|372:296,2,140,2|8|2
124,184,252144,1,8
264,184,252671,1,0
264,184,252934,1,0
264,184,253197,2,2,B|304:124|264:52,2,140,8|0|8
380,104,254776,6,0,B|436:152|440:232,1,140,2|8
388,276,255565,1,0
324,248,255828,1,0
344,180,256092,1,0
300,124,256355,2,0,B|268:104|224:104,1,70,8|0
208,168,256881,5,2
92,244,257407,1,8
200,332,257934,1,0
316,256,258460,1,8
456,252,258986,5,4
428,116,259513,1,8
364,84,259776,2,0,B|296:160|244:36|168:104,1,210,2|8
48,36,261092,2,0,B|-16:96|44:168,1,140,4|8
108,172,261881,1,2
248,192,262407,1,0
248,192,262671,1,8
248,192,262934,1,4
256,192,263197,12,4,267407
