osu file format v9

[General]
AudioFilename: Ashurashurashura.mp3
AudioLeadIn: 0
PreviewTime: 62412
Countdown: 0
SampleSet: Normal
StackLeniency: 0.7
Mode: 0
LetterboxInBreaks: 0

[Editor]
Bookmarks: 15917,148130,182430
DistanceSpacing: 0.7
BeatDivisor: 3
GridSize: 4

[Metadata]
Title:Ashurashurashura
Artist:Hatsune Miku & Megpoid Gumi
Creator:Asgard
Version:Insane
Source:
Tags:Star Stream Mapper 31 samiljul waka vocaloid2 vocaloid

[Difficulty]
HPDrainRate:8
CircleSize:4
OverallDifficulty:7
ApproachRate:8
SliderMultiplier:1.9
SliderTickRate:1

[Events]
//Background and Video events
0,0,"bg.jpg"
Video,-16,"mv.avi"
//Break Periods
2,21836,30486
2,93636,102486
2,175436,181686
//Storyboard Layer 0 (Background)
//Storyboard Layer 1 (Fail)
//Storyboard Layer 2 (Pass)
//Storyboard Layer 3 (Foreground)
//Storyboard Sound Samples
//Background Colour Transformations
3,100,0,0,0

[TimingPoints]
36,300,4,1,1,80,1,0
2436,-100,4,1,1,50,0,0
10836,-100,4,1,1,60,0,0
62436,-100,4,1,1,80,0,1
81636,-100,4,1,1,80,0,0
90636,-100,4,2,1,5,0,0
91236,-100,4,2,1,80,0,0
92436,-100,4,1,1,60,0,0
122436,-133.333333333333,4,2,1,50,0,0
132036,-133.333333333333,4,2,1,80,0,0
143436,-133.333333333333,4,2,1,5,0,0
144036,-133.333333333333,4,2,1,80,0,0
145236,-100,4,1,1,60,0,0
146436,-100,4,1,1,80,0,1
165336,-100,4,1,1,80,0,0
184536,-100,4,1,1,30,0,0
187236,-100,4,1,1,40,0,0
188436,-100,4,1,1,50,0,0
189936,-100,4,1,1,60,0,0
192036,-100,4,1,1,30,0,0
195636,-100,4,1,1,60,0,0

[Colours]
Combo1 : 225,28,33
Combo2 : 111,131,227
Combo3 : 89,208,104
Combo4 : 235,92,160

[HitObjects]
352,292,2436,1,2
160,92,2736,1,8
352,92,3036,1,0
160,292,3336,1,8
395,189,3636,1,0
256,204,3836,1,0
256,204,3936,2,0,B|232:256|148:264,1,126.666666666667,8|0
32,192,4236,2,0,B|160:192,1,126.666666666667
158,192,4536,1,12
352,92,4836,5,2
352,292,5136,1,8
160,92,5436,1,0
160,292,5736,1,8
394,189,6036,1,0
224,184,6236,1,0
224,184,6336,2,0,B|208:108|224:52,1,126.666666666667,8|0
289,58,6636,2,0,B|304:108|288:184,1,126.666666666667
288,183,6936,1,12
160,292,7236,5,2
352,92,7536,1,8
160,92,7836,1,0
352,292,8136,1,8
117,189,8436,1,0
256,204,8636,1,0
256,204,8736,2,0,B|280:256|364:264,1,126.666666666667,8|0
480,192,9036,2,0,B|352:192,1,126.666666666667
353,192,9336,1,12
228,336,9636,6,0,B|157:350|97:290|114:222,1,190,2|8
284,47,10236,2,0,B|354:33|414:93|397:159,1,190,0|8
220,232,10836,2,0,B|171:280,2,63.3333333333333
256,180,11136,2,0,B|256:112,2,63.3333333333333,0|0|0
292,232,11436,1,4
412,104,12036,6,0,B|480:192|412:280,1,190,0|8
352,168,12536,1,0
352,168,12636,2,0,B|288:200|288:272,1,126.666666666667,0|0
223,269,12936,2,0,B|224:200|160:168,1,126.666666666667,8|0
160,168,13236,1,4
256,80,13436,5,0
256,80,13536,1,8
320,192,13736,1,0
320,192,13836,1,0
192,192,14036,1,0
192,192,14136,1,8
100,104,14336,5,0
100,104,14436,2,0,B|32:192|100:280,1,190,0|8
160,168,14936,1,0
160,168,15036,2,0,B|224:200|224:272,1,126.666666666667,0|0
288,269,15336,2,0,B|288:200|352:168,1,126.666666666667,8|0
352,168,15636,1,4
256,372,15936,6,0,B|256:240,1,126.666666666667,8|0
256,245,16236,1,0
256,245,16536,1,8
192,64,16836,6,0,B|140:100|128:176,1,126.666666666667
64,192,17136,1,8
192,192,17336,1,0
192,192,17436,2,0,B|332:192,1,126.666666666667
356,244,17736,2,0,B|372:244|416:192|372:140|356:140,1,126.666666666667,8|0
392,84,18036,6,0,B|429:105|448:140|496:160,1,126.666666666667,0|0
493,225,18336,2,0,B|448:244|429:279|392:300,1,126.666666666667,8|0
392,299,18636,1,0
256,168,18936,1,8
119,299,19236,1,4
108,112,19536,6,0,B|152:56|216:56,1,126.666666666667,8|0
216,55,19836,1,0
404,272,20136,2,0,B|360:328|296:328,1,126.666666666667,8|0
295,328,20436,1,4
256,192,20736,1,8
121,326,21036,1,0
90,286,21136,1,0
72,240,21236,1,0
65,191,21336,1,4
65,191,21636,1,4
144,104,31236,5,2
128,144,31336,1,0
100,176,31436,1,0
60,192,31536,1,12
368,104,31836,5,2
384,144,31936,1,0
412,176,32036,1,0
452,192,32136,1,12
256,40,32436,5,2
256,84,32536,1,0
256,128,32636,1,0
256,172,32736,1,8
256,216,32836,2,0,B|256:284,2,63.3333333333333,0|0|8
164,104,33636,6,0,B|100:192|164:280,1,190,2|8
256,192,34136,1,0
256,192,34236,1,0
68,192,34536,1,12
348,104,34836,6,0,B|412:192|348:280,1,190,2|8
256,192,35336,1,0
256,192,35436,1,0
444,192,35736,1,12
348,28,36036,6,0,B|324:88|256:108,1,126.666666666667,2|0
163,27,36336,2,0,B|188:88|256:108,1,126.666666666667,8|0
256,192,36636,1,0
256,192,36936,1,12
84,268,37236,5,2
188,336,37436,1,0
188,336,37536,1,8
324,336,37736,1,8
324,336,37836,1,0
428,268,38036,2,0,B|496:268,1,63.3333333333333,8|8
328,172,38436,6,0,B|308:232|308:232|256:268,1,126.666666666667,2|0
183,171,38736,2,0,B|204:232|204:232|256:268,1,126.666666666667,8|0
256,164,39036,1,0
256,164,39336,1,12
124,28,39636,6,0,B|56:50|33:118,1,126.666666666667,2|0
96,128,39936,2,0,B|128:192|95:256,1,126.666666666667,8|0
98,313,40236,2,0,B|172:320|232:288|256:232,1,190,0|12
388,28,40836,6,0,B|455:50|478:118,1,126.666666666667,2|0
416,128,41136,2,0,B|384:192|416:256,1,126.666666666667,8|0
414,313,41436,2,0,B|340:320|280:288|256:232,1,190,0|12
316,52,42036,6,0,B|352:112|352:176|316:236,1,190,2|8
193,232,42536,1,0
193,232,42636,2,0,B|160:176|160:112|196:52,1,190,0|8
256,232,43236,6,0,B|256:360,1,126.666666666667,2|0
138,309,43536,2,0,B|227:220,1,126.666666666667,8|8
26,192,43836,2,0,B|216:192,1,190,8|12
256,25,44436,6,0,B|256:152,1,126.666666666667,2|0
283,163,44736,2,0,B|373:74,1,126.666666666667,8|8
296,192,45036,2,0,B|486:192,1,190,8|12
328,296,45636,5,2
256,192,45836,1,0
256,192,45936,1,8
184,296,46136,1,8
184,296,46236,2,0,B|136:216|32:192,1,190,8|12
180,72,46836,6,0,B|313:72,1,126.666666666667,2|0
352,192,47136,2,0,B|219:192,1,126.666666666667,8|0
180,312,47436,2,0,B|372:312,1,190,0|12
180,312,48036,5,2
132,196,48236,1,0
132,196,48336,1,8
180,72,48536,1,0
180,72,48636,2,0,B|216:140|296:140|332:72,1,190,0|12
480,192,49236,5,2
352,192,49436,1,0
352,192,49536,1,8
332,312,49736,1,0
332,312,49836,2,0,B|296:244|216:244|180:312,1,190,0|12
88,152,50436,6,0,B|176:60,1,126.666666666667,2|0
176,60,50736,2,0,B|224:120|288:120|336:60,2,190,8|0|12
200,248,51636,5,0
232,276,51736,1,0
280,276,51836,1,0
312,248,51936,1,8
256,136,52136,2,0,B|256:68,1,63.3333333333333,8|0
96,32,52836,6,0,B|186:122,1,126.666666666667,4|0
58,121,53136,2,0,B|148:211,1,126.666666666667,8|0
20,210,53436,2,0,B|110:300,1,126.666666666667
237,298,53736,2,0,B|301:299|356:334,1,126.666666666667,8|0
447,244,54036,2,0,B|383:244|327:279,1,126.666666666667
237,190,54336,2,0,B|301:190|362:229,1,126.666666666667,8|8
447,135,54636,2,0,B|355:103|247:143,1,190,8|12
48,336,55236,6,0,B|137:246,1,126.666666666667
228,336,55536,2,0,B|317:246,1,126.666666666667,8|0
404,336,55836,2,0,B|493:246,1,126.666666666667
404,156,56136,2,0,B|344:108|324:52,1,126.666666666667,8|0
326,184,56436,2,0,B|266:232|246:288,1,126.666666666667
248,156,56736,2,0,B|188:108|168:52,1,126.666666666667,8|8
170,184,57036,2,0,B|88:248|76:356,1,190,8|12
416,352,57636,6,0,B|325:261,1,126.666666666667
454,263,57936,2,0,B|363:172,1,126.666666666667,8|0
492,174,58236,2,0,B|401:83,1,126.666666666667
276,84,58536,2,0,B|150:84,1,126.666666666667,8|0
59,173,58836,2,0,B|185:173,1,126.666666666667
276,260,59136,2,0,B|150:260,1,126.666666666667,8|8
59,349,59436,2,0,B|251:349,2,190,8|12|0
256,192,60336,12,4,61836
191,51,62436,6,0,B|171:115|103:151,1,126.666666666667,2|0
320,52,62736,2,0,B|339:115|398:146,1,126.666666666667,8|8
256,192,63036,1,8
104,348,63336,2,0,B|163:322|191:254,1,126.666666666667,8|0
411,346,63636,2,0,B|352:320|324:252,1,126.666666666667,0|8
256,192,63936,1,8
48,75,64236,6,0,B|48:135|92:191,1,126.666666666667
47,307,64536,2,0,B|48:247|91:191,1,126.666666666667,8|0
156,192,64836,1,4
324,104,65136,2,0,B|456:104,1,126.666666666667,8|0
450,280,65436,2,0,B|324:280,1,126.666666666667
324,280,65736,1,8
156,192,65936,5,0
156,192,66036,1,0
256,116,66236,1,0
256,116,66336,1,8
356,192,66536,1,8
356,192,66636,1,8
256,352,66936,1,8
156,192,67236,6,0,B|102:138,2,63.3333333333333,2|0|0
356,192,67536,2,0,B|409:138,2,63.3333333333333,8|0|0
256,116,67836,1,0
156,276,68136,1,8
112,288,68236,1,0
68,292,68336,1,0
28,276,68436,2,0,B|108:192|28:108,1,190,0|8
292,192,69036,6,0,B|356:192,2,63.3333333333333
220,192,69336,2,0,B|156:192,2,63.3333333333333,8|0|0
256,252,69636,1,4
256,44,69936,1,8
136,192,70136,1,0
136,192,70236,1,4
376,192,70436,1,0
376,192,70536,1,8
256,340,70736,1,0
256,340,70836,1,0
66,340,71036,5,0
66,340,71136,1,8
446,340,71336,1,8
446,340,71436,1,8
256,192,71736,1,8
446,44,72036,6,0,B|416:104|344:116,1,126.666666666667,2|0
446,340,72336,2,0,B|416:280|344:268,1,126.666666666667,8|8
256,192,72636,1,8
66,340,72936,2,0,B|96:280|168:268,1,126.666666666667,8|0
66,44,73236,2,0,B|96:104|168:116,1,126.666666666667,0|8
256,192,73536,1,8
416,92,73836,2,0,B|460:47,2,63.3333333333333
416,292,74136,2,0,B|460:336,2,63.3333333333333,8|0|0
480,192,74436,1,4
345,57,74736,6,0,B|276:88|212:88,1,126.666666666667,8|0
152,192,75036,2,0,B|280:192,1,126.666666666667
344,326,75336,2,0,B|276:296|222:296,1,126.666666666667,8|0
94,296,75636,1,0
94,88,75836,1,0
94,88,75936,1,8
468,192,76236,2,0,B|276:192,1,190,0|8
88,192,76836,5,2
256,96,77036,1,0
256,96,77136,1,8
256,288,77336,1,0
256,288,77436,1,0
424,192,77736,5,10
256,288,77936,1,0
256,288,78036,1,0
256,96,78236,1,0
256,96,78336,1,8
88,192,78636,6,0,B|200:272,1,126.666666666667,2|0
424,192,78936,2,0,B|312:272,1,126.666666666667,8|0
256,288,79236,2,0,B|256:100,1,190,4|8
88,192,79836,6,0,B|200:112,1,126.666666666667,4|0
424,192,80136,2,0,B|312:112,1,126.666666666667,8|0
256,288,80436,1,4
256,96,80736,1,8
160,192,81036,1,0
352,192,81336,1,8
172,64,81636,6,0,B|32:88|112:192|112:192|32:296|172:320,1,380,0|4
256,192,82536,1,8
340,319,82836,2,0,B|480:296|400:192|400:192|480:88|340:64,1,380
256,192,83736,1,8
256,192,84036,6,0,B|117:330,1,190,0|8
256,192,84636,2,0,B|394:330,1,190,0|8
256,192,85236,2,0,B|256:128,2,63.3333333333333
256,192,85536,2,0,B|184:248|324:288|256:360,1,190,8|12
28,192,86436,5,0
484,192,87036,1,0
120,84,87636,1,0
392,84,87936,1,8
256,320,88236,1,0
256,192,88536,1,8
256,192,88836,12,0,90636
124,104,91236,6,0,B|196:120|200:192,1,126.666666666667
388,104,91536,2,0,B|315:120|311:192,1,126.666666666667
112,240,91836,2,0,B|116:312|188:328,1,126.666666666667
400,240,92136,2,0,B|396:312|324:328,1,126.666666666667
256,312,92436,1,0
256,268,92536,1,0
256,224,92636,1,0
256,180,92736,1,0
256,136,92836,2,0,B|256:72,2,63.3333333333333,0|0|4
432,112,103236,6,0,B|341:21,1,126.666666666667,2|0
432,272,103536,2,0,B|341:362,1,126.666666666667,8|0
336,152,103836,2,0,B|221:86,1,126.666666666667
336,232,104136,2,0,B|221:298,1,126.666666666667,8|0
248,192,104436,6,0,B|116:192,1,126.666666666667
30,101,104736,2,0,B|162:101,1,126.666666666667,8|0
156,283,105036,2,0,B|30:283,1,126.666666666667,0|8
30,283,105336,1,12
332,56,105636,6,0,B|296:112|296:180,1,126.666666666667,2|0
180,56,105936,2,0,B|216:112|216:180,1,126.666666666667,8|0
256,296,106236,2,0,B|256:364,2,63.3333333333333
296,176,106536,6,0,B|336:236|404:236,1,126.666666666667,8|0
216,176,106836,2,0,B|176:236|108:236,1,126.666666666667
20,145,107136,1,8
256,56,107336,1,0
256,56,107436,1,0
492,145,107636,1,8
492,145,107736,1,12
308,192,108036,6,0,B|276:240|200:256,1,126.666666666667,2|0
204,192,108336,2,0,B|236:240|312:256,1,126.666666666667,8|0
400,164,108636,2,0,B|424:228|380:284,1,126.666666666667
112,164,108936,2,0,B|88:228|132:284,1,126.666666666667,8|0
256,192,109236,6,0,B|256:124,2,63.3333333333333
224,316,109536,2,0,B|176:264|108:264,1,126.666666666667,8|0
288,316,109836,2,0,B|336:264|404:264,1,126.666666666667,0|8
399,264,110136,1,12
76,64,110436,6,0,B|284:64,1,190,0|8
436,320,111036,2,0,B|228:320,1,190,0|8
40,192,111636,1,0
84,192,111736,1,0
128,192,111836,1,0
172,192,111936,1,0
216,192,112036,2,0,B|284:192,2,63.3333333333333,0|0|4
452,68,112836,6,0,B|420:136|420:136|372:168,1,126.666666666667,2|0
452,316,113136,2,0,B|420:248|420:248|377:219,1,126.666666666667,8|0
256,192,113436,2,0,B|320:192,2,63.3333333333333
255,192,113736,2,0,B|192:192,2,63.3333333333333,8|0|0
60,316,114036,6,0,B|92:248|92:248|134:219,1,126.666666666667
60,68,114336,2,0,B|92:136|92:136|134:164,1,126.666666666667,8|0
168,92,114636,2,0,B|216:52|296:52|344:92,1,190,0|12
220,308,115236,6,0,B|160:292|124:224,1,126.666666666667,2|0
292,76,115536,2,0,B|352:92|388:160,1,126.666666666667,8|0
126,155,115836,2,0,B|160:92|220:76,1,126.666666666667
385,228,116136,2,0,B|352:292|292:308,1,126.666666666667,8|0
256,192,116436,6,0,B|64:192,1,190,0|8
256,192,117036,2,0,B|448:192,1,190,0|12
256,36,117636,6,0,B|128:36,1,126.666666666667,2|0
39,125,117936,2,0,B|167:125,1,126.666666666667,8|0
256,216,118236,2,0,B|129:216,1,126.666666666667
39,305,118536,2,0,B|165:305,1,126.666666666667,8|0
293,305,118836,6,0,B|341:351,2,63.3333333333333
352,192,119136,2,0,B|416:192,2,63.3333333333333,8|0|0
293,79,119436,2,0,B|341:32,2,63.3333333333333
256,192,119736,1,12
256,192,120036,1,4
256,192,120336,12,4,121836
176,324,122436,6,0,B|145:288|87:279,1,94.9999971687794,2|0
336,324,122736,2,0,B|366:288|424:279,1,94.9999971687794,8|0
256,192,123036,1,4
220,272,123336,6,0,B|203:228|152:199,1,94.9999971687794,10|0
292,272,123636,2,0,B|308:228|360:199,1,94.9999971687794
256,192,123936,1,12
168,80,124236,6,0,B|212:48|256:80,1,94.9999971687794,2|0
344,80,124536,2,0,B|300:48|256:80,1,94.9999971687794,10|0
256,128,124836,1,4
172,240,125136,6,0,B|156:288|104:304,1,94.9999971687794,8|0
340,240,125436,2,0,B|356:288|408:304,1,94.9999971687794
256,348,125736,2,0,B|256:192,2,142.499995753169,8|0|8
112,100,126636,1,0
400,100,126936,1,8
208,192,127236,6,0,B|123:276,1,94.9999971687794,2|0
304,192,127536,2,0,B|388:276,1,94.9999971687794,8|0
256,136,127836,1,4
112,100,128136,6,0,B|185:173,1,94.9999971687794,10|0
400,100,128436,2,0,B|326:173,1,94.9999971687794
256,248,128736,1,12
168,296,129036,2,0,B|212:328|256:296,1,94.9999971687794,2|0
344,296,129336,2,0,B|300:328|256:296,1,94.9999971687794,8|0
256,248,129636,1,4
176,192,129936,6,0,B|72:192,1,94.9999971687794,8|0
199,135,130236,2,0,B|125:61,1,94.9999971687794
256,112,130536,2,0,B|256:8,1,94.9999971687794,8|0
312,135,130836,2,0,B|386:61,1,94.9999971687794
336,192,131136,2,0,B|440:192,1,94.9999971687794,8|0
312,248,131436,2,0,B|304:280|256:300|208:280|200:248,1,142.499995753169,0|8
484,260,132036,6,0,B|401:177,1,94.9999971687794,2|0
487,136,132336,2,0,B|375:106,1,94.9999971687794,8|0
428,28,132636,2,0,B|316:58,1,94.9999971687794,0|0
176,52,132936,6,0,B|84:26,1,94.9999971687794,10|0
115,112,133236,2,0,B|24:136,1,94.9999971687794,0|0
94,192,133536,2,0,B|28:260,1,94.9999971687794,8|0
136,304,133836,6,0,B|176:252|256:232|256:232|336:252|376:304,1,284.999991506338
204,76,134736,2,0,B|200:120|152:152,1,94.9999971687794,10|0
308,76,135036,2,0,B|312:120|360:152,1,94.9999971687794,10|8
204,300,135636,2,0,B|176:224|112:192,1,142.499995753169,0|8
308,300,136236,2,0,B|336:224|400:192,1,142.499995753169,0|8
256,192,136836,5,6
184,316,137036,1,0
184,316,137136,1,8
328,316,137336,1,0
328,316,137436,1,0
200,236,137736,6,0,B|160:192|200:152,1,94.9999971687794,14|0
312,152,138036,2,0,B|352:192|312:236,1,94.9999971687794
312,235,138336,1,8
160,84,138636,6,0,B|132:128|76:132,1,94.9999971687794,4|0
124,192,138936,2,0,B|176:192,2,47.4999985843897,8|0|0
81,252,139236,2,0,B|132:256|160:300,1,94.9999971687794
256,288,139536,2,0,B|256:400,1,94.9999971687794,8|0
430,252,139836,2,0,B|380:256|352:300,1,94.9999971687794
256,288,140136,5,8
152,192,140336,1,0
152,192,140436,1,0
360,192,140636,1,0
360,192,140736,1,8
256,96,141036,5,0
144,292,141336,1,8
368,292,141636,1,0
256,192,141936,12,4,143436
184,124,144036,6,0,B|99:39,1,94.9999971687794
328,124,144336,2,0,B|413:39,1,94.9999971687794
328,260,144636,2,0,B|413:345,1,94.9999971687794
184,260,144936,2,0,B|99:345,1,94.9999971687794
80,192,145236,1,0
124,192,145336,1,0
168,192,145436,1,0
212,192,145536,1,0
256,192,145636,2,0,B|328:192,2,63.3333333333333,0|0|4
392,152,146436,6,0,B|368:96|300:60,1,126.666666666667,2|0
120,232,146736,2,0,B|144:288|212:324,1,126.666666666667,8|0
206,62,147036,2,0,B|144:96|120:152,1,126.666666666667
305,321,147336,2,0,B|368:288|392:232,1,126.666666666667,8|0
340,192,147636,6,0,B|476:192,1,126.666666666667
172,192,147936,2,0,B|36:192,1,126.666666666667,8|0
153,83,148236,5,0
256,316,148436,1,8
256,316,148536,1,8
359,83,148736,1,8
359,83,148836,1,8
208,260,149136,6,0,B|117:350,1,126.666666666667,8|8
304,260,149436,2,0,B|394:350,1,126.666666666667,8|0
256,192,149736,2,0,B|256:56,1,126.666666666667,0|0
256,192,150036,2,0,B|138:124,1,126.666666666667,8|0
256,192,150336,2,0,B|373:124,1,126.666666666667,8|8
476,192,150636,5,8
36,192,150936,1,12
416,64,151236,6,0,B|288:64,1,126.666666666667,2|0
96,192,151536,2,0,B|222:192,1,126.666666666667,8|0
416,320,151836,2,0,B|288:320,1,126.666666666667
292,192,152136,1,8
323,160,152236,1,0
354,128,152336,1,0
385,96,152436,2,0,B|188:96,1,190,0|8
148,192,153036,6,0,B|208:232|220:292,1,126.666666666667
364,192,153336,2,0,B|304:232|292:292,1,126.666666666667,8|0
256,192,153636,2,0,B|256:48,1,126.666666666667
68,97,153936,6,0,B|120:120|148:192,1,126.666666666667,8|0
364,192,154236,2,0,B|392:120|448:96,1,126.666666666667
443,97,154536,1,8
164,308,154836,2,0,B|256:372|340:308,1,190,0|8
339,75,155436,2,0,B|256:12|164:76,1,190,0|12
104,256,156036,6,0,B|172:256|172:328|200:328,1,126.666666666667,2|0
408,256,156336,2,0,B|340:256|340:328|312:328,1,126.666666666667,8|0
152,192,156636,2,0,B|132:172|183:121|135:73,1,126.666666666667
376,73,156936,2,0,B|328:121|379:172|360:192,1,126.666666666667,8|0
360,191,157236,1,0
256,120,157436,1,8
256,120,157536,1,8
76,56,157836,6,0,B|136:96|136:172,1,126.666666666667
135,221,158136,2,0,B|136:288|76:328,1,126.666666666667,8|0
192,344,158436,2,0,B|320:344,1,126.666666666667
435,327,158736,2,0,B|376:288|376:221,1,126.666666666667,8|0
376,162,159036,2,0,B|376:96|435:56,1,126.666666666667,0|8
435,56,159336,1,8
112,192,159636,5,0
256,48,159936,1,8
400,191,160236,1,0
256,336,160536,1,12
256,192,160836,5,2
156,116,161036,1,0
156,116,161136,1,8
156,268,161336,1,8
156,268,161436,1,0
280,236,161636,1,0
280,236,161736,2,0,B|340:264|404:236,1,126.666666666667,8|0
402,147,162036,2,0,B|340:120|280:148,1,126.666666666667
280,148,162336,1,8
178,115,162636,6,0,B|87:24,1,126.666666666667
146,192,162936,2,0,B|18:192,1,126.666666666667,8|0
178,269,163236,2,0,B|87:359,1,126.666666666667
256,192,163536,2,0,B|444:192,2,190,8|0|8
256,40,164436,5,0
104,192,164736,1,8
256,344,165036,1,0
408,192,165336,1,12
204,40,165636,6,0,B|140:108|32:108,1,190,2|8
308,344,166236,2,0,B|372:276|480:276,1,190,2|8
308,40,166836,2,0,B|372:108|479:108,1,190,2|8
203,343,167436,2,0,B|140:276|32:275,1,190,2|8
308,192,168036,6,0,B|496:192,1,190,2|8
204,192,168636,2,0,B|16:192,1,190,2|8
148,326,169236,1,0
192,312,169336,1,0
228,292,169436,1,0
256,260,169536,1,8
284,292,169636,1,0
320,312,169736,1,0
364,326,169836,1,12
256,192,170136,6,0,B|256:56,1,126.666666666667,10|0
256,65,170436,1,12
256,64,171036,1,8
152,191,171636,2,0,B|152:309|152:309|192:369,1,190,2|8
360,192,172236,2,0,B|360:309|360:309|320:369,1,190,2|8
256,192,172836,12,4,175236
256,192,182436,12,4,184536
64,312,184836,6,0,B|116:264|180:264,1,126.666666666667
64,72,185136,2,0,B|116:120|180:120,1,126.666666666667,8|0
447,72,185436,2,0,B|396:120|333:119,1,126.666666666667
447,311,185736,2,0,B|396:264|333:264,1,126.666666666667,8|0
256,160,186036,6,0,B|165:69,1,126.666666666667
345,70,186336,2,0,B|256:160,1,126.666666666667,8|0
256,160,186636,2,0,B|256:352,1,190,0|12
188,312,187236,6,0,B|148:248|80:244,1,126.666666666667
324,312,187536,2,0,B|364:248|432:244,1,126.666666666667,8|0
425,139,187836,2,0,B|364:136|324:72,1,126.666666666667
86,139,188136,2,0,B|148:136|187:72,1,126.666666666667,8|0
256,192,188436,6,0,B|256:52,1,126.666666666667
256,192,188736,2,0,B|256:332,1,126.666666666667,8|0
256,192,189036,2,0,B|120:192,1,126.666666666667
256,192,189336,2,0,B|392:192,1,126.666666666667,8|0
382,192,189636,5,4
256,36,189936,1,8
256,348,190236,1,4
100,192,190536,1,8
412,192,190836,5,4
412,192,191136,1,8
100,192,191436,1,4
100,192,191736,1,8
144,316,192036,6,0,B|200:368|256:316,1,126.666666666667
256,316,192336,2,0,B|312:263|368:315,1,126.666666666667,8|0
368,315,192636,2,0,B|364:244|388:192,1,126.666666666667
143,315,192936,2,0,B|148:244|124:192,1,126.666666666667,8|0
324,168,193236,6,0,B|360:108|432:104,1,126.666666666667
188,168,193536,2,0,B|152:108|80:104,1,126.666666666667,8|0
256,64,193836,2,0,B|256:256,1,190,0|8
64,256,194436,6,0,B|64:128,1,126.666666666667
153,39,194736,2,0,B|153:165,1,126.666666666667,8|0
256,240,195036,2,0,B|256:112,1,126.666666666667
359,39,195336,2,0,B|359:165,1,126.666666666667,8|0
448,256,195636,5,0
428,297,195736,1,0
400,333,195836,1,0
364,362,195936,1,0
328,336,196036,1,0
284,320,196136,1,0
240,320,196236,1,4
