osu file format v9

[General]
AudioFilename: Ashurashurashura.mp3
AudioLeadIn: 0
PreviewTime: 62412
Countdown: 0
SampleSet: Normal
StackLeniency: 0.7
Mode: 0
LetterboxInBreaks: 0

[Editor]
Bookmarks: 96271,96371
DistanceSpacing: 1.4
BeatDivisor: 3
GridSize: 4

[Metadata]
Title:Ashurashurashura
Artist:Hatsune Miku & Megpoid Gumi
Creator:Asgard
Version:Hard
Source:
Tags:Star Stream Mapper 31 samiljul waka vocaloid2 vocaloid

[Difficulty]
HPDrainRate:6
CircleSize:4
OverallDifficulty:5
ApproachRate:7
SliderMultiplier:1.3
SliderTickRate:1

[Events]
//Background and Video events
0,0,"bg.jpg"
Video,0,"mv.avi"
//Break Periods
2,21836,30336
2,93630,102336
2,122436,131136
2,175436,181536
//Storyboard Layer 0 (Background)
//Storyboard Layer 1 (Fail)
//Storyboard Layer 2 (Pass)
//Storyboard Layer 3 (Foreground)
//Storyboard Sound Samples
//Background Colour Transformations
3,100,0,0,0

[TimingPoints]
36,300,4,1,1,80,1,0
62436,-83.3333333333333,4,1,1,80,0,1
81636,-100,4,1,1,60,0,0
90636,-100,4,2,1,5,0,0
92436,-100,4,1,1,60,0,0
132036,-100,4,2,1,60,0,0
143436,-100,4,2,1,5,0,0
145236,-100,4,1,1,60,0,0
146436,-83.3333333333333,4,1,1,60,0,1
165336,-100,4,1,1,60,0,0
192236,-100,4,2,1,60,0,0
195636,-100,4,1,1,60,0,0

[Colours]
Combo1 : 225,28,33
Combo2 : 111,131,227
Combo3 : 89,208,104
Combo4 : 235,92,160

[HitObjects]
128,136,2436,2,0,B|136:56|240:48,1,130,2|8
224,184,3036,2,0,B|232:104|336:96,1,130,0|8
412,108,3636,1,0
456,160,3836,1,0
456,160,3936,2,0,B|456:224|376:240,1,86.6666666666667,8|0
368,248,4236,2,0,B|304:248|288:328,1,86.6666666666667
299,292,4536,1,4
176,328,4836,6,0,B|224:264|168:200,1,130,2|8
56,264,5436,2,0,B|8:200|64:136,1,130,0|8
144,48,6036,1,0
224,88,6236,1,0
224,88,6336,2,0,B|252:36|296:44,1,86.6666666666667,8|0
328,44,6636,2,0,B|384:40|400:84,1,86.6666666666667
400,80,6936,1,4
324,184,7236,6,0,B|324:340,1,130,2|8
188,312,7836,2,0,B|188:168,1,130,0|8
176,56,8436,2,0,B|120:76|96:116,1,86.6666666666667,0|0
76,136,8736,2,0,B|28:176|32:252,1,86.6666666666667,8|0
36,252,9036,2,0,B|28:312|88:360,1,86.6666666666667
60,332,9336,1,4
188,300,9636,5,2
256,192,9936,1,8
188,84,10236,1,0
256,192,10536,1,8
324,300,10836,6,0,B|368:328|412:328,1,86.6666666666667
444,284,11136,2,0,B|444:240,2,43.3333333333333
480,328,11436,1,0
288,156,12036,5,0
288,156,12236,1,0
288,156,12336,1,8
216,108,12536,1,0
216,108,12636,2,0,B|164:112|132:132,1,86.6666666666667,0|0
102,162,12936,2,0,B|74:206|78:250,1,86.6666666666667,8|0
108,274,13236,6,0,B|152:310|200:310,1,86.6666666666667,0|0
216,278,13536,2,0,B|256:248|296:280,1,86.6666666666667,8|0
339,279,13836,2,0,B|354:299|353:328,2,43.3333333333333,0|0|0
369,248,14136,2,0,B|366:207|403:170,1,86.6666666666667,8|0
371,140,14436,6,0,B|337:140|293:104,1,86.6666666666667,0|0
262,73,14736,2,0,B|266:49|282:37,2,43.3333333333333,8|0|0
231,103,15036,2,0,B|187:111|139:147,1,86.6666666666667,0|0
108,137,15336,2,0,B|88:109|68:93,2,43.3333333333333,8|0|0
108,180,15636,6,0,B|119:221|119:221|163:245,1,86.6666666666667,0|0
188,272,15936,2,0,B|234:283|234:283|265:314,1,86.6666666666667,8|0
292,279,16236,2,0,B|319:251|319:251|365:240,1,86.6666666666667,0|0
396,271,16536,2,0,B|473:252|493:188,1,130,8|4
368,68,17136,5,8
368,68,17336,1,0
368,68,17436,2,0,B|336:108|296:112,1,86.6666666666667
252,111,17736,2,0,B|212:107|180:67,1,86.6666666666667,8|0
136,67,18036,6,0,B|95:92|95:140,1,86.6666666666667
125,169,18336,2,0,B|184:169,2,43.3333333333333,8|0|0
88,192,18636,2,0,B|72:236|32:256,1,86.6666666666667
63,286,18936,2,0,B|96:328|140:328,1,86.6666666666667,8|0
166,297,19236,6,0,B|267:297,1,86.6666666666667
296,297,19536,1,8
372,192,19836,2,0,B|280:192,1,86.6666666666667
241,192,20136,1,8
166,87,20436,2,0,B|267:87,1,86.6666666666667
296,87,20736,1,8
256,216,21036,6,0,B|256:264,3,43.3333333333333
256,216,21636,1,4
188,152,31236,6,0,B|140:152,3,43.3333333333333
320,152,31836,2,0,B|368:152,3,43.3333333333333
288,312,32436,2,0,B|318:342,2,43.3333333333333
224,312,32736,2,0,B|194:342,2,43.3333333333333
256,264,33036,1,4
408,172,33636,5,2
468,64,33836,1,0
468,64,33936,1,8
348,48,34136,1,0
348,48,34236,2,0,B|276:24|216:40,1,130,0|12
68,136,34836,5,2
176,188,35036,1,0
176,188,35136,1,8
76,256,35336,1,0
76,256,35436,2,0,B|124:324|212:312,1,130,0|12
368,308,36036,5,2
456,224,36236,1,0
456,224,36336,1,8
340,188,36536,1,0
340,188,36636,2,0,B|328:108|416:80,1,130,0|12
220,92,37236,6,0,B|96:92,1,86.6666666666667,2|0
96,140,37536,2,0,B|148:228,1,86.6666666666667,8|0
200,216,37836,2,0,B|248:128,1,86.6666666666667
241,139,38136,1,8
408,64,38436,6,0,B|408:188,1,86.6666666666667,2|0
468,160,38736,2,0,B|468:280,1,86.6666666666667,8|0
420,284,39036,2,0,B|348:320|280:276,1,130,0|12
240,112,39636,6,0,B|116:112,1,86.6666666666667,2|0
144,172,39936,2,0,B|24:172,1,86.6666666666667,8|0
32,228,40236,2,0,B|-4:300|40:368,1,130,0|12
212,352,40836,6,0,B|212:228,1,86.6666666666667,2|0
272,256,41136,2,0,B|272:136,1,86.6666666666667,8|0
328,144,41436,2,0,B|400:108|468:152,1,130,0|12
292,60,42036,2,0,B|228:96|184:32,1,86.6666666666667,2|0
164,96,42336,2,0,B|172:156|92:176,1,86.6666666666667,8|0
76,204,42636,2,0,B|42:247,3,43.3333333333333,0|0|0|8
204,332,43236,6,0,B|232:284|280:284,1,86.6666666666667,2|0
333,284,43536,2,0,B|384:272|412:232,1,86.6666666666667,8|0
444,192,43836,1,4
392,80,44036,1,0
392,80,44136,2,0,B|340:68|300:88,1,86.6666666666667,8|0
245,84,44436,6,0,B|200:84|140:112,1,86.6666666666667,2|0
118,145,44736,2,0,B|120:192|80:228,1,86.6666666666667,8|0
85,283,45036,2,0,B|53:312,2,43.3333333333333,4|0|0
128,326,45336,2,0,B|172:322|212:290,1,86.6666666666667,8|0
256,260,45636,6,0,B|289:225|337:225,1,86.6666666666667,2|0
375,182,45936,2,0,B|400:176|416:192,2,43.3333333333333,8|0|0
332,139,46236,2,0,B|296:128|268:80,1,86.6666666666667,4|0
226,39,46536,2,0,B|208:72|160:92,1,86.6666666666667,8|0
98,92,46836,5,2
32,192,47036,1,0
32,192,47136,1,8
153,192,47336,1,0
153,192,47436,2,0,B|216:216|232:296,1,130,0|8
412,292,48036,5,2
484,192,48236,1,0
484,192,48336,1,8
412,92,48536,1,0
412,92,48636,2,0,B|327:92,1,86.6666666666667,4|0
282,135,48936,2,0,B|344:197,1,86.6666666666667,8|0
343,196,49236,5,2
257,282,49436,1,0
257,282,49536,2,0,B|165:282,1,86.6666666666667,8|0
127,324,49836,2,0,B|143:340|151:380,2,43.3333333333333,4|0|0
83,280,50136,2,0,B|66:244|78:188,1,86.6666666666667,8|0
76,194,50436,5,2
76,72,50636,1,0
76,72,50736,2,0,B|164:72,1,86.6666666666667,8|0
223,72,51036,1,0
308,157,51236,1,0
308,157,51336,2,0,B|217:157,1,86.6666666666667,8|0
256,192,51636,12,4,52836
256,128,53136,5,8
256,276,53436,1,2
136,192,53736,1,8
92,84,54036,2,0,B|220:84,1,130,0|8
420,84,54636,2,0,B|292:84,1,130,0|8
180,188,55236,5,4
332,188,55536,1,10
180,188,55836,1,0
332,188,56136,1,8
92,340,56436,2,0,B|260:340,1,130,0|8
420,340,57036,2,0,B|290:340,1,130,0|8
388,192,57636,5,4
124,192,57936,1,10
388,192,58236,1,0
124,192,58536,1,8
256,64,58836,1,0
256,328,59136,1,8
256,64,59436,1,0
256,328,59736,1,8
256,192,60036,12,4,61835
200,96,62436,6,0,B|168:144|108:160,1,104.000002479553,2|0
74,201,62736,2,0,B|123:213|155:261,1,104.000002479553,8|8
155,261,63036,1,0
316,288,63336,2,0,B|348:240|408:224,1,104.000002479553,8|0
442,183,63636,2,0,B|392:170|360:122,1,104.000002479553,0|0
360,122,63936,1,8
220,60,64236,6,0,B|220:168,1,104.000002479553,0|0
292,164,64536,2,0,B|292:60,1,104.000002479553,8|8
292,59,64836,1,4
348,264,65136,2,0,B|300:280|256:312,1,104.000002479553,8|0
256,312,65436,2,0,B|212:280|164:264,1,104.000002479553,8|0
68,60,65936,6,0,B|176:176,1,156.00000371933,8|8
224,124,66336,2,0,B|152:48,1,104.000002479553,0|8
152,48,66636,1,8
224,124,66936,1,8
448,160,67236,5,2
396,292,67436,1,0
396,292,67536,1,8
256,264,67736,1,8
256,264,67836,1,0
68,164,68136,2,0,B|68:100,2,52.0000012397766,8|0|0
68,236,68436,2,0,B|88:280|148:296,1,104.000002479553,0|8
148,296,68736,1,8
352,236,69036,6,0,B|424:148,1,104.000002479553,0|0
367,105,69336,2,0,B|295:193,1,104.000002479553,8|0
301,185,69636,1,4
152,36,69936,1,8
112,172,70136,1,0
112,172,70236,2,0,B|56:196|32:252,1,104.000002479553,0|8
240,304,70736,6,0,B|348:188,1,156.00000371933,8|8
396,240,71136,2,0,B|324:316,1,104.000002479553,8|8
324,315,71436,1,8
396,240,71736,1,8
280,80,72036,6,0,B|296:52|340:44,2,52.0000012397766,2|0|0
229,130,72336,2,0,B|216:180|156:200,1,104.000002479553,8|8
157,199,72636,1,0
336,312,72936,2,0,B|320:340|276:348,2,52.0000012397766,8|0|0
387,262,73236,2,0,B|400:212|460:192,1,104.000002479553,0|8
458,192,73536,1,8
308,40,73836,5,0
172,80,74036,1,0
172,80,74136,1,8
112,212,74336,1,0
112,212,74436,1,0
324,184,74736,6,0,B|320:244|256:264,1,104.000002479553,8|0
192,264,75036,2,0,B|196:204|260:184,1,104.000002479553,8|8
428,72,75536,2,0,B|268:72,1,156.00000371933,8|8
248,140,75936,2,0,B|352:140,1,104.000002479553,8|8
422,140,76236,2,0,B|462:216|422:292,1,156.00000371933,8|12
220,348,76836,6,0,B|166:345|126:305,1,104.000002479553,2|0
176,256,77136,2,0,B|173:202|133:162,1,104.000002479553,8|0
134,163,77436,1,0
316,56,77736,2,0,B|369:58|409:98,1,104.000002479553,8|0
360,148,78036,2,0,B|362:201|402:241,1,104.000002479553,0|0
402,241,78336,1,8
204,308,78636,5,0
96,216,78836,1,0
96,216,78936,1,8
124,76,79136,1,0
124,76,79236,1,0
244,260,79536,6,0,B|176:192|244:124,1,156.00000371933,8|0
243,124,80036,1,8
456,116,80336,2,0,B|456:272,1,156.00000371933,8|8
388,252,80736,2,0,B|388:128,1,104.000002479553,8|8
320,156,81036,2,0,B|320:100,2,52.0000012397766,0|0|0
320,226,81336,2,0,B|320:278,2,52.0000012397766,0|0|4
220,180,81636,5,4
97,57,81936,1,8
97,230,82236,1,2
219,352,82536,1,8
220,180,82836,1,0
341,55,83136,1,8
463,177,83436,1,2
340,299,83736,1,8
340,125,84036,5,4
156,236,84336,1,8
288,68,84636,1,2
224,272,84936,1,8
236,168,85236,2,0,B|200:132,2,43.3333333333333
276,216,85536,2,0,B|312:252,2,43.3333333333333
276,216,85836,1,4
156,96,86136,6,0,B|120:144|120:176,1,86.6666666666667,8|0
120,173,86436,1,8
60,320,87036,2,0,B|176:232|176:384|328:320,1,260,8|8
472,228,87936,1,8
288,228,88236,1,0
440,328,88536,1,8
380,152,88836,1,4
256,192,89136,12,4,90636
256,152,92436,6,0,B|256:88,2,43.3333333333333
256,228,92736,2,0,B|256:280,2,43.3333333333333
256,228,93036,1,0
212,136,103236,6,0,B|160:136|132:84,1,86.6666666666667,4|0
96,138,103536,2,0,B|75:177|24:177,1,86.6666666666667,8|0
24,239,103836,2,0,B|48:279|100:279,1,86.6666666666667,0|0
139,322,104136,2,0,B|168:284|220:268,1,86.6666666666667,8|0
269,271,104436,6,0,B|312:264|344:228,1,86.6666666666667,4|0
386,185,104736,2,0,B|352:152|308:152,1,86.6666666666667,8|0
264,108,105036,2,0,B|232:68|176:68,1,86.6666666666667,0|0
128,68,105336,1,8
68,172,105536,5,0
68,172,105636,2,0,B|64:128,2,43.3333333333333,4|0|0
68,233,105936,2,0,B|80:272|124:301,1,86.6666666666667,8|0
181,299,106236,2,0,B|196:340,2,43.3333333333333,0|0|0
224,255,106536,2,0,B|228:208|184:172,1,86.6666666666667,8|0
191,116,106836,6,0,B|224:80|272:76,1,86.6666666666667,4|0
326,76,107136,2,0,B|368:79|401:115,1,86.6666666666667,8|0
443,158,107436,2,0,B|376:192|360:260,1,130,0|8
180,248,108036,6,0,B|152:208|152:176|180:128,1,130,0|8
331,127,108636,2,0,B|360:176|360:208|332:248,1,130,0|8
256,192,109236,5,0
256,296,109436,1,0
256,296,109536,1,8
160,252,109736,1,0
160,252,109836,2,0,B|88:252|48:192,1,130,0|8
152,44,110436,5,4
256,192,110736,1,8
360,44,111036,1,4
256,192,111336,1,8
256,192,111636,12,4,112836
256,104,113136,5,10
184,228,113436,1,0
328,228,113736,1,8
256,104,114036,2,0,B|92:104,1,130,0|8
328,228,114636,2,0,B|496:228,1,130,0|8
392,100,115236,5,4
328,228,115536,1,10
216,140,115836,1,0
152,268,116136,1,8
216,140,116436,2,0,B|380:140,1,130,0|8
152,268,117036,2,0,B|12:268,1,130,0|8
144,192,117636,5,4
256,80,117936,1,10
368,192,118236,1,0
256,304,118536,1,8
144,192,118836,2,0,B|144:40,1,130,0|8
368,192,119436,2,0,B|368:348,1,130,0|8
256,192,120036,1,0
256,192,120336,12,4,121836
120,84,132036,6,0,B|120:228,1,130,2|8
120,304,132636,1,0
212,304,132936,2,0,B|212:160,1,130,10|0
212,84,133536,1,8
304,84,133836,6,0,B|360:108|376:156,1,86.6666666666667,2|0
368,188,134136,2,0,B|359:219|303:243,1,86.6666666666667,8|0
304,242,134436,1,4
424,320,134736,1,10
468,236,134936,1,0
468,236,135036,2,0,B|492:160|456:104,1,130,2|8
356,68,135536,6,0,B|300:104|228:92,1,130,0|0
184,104,135936,2,0,B|148:172|92:176,1,86.6666666666667,8|0
116,216,136236,2,0,B|192:268|196:324,1,130,0|12
340,316,136836,6,0,B|340:172,1,130,2|8
340,96,137436,1,0
432,96,137736,2,0,B|432:240,1,130,10|0
432,316,138336,1,8
340,316,138636,5,2
228,272,138836,1,0
228,272,138936,1,8
172,164,139136,1,0
172,164,139236,1,4
316,56,139536,1,10
420,116,139736,1,0
420,116,139836,2,0,B|420:248,1,130,2|8
240,216,140336,6,0,B|76:216,1,130,2|0
92,148,140736,2,0,B|192:148,1,86.6666666666667,10|0
200,80,141036,2,0,B|64:80,1,130,2|0
256,192,141636,12,0,143436
256,156,145236,6,0,B|256:104,2,43.3333333333333
256,228,145536,2,0,B|256:280,2,43.3333333333333
256,228,145836,1,0
460,80,146436,6,0,B|420:44|356:44,1,104.000002479553,2|0
314,94,146736,2,0,B|274:58|210:58,1,104.000002479553,8|8
218,58,147036,1,4
64,204,147336,2,0,B|104:240|168:240,1,104.000002479553,8|0
210,190,147636,2,0,B|250:226|314:226,1,104.000002479553,8|8
305,225,147936,1,8
472,356,148236,6,0,B|472:248,1,104.000002479553,0|0
424,200,148536,2,0,B|424:96,1,104.000002479553,8|8
424,96,148836,1,4
256,220,149136,2,0,B|204:196|196:140,1,104.000002479553,8|0
128,120,149436,2,0,B|152:68|208:59,1,104.000002479553,0|8
412,112,149936,6,0,B|412:268,1,156.00000371933,8|8
344,248,150336,2,0,B|344:136,1,104.000002479553,8|8
276,160,150636,2,0,B|276:316,1,156.00000371933,8|8
64,316,151236,6,0,B|100:272|100:220,1,104.000002479553,2|0
100,220,151536,2,0,B|68:176|68:124,1,104.000002479553,8|8
67,122,151836,1,8
272,72,152136,2,0,B|280:48|308:36,2,52.0000012397766,0|0|8
221,122,152436,2,0,B|237:174|293:194,1,104.000002479553,0|8
291,193,152736,1,8
492,128,153036,5,0
452,264,153236,1,0
452,264,153336,1,8
320,320,153536,1,0
320,320,153636,1,4
116,296,153936,6,0,B|120:236|160:192|216:192,1,156.00000371933,8|8
212,192,154436,1,8
396,296,154736,2,0,B|184:296,1,208.000004959107,0|8
48,136,155436,2,0,B|208:136,1,156.00000371933,0|12
96,316,156036,5,2
228,232,156236,1,0
228,232,156336,1,8
136,104,156536,1,8
136,104,156636,1,8
328,192,156936,2,0,B|336:216|364:228,2,52.0000012397766,8|0|0
277,142,157236,2,0,B|293:90|349:70,1,104.000002479553,0|8
347,70,157536,1,8
277,142,157836,5,0
124,184,158036,1,0
124,184,158136,1,8
48,300,158336,1,0
48,300,158436,2,0,B|152:300,1,104.000002479553
224,300,158736,2,0,B|330:300,1,104.000002479553,8|8
328,228,159036,2,0,B|224:228,1,104.000002479553,0|8
36,136,159536,6,0,B|244:136,1,208.000004959107,0|8
436,52,160236,2,0,B|280:52,1,156.00000371933,0|12
164,228,160836,6,0,B|164:288,2,52.0000012397766,2|0|0
164,157,161136,2,0,B|164:41,1,104.000002479553,8|8
164,53,161436,1,8
348,156,161736,2,0,B|348:96,2,52.0000012397766,8|0|8
348,227,162036,2,0,B|348:343,1,104.000002479553,0|8
348,331,162336,1,8
216,320,162636,6,0,B|272:292|272:232,1,104.000002479553,0|0
201,238,162936,2,0,B|145:210|145:150,1,104.000002479553,8|0
145,156,163236,1,0
328,52,163536,1,8
484,192,163836,1,0
484,192,164036,1,8
328,332,164336,5,0
328,120,164636,1,0
328,120,164736,1,8
187,120,164936,1,0
187,120,165036,2,0,B|160:192|72:224,1,156.00000371933,0|4
256,312,165636,5,6
256,72,165936,1,8
256,312,166236,1,2
256,72,166536,1,8
376,192,166836,1,6
136,192,167136,1,8
376,192,167436,1,2
136,192,167736,1,8
320,336,168036,5,6
136,192,168336,1,8
376,192,168636,1,2
192,336,168936,1,8
256,112,169236,2,0,B|256:60,2,43.3333333333333
256,184,169536,2,0,B|256:232,2,43.3333333333333
256,184,169836,1,4
436,218,170136,6,0,B|436:88,1,130,8|8
428,320,171036,2,0,B|276:240|276:384|160:320,1,260,8|8
16,232,171936,1,8
200,232,172236,1,0
48,332,172536,1,8
108,156,172836,1,4
256,192,173136,12,4,175236
256,192,182436,12,0,184836
256,192,185436,5,0
400,104,186036,2,0,B|400:236,1,130,0|8
324,272,186636,2,0,B|324:112,1,130,0|8
324,52,187236,5,2
232,116,187436,1,0
232,116,187536,1,8
140,52,187736,1,8
140,52,187836,2,0,B|140:184,1,130,0|12
52,328,188436,5,2
148,268,188636,1,0
148,268,188736,1,8
244,328,188936,1,8
244,328,189036,2,0,B|376:328,1,130,0|12
464,184,189636,5,2
364,132,189836,1,0
364,132,189936,1,8
448,60,190136,1,8
448,60,190236,2,0,B|384:16|320:28,1,130,0|12
180,116,190836,5,2
332,116,191036,1,0
332,116,191136,1,8
256,232,191336,1,8
256,232,191436,2,0,B|256:80,1,130,0|12
256,102,192036,5,2
120,68,192236,1,0
120,68,192336,1,8
64,196,192536,1,0
64,196,192636,1,2
164,292,192836,1,0
164,292,192936,1,8
284,224,193136,5,0
284,224,193236,1,2
408,284,193436,1,0
408,284,193536,1,8
448,152,193736,1,0
448,152,193836,2,0,B|416:84|320:68,1,130,2|4
144,112,194436,5,2
256,192,194636,1,0
256,192,194736,1,8
364,108,194936,1,0
364,108,195036,1,2
444,224,195236,1,0
444,224,195336,1,8
320,288,195536,5,0
320,288,195636,2,0,B|404:288,2,43.3333333333333
248,288,195936,2,0,B|196:288,2,43.3333333333333
248,288,196236,1,4
