osu file format v9

[General]
AudioFilename: Hatsune Miku & Kagamine Rin - Promise.mp3
AudioLeadIn: 0
PreviewTime: 66695
Countdown: 0
SampleSet: Soft
StackLeniency: 0.4
Mode: 0
LetterboxInBreaks: 1

[Editor]
DistanceSpacing: 0.8
BeatDivisor: 4
GridSize: 4

[Metadata]
Title:Promise
Artist:Hatsune Miku & Kagamine Rin
Creator:12BARRY21
Version:Insane
Source:samfree
Tags:Sanjenin Nagi -U No_Gu Lan wings Lan_wings SAM vocaloid vocaloid2

[Difficulty]
HPDrainRate:8
CircleSize:4
OverallDifficulty:7
ApproachRate:8
SliderMultiplier:1.76
SliderTickRate:1

[Events]
//Background and Video events
0,0,"Promise BG.png"
//Break Periods
2,97666,101933
//Storyboard Layer 0 (Background)
Sprite,Background,Centre,"Promise BG.png",320,240 M,0,64,,320,240 F,0,64,1804,0,1 S,0,64,174785,0.624
//Storyboard Layer 1 (Fail)
//Storyboard Layer 2 (Pass)
//Storyboard Layer 3 (Foreground)
Sprite,Foreground,Centre,"SB\EI.png",320,240 F,0,5281,5716,0,1 M,0,5281,8760,440,217,340,217 F,0,5716,8325,1 F,0,8325,8760,1,0
Sprite,Foreground,Centre,"Promise BG.png",320,240 F,0,8760,9194,1,0 S,0,8760,9194,0.625,0.776
Sprite,Foreground,Centre,"Promise BG.png",320,240 F,0,52238,52673,1,0 S,0,52238,52673,0.625,0.776
Sprite,Foreground,Centre,"Promise BG.png",320,240 F,0,67890,68325,1,0 S,0,67890,68325,0.625,0.776
Sprite,Foreground,Centre,"Promise BG.png",320,240 F,0,109629,110064,1,0 S,0,109629,110064,0.625,0.776
Sprite,Foreground,Centre,"Promise BG.png",320,240 F,0,125281,125716,1,0 S,0,125281,125716,0.625,0.776
Sprite,Foreground,Centre,"Promise BG.png",320,240 F,0,153107,154412,1,0 S,0,153107,154412,0.625,0.776
Sprite,Foreground,Centre,"SB\white.png",320,240 F,0,8760,9194,0.5,1 F,0,9194,9629,1,0
Sprite,Foreground,Centre,"SB\white.png",320,240 F,0,109629,110064,0.5,1 F,0,110064,110499,1,0
Sprite,Foreground,Centre,"SB\white.png",320,240 F,0,52238,52673,0.5,1 F,0,52673,53107,1,0
Sprite,Foreground,Centre,"SB\white.png",320,240 F,0,67890,68325,0.5,1 F,0,68325,68759,1,0
Sprite,Foreground,Centre,"SB\white.png",320,240 F,0,125281,125716,0.5,1 F,0,125716,126151,1,0
Sprite,Foreground,Centre,"SB\white.png",320,240 F,0,153107,153977,0.5,1 F,0,153977,154846,1,0
Sprite,Foreground,Centre,"SB\OP effect.png",320,240 F,0,67890,68216,0 R,0,67890,95716,0,-6.368001 F,0,68216,68433,0,1 M,0,68433,,319,239 S,0,68433,,2.312 F,0,68433,95716,1 F,0,95716,97455,1,0
Sprite,Foreground,Centre,"SB\OP effect.png",320,240 F,0,67890,68325,1,0 S,0,67890,68325,1,3.024 R,0,67890,68325,0,-2.448 M,0,68433,,319,264
Sprite,Foreground,Centre,"SB\OP effect.png",320,240 S,0,125281,125716,2.752,0.1 R,0,125281,125716,0,-0.03199982
Sprite,Foreground,Centre,"SB\OP effect.png",320,240 S,0,125281,125716,0.1,2.14 R,0,125281,125716,0,-3.792 F,0,125281,153107,1 R,0,125716,153107,-3.792,-11.024 F,0,153107,154846,1,0
Sprite,Foreground,Centre,"SB\Lyric\01.png",320,240 F,0,22455,22673,0,1 M,0,22564,25390,175,349,233,349 F,0,22673,24846,1 F,0,24846,25390,1,0
Sprite,Foreground,Centre,"SB\Lyric\02.png",320,240 F,0,25933,26151,0,1 M,0,26042,28868,437,380,373,380 F,0,26151,28325,1 F,0,28325,28868,1,0
Sprite,Foreground,Centre,"SB\Lyric\03.png",320,240 F,0,29412,29629,0,1 M,0,29520,32781,171,349,233,349 F,0,29629,32238,1 F,0,32238,32781,1,0
Sprite,Foreground,Centre,"SB\Lyric\04.png",320,240 F,0,32673,32890,0,1 M,0,32781,36042,448,380,373,380 F,0,32890,35499,1 F,0,35499,36042,1,0
Sprite,Foreground,Centre,"SB\Lyric\05.png",320,240 F,0,36368,36586,0,1 M,0,36477,39303,175,349,233,349 F,0,36586,38759,1 F,0,38759,39303,1,0
Sprite,Foreground,Centre,"SB\Lyric\06.png",320,240 F,0,39846,40064,0,1 M,0,39955,42781,437,380,396,380 F,0,40064,42238,1 F,0,42238,42781,1,0
Sprite,Foreground,Centre,"SB\Lyric\07.png",320,240 F,0,43325,43542,0,1 M,0,43433,46694,175,349,233,349 F,0,43542,46042,1 F,0,46042,46694,1,0
Sprite,Foreground,Centre,"SB\Lyric\08.png",320,240 F,0,46803,47020,0,1 M,0,46912,50064,449,380,372,380 F,0,47020,49412,1 F,0,49412,50064,1,0
Sprite,Foreground,Centre,"SB\Lyric\09-rin.png",320,240 F,0,51151,51368,0,1 M,0,51259,55281,175,349,233,349 F,0,51368,54629,1 F,0,54629,55281,1,0
Sprite,Foreground,Centre,"SB\Lyric\10-rin.png",320,240 F,0,55499,55716,0,1 M,0,55607,58759,182,349,239,349 F,0,55716,58107,1 F,0,58107,58759,1,0
Sprite,Foreground,Centre,"SB\Lyric\09-miku.png",320,240 F,0,51151,51368,0,1 M,0,51259,55281,453,380,373,380 F,0,51368,54629,1 F,0,54629,55281,1,0
Sprite,Foreground,Centre,"SB\Lyric\10-miku.png",320,240 F,0,55499,55716,0,1 M,0,55607,58759,451,380,388,380 F,0,55716,58107,1 F,0,58107,58759,1,0
Sprite,Foreground,Centre,"SB\Lyric\11.png",320,240 F,0,58977,59194,0,1 M,0,59086,62346,175,349,233,349 F,0,59194,61803,1 F,0,61803,62346,1,0
Sprite,Foreground,Centre,"SB\Lyric\12.png",320,240 F,0,62455,62673,0,1 M,0,62564,65825,474,380,373,380 F,0,62673,65281,1 F,0,65281,65825,1,0
Sprite,Foreground,Centre,"SB\Lyric\13-rin.png",320,240 F,0,66803,67020,0,1 M,0,66912,70173,210,349,269,349 F,0,67020,69629,1 F,0,69629,70173,1,0
Sprite,Foreground,Centre,"SB\Lyric\14-rin.png",320,240 F,0,70281,70499,0,1 M,0,70390,74412,208,349,267,349 F,0,70499,73759,1 F,0,73759,74412,1,0
Sprite,Foreground,Centre,"SB\Lyric\15-rin.png",320,240 F,0,74412,74629,0,1 M,0,74520,77999,196,349,274,349 F,0,74629,77455,1 F,0,77455,77999,1,0
Sprite,Foreground,Centre,"SB\Lyric\16-rin.png",320,240 F,0,135499,135716,0,1 M,0,135607,137890,223,349,274,349 F,0,135716,137238,1 F,0,137238,137890,1,0
Sprite,Foreground,Centre,"SB\Lyric\16-rin.png",320,240 F,0,78107,78325,0,1 M,0,78216,80499,223,349,274,349 F,0,78325,79846,1 F,0,79846,80499,1,0
Sprite,Foreground,Centre,"SB\Lyric\17-rin.png",320,240 F,0,80716,80933,0,1 M,0,80825,84086,224,349,281,349 F,0,80933,83542,1 F,0,83542,84086,1,0
Sprite,Foreground,Centre,"SB\Lyric\18-rin.png",320,240 F,0,84194,84412,0,1 M,0,84303,88325,215,349,275,349 F,0,84412,87673,1 F,0,87673,88325,1,0
Sprite,Foreground,Centre,"SB\Lyric\19-rin.png",320,240 F,0,88542,88759,0,1 M,0,88651,91912,239,349,291,349 F,0,88759,91368,1 F,0,91368,91912,1,0
Sprite,Foreground,Centre,"SB\Lyric\20-rin.png",320,240 F,0,92020,92238,0,1 M,0,92129,96586,232,349,320,349 F,0,92238,95716,1 F,0,95716,96586,1,0
Sprite,Foreground,Centre,"SB\Lyric\13-miku.png",320,240 F,0,66803,67020,0,1 M,0,66912,70173,426,380,347,380 F,0,67020,69629,1 F,0,69629,70173,1,0
Sprite,Foreground,Centre,"SB\Lyric\14-miku.png",320,240 F,0,70281,70499,0,1 M,0,70390,74412,474,380,373,380 F,0,70499,73759,1 F,0,73759,74412,1,0
Sprite,Foreground,Centre,"SB\Lyric\15-miku.png",320,240 F,0,74412,74629,0,1 M,0,74520,77999,452,380,349,380 F,0,74629,77455,1 F,0,77455,77999,1,0
Sprite,Foreground,Centre,"SB\Lyric\16-miku.png",320,240 F,0,78107,78325,0,1 M,0,78216,80499,413,380,343,380 F,0,78325,79846,1 F,0,79846,80499,1,0
Sprite,Foreground,Centre,"SB\Lyric\17-miku.png",320,240 F,0,80716,80933,0,1 M,0,80825,84086,437,380,356,380 F,0,80933,83542,1 F,0,83542,84086,1,0
Sprite,Foreground,Centre,"SB\Lyric\18-miku.png",320,240 F,0,84194,84412,0,1 M,0,84303,88325,431,380,345,380 F,0,84412,87673,1 F,0,87673,88325,1,0
Sprite,Foreground,Centre,"SB\Lyric\19-miku.png",320,240 F,0,88542,88759,0,1 M,0,88651,91912,402,380,313,380 F,0,88759,91368,1 F,0,91368,91912,1,0
Sprite,Foreground,Centre,"SB\Lyric\20-miku.png",320,240 F,0,92020,92238,0,1 M,0,92129,,442,380 M,0,92129,96586,442,380,291,380 F,0,92238,95716,1 F,0,95716,96586,1,0
Sprite,Foreground,Centre,"SB\Lyric\13-rin.png",320,240 F,0,124194,124412,0,1 M,0,124303,127564,210,349,269,349 F,0,124412,126803,1 F,0,126803,127564,1,0
Sprite,Foreground,Centre,"SB\Lyric\14-rin.png",320,240 F,0,127673,127890,0,1 M,0,127781,131803,208,349,267,349 F,0,127890,131151,1 F,0,131151,131803,1,0
Sprite,Foreground,Centre,"SB\Lyric\15-rin.png",320,240 F,0,132020,132238,0,1 M,0,132129,135390,196,349,274,349 F,0,132238,134846,1 F,0,134846,135390,1,0
Sprite,Foreground,Centre,"SB\Lyric\17-rin.png",320,240 F,0,138107,138325,0,1 M,0,138216,141477,224,349,281,349 F,0,138325,140933,1 F,0,140933,141477,1,0
Sprite,Foreground,Centre,"SB\Lyric\18-rin.png",320,240 F,0,141586,141803,0,1 M,0,141694,145825,215,349,275,349 F,0,141803,145064,1 F,0,145064,145825,1,0.001841605
Sprite,Foreground,Centre,"SB\Lyric\19-rin.png",320,240 F,0,145933,146151,0,1 M,0,146042,149194,239,349,291,349 F,0,146151,148651,1 F,0,148651,149194,1,0
Sprite,Foreground,Centre,"SB\Lyric\20-rin.png",320,240 F,0,149412,149629,0,1 M,0,149520,153977,232,349,320,349 F,0,149629,153107,1,0.92 F,0,153107,153977,0.92,0
Sprite,Foreground,Centre,"SB\Lyric\13-miku.png",320,240 F,0,124194,124412,0,1 M,0,124303,127564,426,380,347,380 F,0,124412,126803,1 F,0,126803,127564,1,0
Sprite,Foreground,Centre,"SB\Lyric\14-miku.png",320,240 F,0,127673,127890,0,1 M,0,127781,131803,474,380,373,380 F,0,127890,131151,1 F,0,131151,131803,1,0
Sprite,Foreground,Centre,"SB\Lyric\15-miku.png",320,240 F,0,132020,132238,0,1 M,0,132129,135390,452,380,349,380 F,0,132238,134846,1 F,0,134846,135390,1,0
Sprite,Foreground,Centre,"SB\Lyric\16-miku.png",320,240 F,0,135499,135716,0,1 M,0,135607,137890,413,380,343,380 F,0,135716,137238,1 F,0,137238,137890,1,0
Sprite,Foreground,Centre,"SB\Lyric\17-miku.png",320,240 F,0,138107,138325,0,1 M,0,138216,141477,437,380,356,380 F,0,138325,140933,1 F,0,140933,141477,1,0
Sprite,Foreground,Centre,"SB\Lyric\18-miku.png",320,240 F,0,141586,141803,0,1 M,0,141694,145825,431,380,345,380 F,0,141803,145064,1 F,0,145064,145825,1,0
Sprite,Foreground,Centre,"SB\Lyric\19-miku.png",320,240 F,0,145933,146151,0,1 M,0,146042,149194,402,380,313,380 F,0,146151,148651,1 F,0,148651,149194,1,0
Sprite,Foreground,Centre,"SB\Lyric\20-miku.png",320,240 F,0,149412,149629,0,1 M,0,149520,153977,442,380,291,380 F,0,149629,153107,1 F,0,153107,153977,1,0 M,0,153977,,320,240
Sprite,Foreground,Centre,"SB\title.png",320,240 F,0,1803,2238,0,1 M,0,1803,5281,473,270,393,270 F,0,2238,5064,1 F,0,5064,5281,1,0
Sprite,Foreground,Centre,"SB\OP effect.png",320,240 S,0,1803,,2.048 F,0,1803,2238,0,1 R,0,1803,8760,0,-5.199999 F,0,2238,8325,1 F,0,8325,8760,1,0
Sprite,Foreground,Centre,"SB\BG Black Effect.png",320,240 S,0,1803,,0.8000001 F,0,1803,2238,0,1 F,0,2238,8760,1
Sprite,Foreground,Centre,"SB\artist.png",320,240 F,0,1803,2238,0,1 M,0,1803,5281,185,216,271,216 F,0,2238,5064,1 F,0,5064,5281,1,0
Sprite,Foreground,Centre,"SB\SB.png",320,240 F,0,5281,5716,0,1 M,0,5281,8760,165,291,253,291 F,0,5716,8325,1 F,0,8325,8760,1,0
Sprite,Foreground,Centre,"SB\hazy BG.png",320,240 F,0,22673,23107,1,0.4479999 S,0,22673,23107,1,1.136 F,0,23107,23542,0.4479999,0 F,0,23542,,0
Sprite,Foreground,Centre,"SB\hazy BG.png",320,240 M,0,36586,,320,240 F,0,36586,37020,1,0.4880001 S,0,36586,37020,0.9999999,1.144 F,0,37020,37455,0.4880001,0
Sprite,Foreground,Centre,"SB\BG Black Effect.png",320,240 F,0,50064,50499,0 F,0,50499,51803,0,1 F,0,51803,52129,1,0
Sprite,Foreground,Centre,"SB\BG Black Effect.png",320,240 F,0,64412,67346,0,1 F,0,67346,67673,1,0 F,0,67673,,0
Sprite,Foreground,Centre,"SB\white.png",320,240 F,0,81803,82238,1,0.4200001 F,0,82238,82673,0.4200001,0
Sprite,Foreground,Centre,"SB\hazy BG.png",320,240 F,0,95716,96151,1,0.42 S,0,95716,96151,1,1.136 F,0,96151,96586,0.42,0
Sprite,Foreground,Centre,"SB\hazy BG.png",320,240 F,0,81803,82238,1,0.684 S,0,81803,82238,0.9999998,1.136 F,0,82238,82673,0.684,0
Sprite,Foreground,Centre,"SB\hazy BG.png",320,240 F,0,102673,103107,0.596,0.4079999 S,0,102673,103107,1,1.136 F,0,103107,103542,0.4079999,0
Sprite,Foreground,Centre,"SB\hazy BG.png",320,240 F,0,139194,139629,1,0.3240002 S,0,139194,139629,1,1.136 F,0,139629,140064,0.3240002,0
Sprite,Foreground,Centre,"SB\white.png",320,240 F,0,139194,139629,1,0.2000001 F,0,139629,140064,0.2000001,0
Sprite,Foreground,Centre,"SB\hazy BG.png",320,240 F,0,110499,113107,0,0.660702 F,0,113107,113542,0.660702,0 F,0,113542,113977,0,0.677552 F,0,113977,114412,0.677552,0 F,0,114412,115716,0,0.6829841 F,0,115716,116151,0.6829841,0 F,0,116151,116586,0 F,0,116586,120064,0,1 F,0,120064,120499,1,0.1719998 S,0,120064,120499,1,1.056 F,0,120499,120933,0.1719998,0 S,0,120499,121803,1.056,1 F,0,120933,121803,0,0.735631 F,0,121803,122673,0.735631,0 F,0,122673,123542,0,0.6775389 F,0,123542,124846,0.6775389,0.1440002
Sprite,Foreground,Centre,"SB\BG Black Effect.png",320,240 F,0,123542,124629,0,1 F,0,124629,124846,1,0
Sprite,Foreground,Centre,"SB\hazy BG.png",320,240 F,0,155281,156151,0,0.7239999 F,0,156151,157020,0.7239999,0 F,0,157020,157890,0,0.634665 F,0,157890,158759,0.634665,0 F,0,158759,159629,0,0.5279999 F,0,159629,159955,0.5279999,0 F,0,159955,162238,0,0.6305767 F,0,162238,163107,0.6305767,0 F,0,163107,164412,0,0.7560001 F,0,164412,165281,0.7560001,0
Sprite,Foreground,Centre,"SB\hazy BG.png",320,240 F,0,160064,160499,0.832,0.54 S,0,160064,160499,1,1.064 F,0,160499,160933,0.54,0
Sprite,Foreground,Centre,"SB\white.png",320,240 F,0,165281,167020,0,1 F,0,167020,167890,1,0
Sprite,Foreground,Centre,"SB\hazy BG.png",320,240 F,0,165281,167020,0,0.5280001
//Storyboard Sound Samples
//Background Colour Transformations
3,100,163,162,255

[TimingPoints]
1814,434.782608695652,4,2,1,65,1,0
14748,-100,4,2,1,70,0,0
15727,-100,4,2,1,70,0,0
20944,-100,4,2,1,40,0,0
21161,-100,4,2,1,45,0,0
21379,-100,4,2,1,50,0,0
21596,-100,4,2,1,55,0,0
21813,-100,4,2,1,60,0,0
22031,-100,4,2,1,65,0,0
22248,-100,4,2,1,70,0,0
22683,-100,4,2,1,55,0,0
50509,-100,4,2,1,70,0,0
51813,-100,4,2,1,65,0,0
52248,-100,4,2,1,70,0,1
52357,-100,4,2,1,70,0,0
53118,-100,4,2,1,55,0,0
53335,-100,4,2,1,50,0,0
53553,-100,4,2,1,70,0,0
54857,-100,4,2,1,55,0,0
55074,-100,4,2,1,50,0,0
55292,-100,4,2,1,70,0,0
56596,-100,4,2,1,55,0,0
56813,-100,4,2,1,50,0,0
57031,-100,4,2,1,70,0,0
58335,-100,4,2,1,55,0,0
58553,-100,4,2,1,50,0,0
58770,-100,4,2,1,70,0,0
59205,-100,4,2,1,65,0,0
63553,-100,4,2,1,70,0,0
64422,-100,4,2,1,40,0,0
64640,-100,4,2,1,45,0,0
64857,-100,4,2,1,50,0,0
65074,-100,4,2,1,55,0,0
65292,-100,4,2,1,60,0,0
65509,-100,4,2,1,65,0,0
65727,-100,4,2,1,70,0,0
66161,-200,4,2,1,40,0,0
67466,-100,4,1,1,40,0,0
67683,-100,4,2,1,50,0,0
67900,-100,4,2,1,70,0,1
74857,-100,4,2,1,75,0,1
80074,-100,4,2,1,72,0,1
81813,-100,4,2,1,70,0,1
88770,-100,4,2,1,75,0,1
93987,-100,4,2,1,50,0,1
94205,-100,4,2,1,45,0,1
94422,-100,4,2,1,50,0,1
94640,-100,4,2,1,55,0,1
94857,-100,4,2,1,60,0,1
95074,-100,4,2,1,65,0,1
95292,-100,4,2,1,70,0,1
95727,-100,4,2,1,55,0,0
95835,-100,4,2,1,35,0,0
102683,-100,4,2,1,55,0,0
108118,-100,4,2,1,50,0,0
108335,-100,4,2,1,60,0,0
108553,-100,4,2,1,70,0,0
108770,-100,4,2,1,65,0,0
109640,-100,4,2,1,75,0,1
109748,-100,4,2,1,70,0,0
120074,-100,4,2,1,75,0,0
121813,-100,4,2,1,50,0,0
122031,-100,4,2,1,55,0,0
122248,-100,4,2,1,60,0,0
122466,-100,4,2,1,65,0,0
122683,-100,4,2,1,70,0,0
122900,-100,4,2,1,65,0,0
123118,-100,4,2,1,60,0,0
123553,-200,4,2,1,40,0,0
124857,-200,4,1,1,40,0,0
125292,-100,4,2,1,70,0,1
132248,-100,4,2,1,75,0,1
137466,-100,4,2,1,70,0,1
139205,-100,4,2,1,70,0,1
146161,-100,4,2,1,75,0,1
151379,-100,4,2,1,40,0,1
151596,-100,4,2,1,45,0,1
151813,-100,4,2,1,50,0,1
152031,-100,4,2,1,55,0,1
152248,-100,4,2,1,60,0,1
152466,-100,4,2,1,65,0,1
152683,-100,4,2,1,70,0,1
153118,-100,4,2,1,75,0,0
159096,-100,4,2,1,65,0,0
160074,-100,4,2,1,70,0,0
163553,-100,4,2,1,75,0,0
165292,-100,4,2,1,70,0,0
165400,-100,4,2,1,43,0,0
165509,-100,4,2,1,46,0,0
165618,-100,4,2,1,49,0,0
165727,-100,4,2,1,52,0,0
165835,-100,4,2,1,55,0,0
165944,-100,4,2,1,58,0,0
166053,-100,4,2,1,59,0,0
166161,-100,4,2,1,60,0,0
167031,-100,4,2,1,70,0,0
167140,-100,4,2,1,60,0,0
167466,-100,4,2,1,50,0,0
167900,-100,4,2,1,40,0,0
168335,-100,4,2,1,30,0,0
168770,-100,4,2,1,25,0,0
169205,-100,4,2,1,20,0,0
169640,-100,4,2,1,15,0,0
170074,-100,4,2,1,10,0,0
170509,-100,4,2,1,5,0,0

[Colours]
Combo1 : 255,149,98
Combo2 : 27,158,237
Combo3 : 12,230,254
Combo4 : 253,215,64

[HitObjects]
204,156,8770,2,0,B|172:128|164:80,1,88,4|0
308,156,9205,2,0,B|340:128|348:80,1,88,8|0
124,228,9640,2,0,B|76:220|48:188,1,88
388,228,10074,2,0,B|436:220|464:188,1,88,8|0
272,252,10509,5,2
240,132,10727,1,0
196,276,10944,1,8
316,108,11161,1,0
176,72,11379,2,0,B|144:156,1,88,2|0
336,312,11813,2,0,B|368:228,1,88,8|0
408,104,12248,5,2
408,104,12466,1,0
408,104,12683,2,0,B|352:140|280:128,1,132,8|8
264,168,13118,2,0,B|220:156|176:160,1,88,2|0
76,124,13553,2,0,B|56:196|80:256,1,132,8|8
36,264,13987,2,0,B|76:276|116:308,1,88,2|0
216,324,14422,6,0,B|280:308|320:248,1,132,8|8
364,240,14857,2,0,B|404:260,2,44,8|8|8
332,112,15292,1,8
304,92,15400,1,8
272,80,15509,1,8
236,76,15618,1,8
200,80,15727,6,0,B|156:80|116:104,1,88,4|0
80,260,16161,2,0,B|124:260|164:236,1,88,8|0
312,80,16596,2,0,B|356:80|396:104,1,88
432,260,17031,2,0,B|388:260|348:236,1,88,8|0
276,284,17466,5,2
192,304,17683,1,0
104,292,17900,1,8
32,244,18118,1,0
205,271,18335,5,0
131,225,18553,1,0
77,155,18770,1,8
60,70,18987,1,0
192,60,19205,5,4
192,60,19422,2,0,B|216:104|260:112,1,88,0|8
324,48,19748,2,0,B|273:46|244:80,1,88,0|8
272,164,20074,2,0,B|298:121|283:79,1,88,0|0
368,148,20509,1,8
176,152,20727,1,0
72,324,20944,5,8
108,320,21053,1,8
136,300,21161,1,8
172,292,21270,1,8
196,268,21379,1,8
228,256,21487,1,8
252,228,21596,1,8
284,212,21705,1,8
308,188,21813,6,8,B|344:164,3,44,8|8|8|8
360,196,22248,2,8,B|404:204,3,44
392,248,22683,6,0,B|412:288|412:336,1,88,4|0
284,296,23118,2,0,B|264:256|264:208,1,88,8|0
160,192,23553,1,0
64,144,23770,1,0
112,48,23987,1,8
208,96,24205,6,0,B|248:96|248:96|336:72|336:72|384:72,1,176
432,144,24857,2,0,B|348:144|348:144|260:168,1,176,8|0
172,184,25509,1,8
44,160,25727,1,8
124,56,25944,5,0
124,56,26053,1,0
124,56,26161,2,0,B|172:56|208:88,1,88,2|0
116,236,26596,2,0,B|68:236|32:204,1,88,8|0
208,184,27031,2,0,B|256:184|292:216,1,88,2|0
200,364,27466,2,0,B|152:364|116:332,1,88,8|0
296,316,27900,6,0,B|384:328,1,88,2|0
428,332,28227,2,0,B|400:264|416:204,1,132,8|8
360,136,28770,1,0
272,144,28987,1,8
308,64,29205,1,8
360,136,29422,1,0
272,144,29640,6,0,B|184:128|184:128|152:168|104:164,1,176,2|8
80,248,30292,1,0
80,248,30400,1,8
120,328,30618,1,8
120,328,30727,1,0
204,352,30944,1,8
288,332,31161,1,0
332,256,31379,6,0,B|344:204|404:164|416:104,1,176,2|8
332,80,32031,1,0
332,80,32140,2,0,B|296:88|288:72|240:80,1,88,8|8
228,80,32466,1,0
212,80,32574,1,0
196,80,32683,1,8
68,104,32900,1,0
28,228,33118,6,0,B|100:276,1,88,2|0
200,312,33553,2,0,B|184:224,1,88,8|0
327,225,33987,2,0,B|312:312,1,88
410,276,34422,2,0,B|484:228,1,88,8|0
460,144,34857,6,0,B|400:116|400:116|368:80|368:80|312:52,1,176,2|8
224,52,35509,1,0
140,72,35727,1,0
72,128,35944,1,8
44,212,36161,1,8
68,296,36379,5,8
84,296,36487,1,8
100,296,36596,2,0,B|188:296,1,88,4|0
280,192,37031,2,0,B|192:192,1,88,8|0
288,88,37466,2,0,B|376:88,1,88
444,144,37900,1,8
468,228,38118,6,0,B|460:296|416:344|360:352,1,176
228,352,38770,1,8
104,300,38987,1,0
104,300,39096,1,0
104,300,39205,1,0
64,176,39422,1,8
120,56,39640,1,8
248,28,39857,5,0
248,44,39966,1,0
248,60,40074,2,0,B|248:148,1,88,2|0
352,224,40509,2,0,B|352:136,1,88,8|0
248,344,40944,1,2
120,320,41161,1,0
272,216,41379,1,8
144,192,41596,5,0
144,192,41813,2,0,B|136:152|96:120,1,88,2|0
56,112,42140,2,0,B|120:96|168:40,1,132,8|8
256,56,42683,1,0
336,96,42900,2,0,B|368:64,2,44,8|8|8
384,168,43335,1,0
376,256,43553,6,0,B|336:320|280:336|224:336,1,176,2|8
144,312,44205,2,0,B|104:328,1,44,0|8
208,248,44531,2,0,B|214:205,1,44,8|0
112,228,44857,1,8
228,335,45074,1,0
112,228,45292,6,0,B|80:172|72:112|72:56,1,176,2|8
160,44,45944,1,0
160,44,46053,2,0,B|204:64|248:64,1,88,8|8
288,52,46379,2,0,B|248:80|226:118,1,88,0|8
212,148,46705,1,0
204,184,46813,1,0
212,220,46922,1,0
232,248,47031,6,0,B|244:288|244:336,1,88,2|0
68,223,47466,2,0,B|68:177|56:137,1,88,8|0
268,48,47900,2,0,B|267:94|279:134,1,88
455,246,48335,2,0,B|443:206|444:160,1,88,8|0
256,192,48770,12,8,50074
284,56,50509,5,8
380,144,50727,1,8
256,184,50944,1,8
360,264,51161,1,8
376,268,51270,1,8
392,272,51379,1,8
208,312,51596,5,8
192,308,51705,1,8
176,304,51813,2,8,B|148:296,7,22
132,308,52248,6,0,B|64:256|64:148,1,176,4|8
100,72,52900,2,0,B|132:40|180:32,1,88,0|8
260,136,53335,2,0,B|217:119|173:131,1,88,8|8
228,224,53770,2,0,B|271:235|300:271,1,88,0|2
392,344,54205,6,0,B|404:300|440:272,2,88,0|8|0
448,184,54857,1,8
428,100,55074,1,8
448,184,55292,1,8
348,64,55509,5,0
332,64,55618,1,0
316,64,55727,2,0,B|264:64|264:64|196:76|196:76|140:76,1,176,2|8
108,204,56379,1,0
72,76,56596,1,8
176,204,56813,1,8
4,76,57031,1,8
244,204,57248,6,0,B|280:204|280:204|296:196|296:196|332:196,1,88,0|2
480,252,57683,2,0,B|444:252|444:252|428:260|428:260|392:260,1,88,0|8
336,328,58118,1,0
320,328,58227,1,0
304,328,58335,1,8
288,328,58444,1,0
272,328,58553,2,0,B|184:328,2,88,8|8|0
96,308,59205,6,0,B|96:244|140:188|188:168,1,176,4|8
272,148,59857,2,0,B|216:180|146:169|104:138,1,176
136,56,60509,1,8
224,40,60727,1,0
312,52,60944,6,0,B|396:92|412:188,1,176,2|8
488,144,61596,2,0,B|400:172|368:264,1,176
284,288,62248,1,8
200,260,62466,1,0
272,196,62683,6,0,B|357:175,1,88,2|0
180,176,63118,2,0,B|94:196,1,88,8|0
252,108,63553,2,0,B|337:87,1,88,2|0
160,88,63987,2,0,B|74:108,1,88,8|0
88,264,64422,5,8
100,252,64531,1,8
108,268,64640,1,8
120,256,64748,1,8
128,272,64857,1,8
140,260,64966,1,8
148,276,65074,1,8
160,264,65183,1,8
164,280,65292,5,8
200,288,65400,1,8
236,284,65509,1,8
268,292,65618,1,8
300,280,65727,1,8
336,276,65835,1,8
372,284,65944,1,8
408,284,66053,1,8
444,276,66161,6,0,B|472:264|492:244|496:208,1,88,4|2
464,128,66813,2,0,B|436:140|416:160|412:196,1,88,0|2
276,216,67466,1,8
152,172,67683,1,0
84,60,67900,6,0,B|12:116|8:216,1,176,4|8
36,296,68553,1,0
120,324,68770,1,0
164,324,68879,1,0
208,308,68987,1,0
260,240,69205,1,8
272,152,69422,5,0
272,152,69640,2,0,B|344:168|376:228,1,132,2|0
372,260,70074,2,0,B|404:224|448:212,1,88,8|0
444,212,70400,1,0
444,212,70509,1,2
416,84,70727,2,0,B|388:48|336:40,1,88,0|8
212,68,71161,1,0
88,108,71379,6,0,B|68:168|88:240,1,132,2|0
92,252,71813,1,8
168,324,72031,1,0
184,324,72140,1,0
200,324,72248,2,0,B|244:324|284:300,1,88,2|0
412,253,72683,5,8
272,216,72900,1,0
368,324,73118,1,2
356,180,73335,1,0
283,301,73553,1,8
412,253,73770,5,0
444,240,73879,1,0
468,216,73987,1,2
480,184,74096,1,0
480,148,74205,2,0,B|472:104|492:60,2,88,0|8|0
360,88,74857,5,6
232,48,75074,1,0
360,12,75292,1,8
232,124,75509,1,0
232,124,75618,2,0,B|196:152|148:148,1,88,8|8
120,128,75944,2,0,B|112:216,1,88,0|8
104,304,76379,5,0
184,268,76596,1,4
112,216,76814,1,0
32,256,77031,1,8
184,268,77248,1,0
184,268,77357,2,0,B|220:292|220:292|264:304,1,88,8|8
280,308,77683,1,0
296,312,77792,1,0
312,316,77900,1,8
440,340,78118,5,0
448,304,78227,1,0
444,268,78335,2,0,B|428:228|436:180,1,88,4|0
340,80,78770,2,0,B|324:120|332:168,1,88,8|0
180,166,79205,2,0,B|188:120|172:80,1,88,0|0
76,181,79640,2,0,B|84:228|68:268,1,88,8|0
192,320,80074,5,8
320,292,80292,1,8
228,200,80509,1,8
220,184,80618,1,8
212,168,80727,1,8
352,156,80944,1,8
192,320,81161,5,8
156,316,81270,1,8
124,300,81379,1,8
96,276,81487,1,8
76,248,81596,1,8
64,216,81705,1,8
60,180,81814,2,0,B|60:92,1,88,4|0
188,56,82248,5,8
268,88,82466,1,0
196,140,82683,1,0
276,172,82900,1,0
276,172,83009,1,0
276,172,83118,1,8
116,108,83335,1,0
348,120,83553,6,0,B|376:184|376:184|388:248,1,132,2|0
420,260,83987,2,0,B|376:280|376:280|328:300,1,88,8|0
328,300,84314,1,0
316,304,84422,1,2
228,316,84640,1,0
144,296,84857,1,8
84,228,85074,1,0
92,140,85292,5,2
156,76,85509,1,0
172,72,85618,1,0
188,68,85727,2,0,B|232:56|280:56,1,88,8|0
396,184,86161,1,2
380,188,86270,1,0
364,192,86379,2,0,B|320:204|272:204,1,88,0|8
172,224,86814,6,0,B|188:276|172:344|128:364|96:368,1,176
76,264,87466,1,8
88,160,87683,1,0
88,160,87792,1,0
88,160,87900,1,2
184,120,88118,1,0
172,224,88335,5,8
196,248,88444,1,0
228,260,88553,1,0
264,260,88661,1,0
300,264,88770,2,0,B|348:276|372:324,1,88,4|0
452,284,89205,2,0,B|438:236|467:191,1,88,8|0
472,156,89531,2,0,B|436:184|392:192,1,88,8|8
348,204,89857,2,0,B|372:166|359:119,2,88,0|8|0
220,168,90509,5,4
179,41,90727,1,0
84,131,90944,2,0,B|75:178|40:204,1,88,8|0
28,216,91270,1,8
96,316,91487,1,8
112,316,91596,1,0
128,316,91705,1,0
144,316,91814,2,8,B|188:316,3,44,8|8|8|8
224,316,92248,6,0,B|312:316,1,88,4|0
464,204,92683,2,0,B|376:204,1,88,8|0
240,232,93118,1,2
85,190,93335,1,0
126,36,93553,1,8
281,77,93770,1,0
444,20,93987,5,8
436,56,94096,1,8
416,84,94205,1,8
416,120,94314,1,8
404,152,94422,1,8
412,188,94531,1,8
400,220,94640,1,8
388,252,94748,1,8
396,284,94857,6,8,B|400:328,3,44
364,324,95292,2,0,B|356:368,4,44,8|8|8|8|4
256,192,95835,12,2,97466
64,52,102683,6,0,B|40:136|60:228,1,176,2|8
160,316,103335,2,0,B|179:225|155:141,1,176
172,56,103987,1,8
256,32,104205,1,0
340,60,104422,6,0,B|368:140|368:140|416:144|444:188,1,176,2|8
468,352,105074,2,0,B|440:272|440:272|392:268|364:224,1,176
276,220,105727,1,8
192,244,105944,1,0
104,244,106161,5,2
104,244,106379,2,0,B|108:196|132:160,1,88,0|8
172,148,106705,2,0,B|195:113|199:65,1,88,0|8
168,32,107031,2,0,B|208:52|256:52,1,88
404,96,107466,1,8
272,140,107683,1,0
424,184,107900,5,8
412,196,108009,1,8
400,208,108118,1,8
388,220,108227,1,8
376,232,108335,1,8
364,244,108444,1,8
352,256,108553,1,8
340,268,108661,1,8
328,280,108770,2,8,B|308:300,15,22
296,304,109640,6,0,B|208:336|124:296,1,176,4|8
76,224,110292,1,0
108,144,110509,2,0,B|84:80|28:40,2,132,2|0|0
192,120,111379,5,2
256,60,111596,2,0,B|232:24,2,44,0|0|8
340,92,112031,1,0
428,108,112248,1,2
440,140,112357,1,0
444,176,112466,1,0
440,212,112574,1,0
428,244,112683,2,0,B|412:284|416:332,1,88,8|0
240,328,113118,5,0
204,324,113227,1,0
172,312,113335,1,0
144,288,113444,1,0
124,256,113553,2,0,B|108:212,3,44,8|0|0|0
108,180,113987,1,0
112,144,114096,1,0
128,112,114205,1,0
156,88,114314,1,0
188,76,114422,2,0,B|232:68|260:28,1,88,8|0
348,136,114857,5,0
380,152,114966,1,0
356,176,115074,1,0
384,196,115183,1,0
360,220,115292,1,8
388,240,115400,1,0
364,264,115509,1,0
388,284,115618,1,0
364,304,115727,2,0,B|292:356|192:336,1,176,0|8
68,92,116596,5,4
96,72,116705,1,0
132,64,116814,1,0
168,68,116922,1,0
200,80,117031,2,8,B|240:100,3,44,8|0|0|0
272,108,117466,1,0
308,108,117574,1,0
344,100,117683,1,0
380,96,117792,1,0
416,100,117900,2,0,B|460:116,3,44,8|0|0|0
472,148,118335,5,0
476,184,118444,1,0
468,220,118553,1,0
460,256,118661,1,0
436,284,118770,2,0,B|388:304,3,44,8|0|0|0
360,296,119205,1,0
324,300,119314,1,0
288,296,119422,1,0
256,304,119531,1,0
220,300,119640,2,0,B|176:304,3,44,8|0|0|0
140,300,120074,6,0,B|96:288|68:252,1,88,4|0
228,140,120509,2,0,B|184:152|156:188,1,88,8|0
368,332,120944,2,0,B|324:320|296:284,1,88
432,72,121379,2,0,B|388:84|360:120,1,88,8|0
216,56,121814,5,8
200,88,121922,1,8
176,112,122031,1,8
144,124,122140,1,8
112,140,122248,1,8
84,160,122357,1,8
60,184,122466,1,8
44,216,122574,1,8
40,252,122683,6,8,B|48:296,3,44
76,320,123118,2,8,B|100:328,7,22
116,328,123553,6,0,B|143:288|191:288,1,88,4|2
240,172,124205,2,0,B|213:212|165:212,1,88,4|2
36,228,124857,1,8
165,211,125074,1,0
36,228,125292,6,0,B|84:184|92:112,1,132,4|0
120,132,125727,2,0,B|132:84|160:56,1,88,8|0
264,80,126161,1,0
364,116,126379,1,0
380,122,126487,1,0
397,129,126596,2,0,B|442:149|463:195,1,88,8|0
364,344,127031,6,0,B|292:344|252:284,1,132,2|0
240,244,127466,2,0,B|226:284|182:308,1,88,8|0
148,320,127792,1,0
112,320,127900,1,2
68,188,128118,1,0
128,60,128335,1,8
168,196,128553,1,0
68,188,128770,5,2
128,60,128987,1,0
144,56,129096,1,0
160,52,129205,2,0,B|200:36|248:48,1,88,8|0
232,204,129640,1,2
248,208,129748,1,0
264,212,129857,2,0,B|304:228|352:216,1,88,0|8
368,112,130292,5,0
356,320,130509,1,2
328,104,130727,1,0
396,328,130944,1,8
236,308,131161,1,0
204,316,131270,1,0
168,308,131379,1,2
132,312,131487,1,0
96,304,131596,2,0,B|52:288|52:288|20:264,2,88,0|8|0
80,144,132248,5,4
156,100,132466,1,0
244,80,132683,2,0,B|292:80|324:116,1,88,8|0
348,92,133009,2,0,B|328:176,1,88,8|8
324,192,133335,1,0
304,324,133553,1,8
428,280,133770,1,0
200,236,133987,5,4
104,276,134205,1,0
60,180,134422,1,8
156,140,134640,1,0
156,140,134748,2,0,B|184:56,1,88,8|8
196,52,135074,1,0
208,48,135183,1,0
220,44,135292,1,8
408,160,135509,5,0
408,160,135618,1,0
408,160,135727,2,0,B|408:208|376:244,1,88,4|0
228,152,136161,2,0,B|228:104|260:68,1,88,8|0
280,244,136596,2,0,B|280:292|248:328,1,88,2|0
100,236,137031,2,0,B|100:188|132:152,2,88,8|0|8
100,344,137683,6,8,B|60:368,2,44
192,296,138118,1,8
220,276,138227,1,8
236,244,138335,1,8
264,224,138444,1,8
292,204,138553,1,8
312,172,138661,1,8
340,148,138770,2,8,B|368:116,3,44
372,80,139205,6,0,B|396:132|448:140|448:140|436:176|456:212,1,176,4|8
416,292,139857,1,0
336,332,140074,1,0
300,340,140183,1,0
264,336,140292,2,0,B|220:324|192:288,2,88,0|8|0
296,216,140944,6,0,B|264:176|228:156|184:144,1,132,2|0
168,144,141379,1,8
212,48,141596,1,0
228,52,141705,1,0
244,56,141814,2,0,B|292:64|328:40,1,88,2|0
412,104,142248,2,0,B|381:141|383:184,1,88,8|0
416,284,142683,6,0,B|368:336|296:328,1,132,2|0
272,352,143118,2,0,B|244:264,1,88,8|0
240,252,143444,1,0
236,236,143553,1,2
132,220,143770,1,0
92,120,143987,1,8
196,136,144205,1,0
88,296,144422,5,2
16,76,144640,1,0
284,112,144857,1,8
284,112,145074,2,0,B|328:108,3,44,0|0|2|0
360,80,145509,2,0,B|348:128|376:168,1,88,0|8
400,188,145835,1,0
420,216,145944,1,0
424,252,146053,1,0
408,284,146161,5,4
276,332,146379,1,0
164,248,146596,1,8
296,200,146814,1,0
304,184,146922,2,0,B|316:140|356:116,1,88,8|8
388,100,147248,2,0,B|342:95|312:60,1,88,0|8
296,64,147574,1,0
280,68,147683,1,0
124,56,147900,5,4
72,208,148118,1,0
172,332,148335,1,8
224,180,148553,1,0
224,180,148661,2,0,B|243:132|287:124,1,88,8|8
320,116,148987,1,0
356,120,149096,1,0
392,112,149205,2,8,B|436:96,3,44,8|8|8|8
464,116,149640,6,0,B|460:180|424:208|424:208|444:240|444:276,1,176,4|8
324,332,150292,1,0
324,332,150509,2,0,B|240:304,1,88,2|0
352,236,150944,2,0,B|436:264,1,88,8|0
432,132,151379,5,8
416,132,151487,1,8
400,132,151596,1,8
384,132,151705,1,8
368,132,151814,1,8
352,132,151922,1,8
336,132,152031,1,8
320,132,152140,1,8
304,132,152248,5,8
272,124,152357,1,8
236,132,152466,1,8
204,120,152574,1,8
176,136,152683,1,8
144,128,152792,1,8
108,132,152900,1,8
76,120,153009,1,8
40,128,153118,5,4
160,276,153335,1,0
352,276,153553,1,8
472,128,153770,1,0
304,60,153987,2,0,B|312:116|348:136,1,88
208,60,154422,2,0,B|200:116|164:136,1,88,8|0
32,288,154857,6,0,B|108:336,1,88,2|0
176,204,155292,2,0,B|200:289,1,88,8|0
336,204,155727,2,0,B|311:288,1,88,2|0
480,288,156161,2,0,B|405:334,1,88,8|0
480,188,156596,5,2
444,96,156814,1,0
356,40,157031,2,0,B|308:92|236:72,1,132,8|8
224,68,157466,1,2
236,172,157683,1,0
236,172,157900,2,0,B|163:151|115:203,1,132,8|8
84,184,158335,2,0,B|104:268,1,88,2|0
304,308,158770,6,0,B|320:264|356:228|396:220,1,132,8|8
428,208,159205,2,8,B|440:164,3,44,8|8|8|8
444,144,159640,1,8
448,124,159748,1,8
452,104,159857,1,8
456,84,159966,1,8
460,64,160074,5,4
328,108,160292,1,0
184,108,160509,1,8
52,64,160727,1,0
76,204,160944,2,0,B|156:244,1,88
436,204,161379,2,0,B|356:244,1,88,8|0
200,156,161814,6,0,B|184:112|200:68,1,88,4|0
312,228,162248,2,0,B|328:272|312:316,1,88,8|0
212,260,162683,1,2
300,124,162900,1,0
196,288,163118,1,8
316,96,163335,1,0
436,48,163553,5,4
436,48,163770,2,0,B|452:136,1,88,0|8
432,164,164096,2,0,B|416:250,1,88,0|8
388,272,164422,2,0,B|403:358,2,88,2|0|8
284,300,165074,1,0
180,280,165292,5,12
148,264,165400,1,8
128,236,165509,1,8
120,204,165618,1,8
128,168,165727,1,8
144,136,165835,1,8
172,112,165944,1,8
208,108,166053,1,8
244,112,166161,2,8,B|268:120,7,22
284,116,166596,2,8,B|308:108,8,22,8|8|8|8|8|8|8|8|12
256,192,167140,12,0,170509
