osu file format v7

[General]
AudioFilename: Color x Melody.mp3
AudioLeadIn: 1004
PreviewTime: 52647
Countdown: 0
SampleSet: Soft
StackLeniency: 0.5
Mode: 0
LetterboxInBreaks: 1

[Editor]
Bookmarks: 130913
DistanceSpacing: 0.75
BeatDivisor: 4
GridSize: 4

[Metadata]
Title:Colorful x Melody
Artist:Hatsune Miku & Kagamine Rin
Creator:Sakura Hana
Version:My Melody
Source:Team MOER
Tags:Vocaloid Garven Krisom minato RyuuseiP doriko OSTER project diva Derekku Chan Sakura301

[Difficulty]
HPDrainRate:6
CircleSize:4
OverallDifficulty:6
SliderMultiplier:1.6
SliderTickRate:2

[Events]
//Background and Video events
Video,-1100,"Colorful x melody_001.flv"
0,0,"Konachan.com - 73053 hatsune_miku kagamine_rin vocaloid.jpg"
//Break Periods
2,83949,93876
//Storyboard Layer 0 (Background)
//Storyboard Layer 1 (Fail)
//Storyboard Layer 2 (Pass)
//Storyboard Layer 3 (Foreground)
//Storyboard Sound Samples
//Background Colour Transformations
3,100,163,162,255

[TimingPoints]
1622,323.974082073434,4,2,1,100,1,0
41227,-100,4,2,1,57,0,0
41874,-100,4,2,1,100,0,0
53457,-100,4,2,1,100,0,1
70546,-100,4,2,1,55,0,1
70951,-100,4,2,1,100,0,1
74192,-100,4,2,1,100,0,0
113069,-100,4,2,1,100,0,1
133799,-100,4,2,1,100,0,0

[Colours]
Combo1 : 255,171,45
Combo2 : 159,253,159
Combo3 : 117,135,101
Combo4 : 2,17,196

[HitObjects]
72,80,1622,1,2
72,80,1783,1,2
456,80,2755,5,0
396,184,3079,2,0,B|340:120|268:88,1,160
208,84,3565,1,0
144,84,3727,1,0
80,84,3889,1,0
72,216,4213,5,2
72,216,4375,1,2
112,264,4537,5,0
152,216,4699,1,0
176,272,4861,1,0
216,224,5023,1,0
240,280,5185,6,0,B|296:280|296:216,1,80,0|8
448,120,5833,2,0,B|488:112|496:56,1,80,0|8
495,61,6319,1,8
192,72,6805,5,0
320,72,7129,1,2
256,72,7291,1,0
256,200,7615,1,0
256,136,7777,1,0
256,136,7939,1,4
440,312,8587,5,2
440,184,8911,1,0
392,144,9073,1,0
344,184,9235,1,0
392,224,9397,5,0
392,288,9559,1,0
264,296,9883,5,0
264,232,10045,1,0
264,104,10369,5,0
264,168,10531,1,0
256,192,10855,12,4,11989
256,64,12313,5,0
144,128,12637,1,0
144,256,12961,1,0
144,256,13123,1,2
256,320,13447,1,0
256,256,13609,5,0
300,212,13771,1,0
340,260,13933,1,0
380,212,14095,1,0
420,164,14256,1,4
168,192,14904,6,0,B|128:168|120:104|184:64|224:80,2,160
168,192,15714,2,0,B|214:195|250:248|211:313|168:317,1,160
320,312,16362,1,0
360,264,16524,1,0
400,312,16686,1,0
440,264,16848,1,2
256,104,17496,6,0,B|256:272,2,160
256,104,18468,1,0
96,104,18792,2,0,B|264:104,1,160
96,104,19440,1,0
96,264,19764,2,0,B|96:80,1,160
96,104,20250,1,0
192,192,20574,5,8
256,80,20898,2,0,B|368:96|400:208|360:304|288:352|200:320,1,400,8|0
112,192,22032,5,0
128,312,22356,2,0,B|184:328|184:328|140:248|208:216,1,160
300,200,23004,1,0
300,320,23328,1,0
300,260,23490,1,2
432,264,23976,5,0
432,264,24138,1,0
432,264,24300,1,0
432,200,24462,2,0,B|416:104|304:112,1,160
336,176,24948,2,0,B|280:192|216:128|280:48,1,160
320,48,25434,1,0
432,104,25758,1,8
428,232,26082,1,8
160,80,26891,5,0
120,32,27053,1,0
80,80,27215,1,0
120,128,27377,1,0
120,128,27539,2,0,B|40:200|136:280,2,160
228,192,28511,1,2
228,192,28835,1,0
292,80,29159,5,0
292,208,29483,1,0
292,336,29807,1,0
396,336,30131,2,0,B|372:256|284:184|188:256|172:352,1,320
228,360,30941,1,0
292,368,31103,1,0
356,360,31265,1,0
292,48,32075,1,4
24,336,33047,6,0,B|32:264|72:232|144:232,1,160
128,104,33695,1,0
128,104,33857,1,0
256,104,34181,1,0
256,104,34343,1,0
312,216,34667,1,0
256,248,34829,1,0
200,216,34991,1,2
408,64,35639,5,0
408,192,35963,1,0
408,320,36287,1,0
408,320,36449,2,0,B|352:328|296:288|304:216,1,160
264,176,36935,1,0
224,224,37097,1,0
184,176,37259,1,0
144,224,37421,1,0
104,176,37583,1,2
336,80,38231,6,0,B|380:48|432:68|448:120|400:164,1,160
296,192,38879,1,0
240,80,39202,1,0
176,192,39526,1,0
104,88,39850,2,0,B|24:152|88:240,1,160
80,228,40498,1,0
176,312,40822,1,0
240,312,40984,1,0
256,184,41308,1,8
256,184,41632,1,8
200,128,42766,5,0
320,128,43090,1,0
320,248,43414,1,0
200,248,43738,2,0,B|168:288|200:360|272:360,1,160
260,288,44224,1,2
256,104,44710,5,0
200,72,44872,1,0
256,40,45034,1,0
312,72,45196,1,0
256,240,45682,1,0
256,360,46006,1,0
256,360,46168,1,0
368,296,46492,1,8
368,296,46816,1,8
104,120,47626,5,0
200,192,47950,1,0
104,272,48274,1,0
200,344,48598,1,0
152,308,48760,1,0
336,256,49246,5,0
336,128,49570,2,0,B|284:164|348:200,1,80
396,192,49894,1,0
276,192,50218,1,0
140,192,50542,2,0,B|184:236|216:192|220:124|196:84|152:116,1,160
256,292,51675,5,0
256,292,51837,1,0
256,292,51999,1,4
80,192,52809,5,0
136,220,52971,1,0
192,188,53133,1,0
252,164,53295,1,0
308,196,53457,2,0,B|336:244|388:248|440:236|464:216|484:176|484:136|464:76|400:48|328:56|308:96|304:128,1,400,0|0
252,96,54429,5,8
252,224,54753,1,8
252,352,55077,1,4
364,292,55401,5,0
292,188,55725,1,0
256,64,56049,1,0
256,256,56535,1,2
256,256,56697,1,2
88,64,57345,5,0
84,192,57669,1,0
212,192,57993,1,0
212,64,58317,1,0
148,132,58641,2,0,L|232:132|332:132|480:132,1,320
320,88,59613,5,0
256,88,59775,1,0
192,88,59937,1,0
224,212,60261,1,0
288,212,60423,1,0
256,24,60909,2,0,B|256:196|256:192,1,160
256,184,61395,1,0
132,156,61719,5,0
172,208,61881,1,0
276,284,62205,1,0
324,244,62367,1,0
320,116,62691,5,0
256,116,62853,1,0
192,116,63015,1,0
256,116,63177,1,0
256,244,63501,1,8
372,188,63825,2,0,B|324:140|240:92|144:128|80:196,1,320,8|0
160,296,64796,5,0
288,296,65120,1,0
288,168,65444,1,0
160,168,65768,1,0
160,296,66092,1,0
256,192,66416,12,2,67388
256,128,67712,5,0
320,232,68036,1,0
192,232,68360,1,0
256,336,68684,1,8
256,208,69008,2,0,B|256:40,2,160,8|0|8
196,320,69980,5,0
256,336,70142,1,0
316,320,70304,1,0
256,204,70628,1,8
256,204,70790,1,8
256,8,71276,5,0
220,128,71600,1,0
320,48,71924,1,0
192,48,72248,1,0
288,128,72572,1,0
256,68,72734,1,4
24,284,73544,5,0
120,204,73868,1,0
220,124,74192,1,2
256,192,75002,5,0
256,192,75164,1,0
256,192,75326,1,0
256,192,75488,1,0
188,84,75812,1,0
320,84,76136,2,0,B|416:88|420:200,1,160
320,264,76783,1,2
256,192,77593,5,0
256,192,77755,1,0
256,192,77917,1,0
256,192,78079,1,0
328,88,78403,1,0
192,84,78727,2,0,B|96:88|92:200,1,160
192,264,79375,1,2
460,100,80185,5,0
432,156,80347,1,0
380,192,80509,1,0
316,204,80671,2,0,B|292:164|248:148|200:156|168:192,2,160
240,304,81643,1,0
244,176,81967,5,0
244,48,82291,2,0,B|236:92|192:112,1,80
68,104,82777,1,0
68,228,83101,1,0
188,260,83425,5,2
216,204,83587,1,2
268,168,83749,1,6
256,180,94926,5,0
388,48,95412,1,0
388,48,95574,1,8
256,180,96222,5,0
120,48,96708,1,0
120,48,96870,1,8
256,180,97518,5,0
172,236,97842,1,0
212,320,98166,1,0
300,320,98490,1,0
340,236,98814,1,0
256,180,99138,1,2
256,56,99462,6,0,B|256:380,1,320,0|4
100,72,101729,5,0
196,144,102053,1,0
316,144,102377,1,0
412,72,102701,1,2
256,264,103673,6,0,B|256:92,1,160
256,348,104645,1,8
32,52,105617,5,0
92,156,105941,1,0
200,208,106265,1,0
320,208,106589,2,0,B|364:188|416:188|448:236|452:276,1,160
356,340,107237,1,0
232,332,107561,2,0,B|136:324|80:264,2,160,2|0|2
472,292,108857,5,0
388,200,109181,1,0
276,140,109505,1,0
152,120,109829,1,0
48,188,110153,1,0
160,236,110477,5,2
160,236,110639,1,2
320,144,111125,1,2
320,144,111287,1,2
256,124,112421,5,0
208,160,112583,1,0
224,216,112745,1,0
284,216,112907,1,0
304,160,113069,1,4
256,44,113393,5,2
256,164,113717,1,2
196,56,114041,5,8
256,164,114364,1,8
316,56,114688,1,4
320,172,115012,1,0
196,172,115336,1,0
256,268,115660,1,0
256,88,116146,1,2
256,88,116308,1,2
92,264,116956,5,0
200,308,117280,1,0
312,308,117604,1,0
420,264,117928,1,0
324,192,118252,2,0,L|164:192|184:32,1,320
256,96,119224,5,0
256,96,119386,1,0
256,96,119548,1,0
228,212,119872,1,0
284,212,120034,1,0
252,36,120520,1,2
332,164,120844,5,0
280,132,121006,1,0
164,164,121330,1,0
164,220,121492,1,0
252,296,121816,1,0
304,268,121978,1,0
224,168,122302,5,0
264,212,122464,1,0
304,168,122626,1,0
264,124,122788,1,0
264,4,123112,1,2
356,84,123436,2,0,B|388:136|404:216|368:268|292:296|252:304|208:288,1,320
256,88,124408,5,0
220,200,124732,1,8
200,80,125056,1,0
164,192,125380,1,4
144,72,125704,1,0
256,192,126028,12,0,126999
308,136,127323,5,0
308,252,127647,1,0
192,252,127971,1,0
192,136,128295,1,0
256,32,128619,2,0,B|256:360,1,320
204,96,129591,5,0
256,72,129753,1,0
308,96,129915,1,0
256,204,130239,1,0
256,204,130401,1,2
256,12,130887,5,0
292,132,131211,1,0
192,52,131535,1,0
320,52,131859,1,0
224,132,132183,1,0
256,72,132345,1,4
92,324,133155,5,0
168,228,133479,1,0
268,160,133803,2,0,B|384:196|472:148|484:76|436:44|384:28,1,320
328,36,134613,5,0
272,56,134775,1,0
220,84,134937,1,0
176,124,135099,1,0
140,236,135423,1,0
140,236,135747,2,0,B|148:308|256:364|360:324|388:228,1,320,0|8
116,104,137205,5,0
172,92,137367,1,0
228,108,137529,1,0
276,140,137691,1,0
316,252,138015,1,0
360,140,138339,2,0,B|336:56|232:16|124:72|116:144,1,320,0|8
396,248,139796,5,0
348,284,139958,1,0
292,304,140120,1,0
232,304,140282,1,0
260,184,140606,1,0
200,76,140930,1,0
320,76,141254,1,2
400,160,141578,5,0
356,268,141902,1,0
356,268,142064,1,0
240,232,142388,1,8
144,152,142712,1,8
436,96,143522,5,0
372,196,143846,1,0
272,260,144170,2,0,B|220:284|116:272|56:216|56:152|100:88,1,320
152,88,144980,5,0
208,84,145142,1,0
264,96,145304,1,0
312,128,145466,1,0
208,192,145790,1,0
208,192,146114,1,0
208,192,146762,1,8
484,296,147572,5,0
440,252,147734,1,0
388,216,147896,1,0
340,176,148058,2,0,B|280:140|272:272|156:204|112:176,1,240
64,148,148706,1,0
64,148,149354,1,8
356,80,150164,5,0
388,128,150326,1,0
388,184,150488,1,0
356,232,150650,1,0
260,156,150974,1,0
260,156,151298,1,0
376,156,151621,1,2
424,260,151945,5,0
324,328,152269,1,0
324,328,152431,1,0
220,260,152755,1,0
324,204,153079,1,0
256,104,153403,5,2
256,104,153565,1,2
256,104,153727,1,6
