osu file format v14

[General]
AudioFilename: 111.mp3
AudioLeadIn: 0
PreviewTime: 14124
Countdown: 1
SampleSet: None
StackLeniency: 0.7
Mode: 0
LetterboxInBreaks: 1
WidescreenStoryboard: 0

[Editor]
Bookmarks: 14124,29124,29558,41950,55863,69776,83689,97167
DistanceSpacing: 0.8
BeatDivisor: 4
GridSize: 4
TimelineZoom: 1

[Metadata]
Title:Izayoi warabeuta
TitleUnicode:十六夜童歌
Artist:HatsukiYura
ArtistUnicode:葉月ゆら
Creator:Cyc17-
Version:Cex1/4
Source:清風明月
Tags:HatsukiYura Drop 清風明月 宵暗恋想奇谭
BeatmapID:713915
BeatmapSetID:320883

[Difficulty]
HPDrainRate:5
CircleSize:4
OverallDifficulty:7
ApproachRate:9
SliderMultiplier:1.6
SliderTickRate:1

[Events]
//Background and Video events
0,0,"Konachan.com - 199331 animal barefoot bird cherry_blossoms feathers gray_hair japanese_clothes kimono long_hair okotoburi original pink_eyes signed.jpg",0,0
//Break Periods
2,41715,54558
//Storyboard Layer 0 (Background)
//Storyboard Layer 1 (Fail)
//Storyboard Layer 2 (Pass)
//Storyboard Layer 3 (Foreground)
//Storyboard Sound Samples

[TimingPoints]
211,434.782608695652,4,1,0,100,1,0
41080,-80,4,1,0,100,0,0
41515,-100,4,1,0,100,0,0

[HitObjects]
68,52,211,5,0,0:0:0:0:
180,96,537,1,0,0:0:0:0:
204,112,645,2,0,P|264:104|340:112,1,120
420,184,1080,2,0,P|416:228|420:284,1,80
480,384,1515,5,0,0:0:0:0:
401,295,1841,1,0,0:0:0:0:
417,263,1950,2,0,P|425:175|413:135,1,120
296,72,2384,2,0,P|232:80|152:64,1,120
68,248,2819,2,0,P|68:168|52:120,1,120
48,112,3254,1,0,0:0:0:0:
268,44,3580,1,0,0:0:0:0:
296,72,3689,2,0,P|348:64|436:76,1,120
228,200,4124,2,0,P|156:204|92:180,1,120
248,16,4558,1,0,0:0:0:0:
380,216,4993,5,0,0:0:0:0:
312,360,5319,1,0,0:0:0:0:
272,336,5428,2,0,P|204:332|148:344,1,120
8,144,5863,2,0,P|68:144|144:156,1,120
408,44,6297,1,0,0:0:0:0:
408,44,6732,5,0,0:0:0:0:
452,216,7058,1,0,0:0:0:0:
416,240,7167,2,0,L|284:260,1,120
60,144,7602,2,0,L|188:124,1,120
300,340,8037,1,0,0:0:0:0:
300,340,8471,6,0,P|304:264|284:216,1,120
272,200,8906,2,0,P|208:208|140:196,1,120
408,80,9341,1,0,0:0:0:0:
448,268,9667,1,0,0:0:0:0:
408,80,9776,1,0,0:0:0:0:
448,268,10210,5,0,0:0:0:0:
248,152,10537,1,0,0:0:0:0:
224,180,10645,2,0,P|232:248|224:304,1,120
20,228,11080,2,0,P|16:128|24:92,1,120
188,52,11515,2,0,P|260:60|292:52,1,80
424,48,11950,1,0,0:0:0:0:
464,192,12276,1,0,0:0:0:0:
436,212,12384,2,0,P|364:204|280:220,1,120
12,244,13145,1,0,0:0:0:0:
44,276,13254,2,0,P|124:260|184:264,1,120
300,316,13689,2,0,P|352:320|388:312,1,80
472,284,14124,6,0,P|472:200|460:148,1,120
244,144,14558,2,0,P|304:148|352:136,1,80
464,48,14884,1,0,0:0:0:0:
464,48,14993,2,0,P|404:48|360:52,1,80
80,68,15428,1,0,0:0:0:0:
40,236,15645,5,0,0:0:0:0:
128,284,15863,2,0,P|204:268|264:272,1,120
368,272,16297,2,0,P|392:208|376:148,1,120
280,120,16732,2,0,L|172:128,1,80
80,68,17058,2,0,L|140:64,1,40
504,60,17602,6,0,P|436:72|368:64,1,120
292,12,18037,2,0,L|192:32,1,80
92,232,18471,1,0,0:0:0:0:
8,136,18906,2,0,B|24:116|24:116|48:132|92:128,1,80
328,164,19232,1,0,0:0:0:0:
352,176,19341,2,0,P|376:136|364:56,1,120
168,132,19776,2,0,P|156:192|184:264,1,120
372,376,20210,1,0,0:0:0:0:
372,376,20500,5,0,0:0:0:0:
408,336,20573,1,0,0:0:0:0:
404,284,20645,1,0,0:0:0:0:
328,164,20935,1,0,0:0:0:0:
72,252,21080,6,0,P|152:252|200:236,1,120
327,163,21515,1,0,0:0:0:0:
486,140,21841,1,0,0:0:0:0:
446,164,21950,2,0,P|382:156|302:172,1,120
160,24,22384,2,0,P|164:116|152:156,1,120
32,224,22819,2,0,P|24:276|32:348,1,120
48,360,23254,1,0,0:0:0:0:
352,296,23580,1,0,0:0:0:0:
328,328,23689,2,0,P|388:324|424:328,1,80
292,188,24124,2,0,P|208:184|152:200,1,120
376,132,24558,6,0,L|464:128,1,80
220,44,24993,1,0,0:0:0:0:
184,72,25102,1,0,0:0:0:0:
32,252,25319,1,0,0:0:0:0:
68,280,25428,2,0,P|152:272|204:284,1,120
284,328,25863,2,0,P|368:332|416:320,1,120
504,252,26297,2,0,L|487:215,1,40
264,120,26624,1,0,0:0:0:0:
280,160,26732,1,0,0:0:0:0:
487,215,27058,1,0,0:0:0:0:
468,172,27167,1,0,0:0:0:0:
232,32,27493,5,0,0:0:0:0:
256,64,27602,2,0,P|184:60|124:76,1,120
16,216,28037,2,0,P|84:216|156:200,1,120
376,144,28471,2,0,P|304:144|232:160,1,120
356,352,28906,1,0,0:0:0:0:
268,258,29124,6,0,L|268:218,5,26.6666666666667
348,112,29667,5,0,0:0:0:0:
376,144,29776,2,0,P|440:140|496:148,1,120
268,232,30210,2,0,P|200:240|144:232,1,120
272,32,30645,1,0,0:0:0:0:
272,32,30971,5,0,0:0:0:0:
296,68,31080,1,0,0:0:0:0:
170,204,31406,1,0,0:0:0:0:
150,236,31515,2,0,P|226:224|282:236,1,120
32,320,31950,2,0,P|24:232|40:184,1,120
8,48,32384,1,0,0:0:0:0:
196,168,32710,5,0,0:0:0:0:
176,200,32819,2,0,P|252:188|308:200,1,120
384,220,33254,1,0,0:0:0:0:
424,200,33363,1,0,0:0:0:0:
264,332,33580,1,0,0:0:0:0:
224,352,33689,1,0,0:0:0:0:
368,48,33906,1,0,0:0:0:0:
384,220,34124,1,0,0:0:0:0:
264,332,34413,5,0,0:0:0:0:
224,304,34486,1,0,0:0:0:0:
224,252,34558,1,0,0:0:0:0:
368,132,34848,1,0,0:0:0:0:
428,336,34993,5,0,0:0:0:0:
32,292,35319,1,0,0:0:0:0:
64,324,35428,2,0,L|200:312,1,120
324,164,35863,1,0,0:0:0:0:
324,164,36189,5,0,0:0:0:0:
272,188,36297,1,0,0:0:0:0:
100,128,36515,1,0,0:0:0:0:
88,84,36624,1,0,0:0:0:0:
96,40,36732,2,0,P|176:40|224:20,1,120
352,80,37167,2,0,P|416:68|484:76,1,120
272,188,37602,1,0,0:0:0:0:
44,352,37928,5,0,0:0:0:0:
80,340,38037,2,0,P|92:248|76:204,1,120
144,120,38471,2,0,P|212:120|248:108,1,80
500,164,38906,2,0,P|420:164|356:180,1,120
184,232,39341,1,0,0:0:0:0:
184,232,39668,5,0,0:0:0:0:
332,316,39776,1,0,0:0:0:0:
164,368,40102,5,0,0:0:0:0:
412,288,40210,1,0,0:0:0:0:
344,112,40537,5,0,0:0:0:0:
248,340,40645,1,0,0:0:0:0:
112,108,40971,5,0,0:0:0:0:
412,288,41080,2,0,B|420:240|452:200|452:200|420:208|380:196,1,150
112,108,41515,5,0,0:0:0:0:
108,96,55428,5,0,0:0:0:0:
384,76,55863,5,0,0:0:0:0:
392,104,55971,2,0,P|312:96|292:100,1,80
456,260,56297,2,0,P|476:176|460:132,1,120
252,296,56732,1,0,0:0:0:0:
204,272,57058,5,0,0:0:0:0:
252,296,57167,2,0,P|348:292|392:304,1,120
144,360,57602,1,0,0:0:0:0:
48,224,57819,1,0,0:0:0:0:
120,152,57928,1,0,0:0:0:0:
144,124,58037,2,0,P|84:128|16:120,1,120
244,64,58471,2,0,P|320:56|348:64,1,80
496,184,58797,2,0,P|468:192|440:196,1,40
288,368,59341,6,0,P|276:280|288:228,1,120
472,80,59776,2,0,P|396:96|324:96,1,120
228,76,60210,2,0,P|128:88|88:108,1,120
36,172,60645,1,0,0:0:0:0:
312,76,60971,1,0,0:0:0:0:
344,56,61080,1,0,0:0:0:0:
196,232,61406,1,0,0:0:0:0:
232,204,61515,1,0,0:0:0:0:
168,276,61841,1,0,0:0:0:0:
116,352,61949,1,0,0:0:0:0:
348,356,62239,5,0,0:0:0:0:
372,316,62312,1,0,0:0:0:0:
356,268,62384,1,0,0:0:0:0:
196,232,62674,1,0,0:0:0:0:
16,160,62819,6,0,P|76:164|144:148,1,120
364,84,63254,2,0,P|272:88|232:100,1,120
16,160,63689,6,0,P|76:164|144:148,1,120
268,12,64124,1,0,0:0:0:0:
320,260,64450,1,0,0:0:0:0:
296,224,64558,2,0,P|392:224|436:200,1,120
160,208,64993,2,0,P|116:208|56:224,1,80
320,260,65319,5,0,0:0:0:0:
296,224,65427,2,0,P|392:224|436:200,1,120
80,215,65863,1,0,0:0:0:0:
360,8,66297,6,0,P|376:72|348:148,1,120
56,76,66732,2,0,P|152:68|188:80,1,120
252,128,67167,1,0,0:0:0:0:
152,344,67493,1,0,0:0:0:0:
112,316,67602,1,0,0:0:0:0:
448,340,67892,1,0,0:0:0:0:
452,288,67964,1,0,0:0:0:0:
420,248,68037,2,0,P|352:260|280:236,1,120
112,316,68471,2,0,P|96:236|116:180,1,120
264,56,68906,1,0,0:0:0:0:
264,56,69341,6,0,P|336:56|368:48,1,80
404,104,69667,2,0,P|452:104|488:116,1,80
120,192,70102,1,0,0:0:0:0:
88,168,70210,2,0,P|96:72|80:32,1,120
12,248,70645,2,0,P|0:320|20:376,1,120
0,100,71080,1,0,0:0:0:0:
300,312,71406,5,0,0:0:0:0:
328,340,71515,2,0,P|400:324|452:332,1,120
252,200,71950,2,0,P|172:216|120:208,1,120
340,128,72384,2,0,P|340:80|356:40,1,80
184,56,72819,5,0,0:0:0:0:
468,144,73145,1,0,0:0:0:0:
488,120,73254,6,0,P|500:172|476:240,1,120
188,168,73689,2,0,P|244:160|328:176,1,120
248,384,74124,2,0,P|232:324|252:248,1,120
120,84,74558,1,0,0:0:0:0:
120,84,74884,5,0,0:0:0:0:
136,120,74993,2,0,P|52:112|4:128,1,120
304,228,75428,2,0,P|328:140|312:96,1,120
136,304,75863,1,0,0:0:0:0:
136,304,76153,5,0,0:0:0:0:
80,304,76225,1,0,0:0:0:0:
44,264,76297,1,0,0:0:0:0:
136,120,76587,1,0,0:0:0:0:
304,228,76732,6,0,P|392:236|444:224,1,120
228,64,77167,1,0,0:0:0:0:
312,320,77493,1,0,0:0:0:0:
288,288,77602,2,0,P|304:232|288:152,1,120
16,232,78037,2,0,P|96:240|144:228,1,120
228,64,78471,1,0,0:0:0:0:
432,120,78797,1,0,0:0:0:0:
396,84,78906,1,0,0:0:0:0:
419,333,79232,1,0,0:0:0:0:
455,369,79341,1,0,0:0:0:0:
228,64,79667,5,0,0:0:0:0:
248,104,79776,2,0,P|180:96|116:108,1,120
356,268,80210,2,0,P|392:208|384:156,1,120
304,348,80645,2,0,P|388:348|436:320,1,120
200,288,81080,2,0,P|112:288|72:300,1,120
276,216,81515,1,0,0:0:0:0:
32,128,81841,5,0,0:0:0:0:
80,116,81950,1,0,0:0:0:0:
236,236,82276,1,0,0:0:0:0:
276,216,82384,1,0,0:0:0:0:
444,340,82710,1,0,0:0:0:0:
480,320,82819,1,0,0:0:0:0:
336,32,83145,5,0,0:0:0:0:
312,64,83254,2,0,B|376:60|400:32|400:32|392:72,1,120
352,204,83689,1,0,0:0:0:0:
216,280,84015,1,0,0:0:0:0:
172,304,84124,1,0,0:0:0:0:
428,80,84450,1,0,0:0:0:0:
472,48,84558,1,0,0:0:0:0:
196,68,84884,1,0,0:0:0:0:
232,40,84993,1,0,0:0:0:0:
52,240,85319,5,0,0:0:0:0:
88,264,85428,2,0,P|80:176|100:140,1,120
196,68,85863,2,0,P|252:80|328:56,1,120
448,128,86297,1,0,0:0:0:0:
464,352,86732,6,0,P|472:284|456:224,1,120
448,128,87167,2,0,P|356:136|312:128,1,120
120,228,87602,2,0,P|216:220|256:228,1,120
448,128,88037,2,0,P|356:136|312:128,1,120
184,24,88471,6,0,P|172:80|192:160,1,120
284,228,88906,1,0,0:0:0:0:
0,188,89232,1,0,0:0:0:0:
32,232,89341,1,0,0:0:0:0:
248,184,89667,1,0,0:0:0:0:
284,228,89776,1,0,0:0:0:0:
424,336,90066,5,0,0:0:0:0:
452,284,90138,1,0,0:0:0:0:
420,236,90210,1,0,0:0:0:0:
220,296,90500,1,0,0:0:0:0:
136,200,90645,6,0,P|72:212|12:200,1,120
300,112,91080,2,0,B|368:96|368:96|436:112,1,120
220,296,91515,1,0,0:0:0:0:
412,209,91841,1,0,0:0:0:0:
364,209,91950,1,0,0:0:0:0:
92,36,92167,5,0,0:0:0:0:
64,76,92239,1,0,0:0:0:0:
60,124,92312,1,0,0:0:0:0:
96,160,92384,2,0,P|156:148|232:160,1,120
300,112,92819,2,0,P|364:104|432:116,1,120
504,56,93254,1,0,0:0:0:0:
392,360,93580,5,0,0:0:0:0:
363,327,93689,2,0,P|355:275|367:199,1,120
228,308,94124,2,0,P|172:320|96:312,1,120
12,176,94558,2,0,P|84:168|160:176,1,120
228,308,94993,2,0,P|172:320|96:312,1,120
304,232,95428,1,0,0:0:0:0:
476,168,95754,5,0,0:0:0:0:
504,136,95863,1,0,0:0:0:0:
220,192,96189,1,0,0:0:0:0:
248,160,96298,1,0,0:0:0:0:
0,212,96623,1,0,0:0:0:0:
28,180,96732,1,0,0:0:0:0:
144,320,97058,5,0,0:0:0:0:
188,68,97167,5,0,0:0:0:0:
