osu file format v14

[General]
AudioFilename: 111.mp3
AudioLeadIn: 0
PreviewTime: 14124
Countdown: 1
SampleSet: Normal
StackLeniency: 0.7
Mode: 0
LetterboxInBreaks: 1
WidescreenStoryboard: 1

[Editor]
Bookmarks: 14124,29124,29558,41950,55863,69776,83689,97167
DistanceSpacing: 0.8
BeatDivisor: 3
GridSize: 4
TimelineZoom: 1

[Metadata]
Title:Izayoi warabeuta
TitleUnicode:十六夜童歌
Artist:HatsukiYura
ArtistUnicode:葉月ゆら
Creator:Cyc17-
Version:Cex1/3
Source:清風明月
Tags:HatsukiYura Drop清風明月 宵暗恋想奇谭
BeatmapID:713914
BeatmapSetID:320883

[Difficulty]
HPDrainRate:5
CircleSize:4
OverallDifficulty:7
ApproachRate:9
SliderMultiplier:1.6
SliderTickRate:1

[Events]
//Background and Video events
0,0,"Konachan.com - 199331 animal barefoot bird cherry_blossoms feathers gray_hair japanese_clothes kimono long_hair okotoburi original pink_eyes signed.jpg",0,0
//Break Periods
2,41715,54558
//Storyboard Layer 0 (Background)
//Storyboard Layer 1 (Fail)
//Storyboard Layer 2 (Pass)
//Storyboard Layer 3 (Foreground)
//Storyboard Sound Samples

[TimingPoints]
211,434.782608695652,4,1,0,100,1,0
41080,-80,4,1,0,100,0,0
41515,-100,4,1,0,100,0,0

[HitObjects]
56,72,211,5,0,0:0:0:0:
184,296,500,1,0,0:0:0:0:
108,244,645,2,0,P|104:180|128:120,1,106.666666666667
304,76,1080,1,0,0:0:0:0:
304,76,1515,5,0,0:0:0:0:
496,152,1805,1,0,0:0:0:0:
432,204,1950,2,0,P|372:196|304:212,1,106.666666666667
236,288,2384,2,0,P|168:296|116:288,1,106.666666666667
0,148,2819,1,0,0:0:0:0:
160,88,3109,5,0,0:0:0:0:
0,148,3254,1,0,0:0:0:0:
308,28,3689,5,0,0:0:0:0:
424,160,3979,1,0,0:0:0:0:
344,212,4124,2,0,P|284:204|220:224,1,106.666666666667
92,352,4558,1,0,0:0:0:0:
92,352,4993,5,0,0:0:0:0:
0,148,5283,1,0,0:0:0:0:
88,88,5428,2,0,P|160:92|220:80,1,106.666666666667
292,124,5863,2,0,P|372:120|416:128,1,106.666666666667
504,260,6297,1,0,0:0:0:0:
16,380,6732,6,0,P|4:308|16:272,1,106.666666666667
72,216,7167,6,0,P|148:216|192:204,1,106.666666666667
256,256,7602,2,0,P|328:244|368:248,1,106.666666666667
220,48,8037,1,0,0:0:0:0:
220,48,8471,5,0,0:0:0:0:
480,160,8761,1,0,0:0:0:0:
404,224,8906,2,0,P|396:280|404:352,1,106.666666666667
480,160,9341,2,0,P|484:72|480:40,1,106.666666666667
272,180,9776,1,0,0:0:0:0:
272,180,10210,6,0,P|208:172|152:180,1,106.666666666667
108,260,10645,2,0,P|24:260|-8:272,1,106.666666666667
304,376,11080,2,0,P|320:296|308:248,1,106.666666666667
272,180,11515,2,0,P|208:184|140:176,1,106.666666666667
52,48,11950,1,0,0:0:0:0:
0,272,12239,1,0,0:0:0:0:
0,272,12384,5,0,0:0:0:0:
180,180,12674,1,0,0:0:0:0:
80,352,13109,5,0,0:0:0:0:
148,80,13254,1,0,0:0:0:0:
360,16,13544,5,0,0:0:0:0:
360,16,13616,1,0,0:0:0:0:
360,16,13689,1,0,0:0:0:0:
488,312,14124,6,0,P|480:248|488:192,1,106.666666666667
376,132,14558,2,0,P|328:140|260:132,1,106.666666666667
140,56,14993,1,0,0:0:0:0:
140,56,15428,6,0,P|236:60|268:52,1,106.666666666667
376,132,15863,2,0,P|380:208|372:248,1,106.666666666667
268,288,16297,2,0,P|180:284|136:296,1,106.666666666667
456,336,16732,1,0,0:0:0:0:
456,336,17022,6,0,L|456:260,1,53.3333333333333
0,256,17602,6,0,P|56:252|124:260,1,106.666666666667
200,144,18037,2,0,P|276:148|328:132,1,106.666666666667
88,64,18471,2,0,P|80:108|92:180,1,106.666666666667
268,276,18906,1,0,0:0:0:0:
432,184,19196,5,0,0:0:0:0:
444,140,19268,1,0,0:0:0:0:
424,96,19341,2,0,P|352:104|300:92,1,106.666666666667
88,64,19776,2,0,P|168:60|200:68,1,106.666666666667
396,216,20210,1,0,0:0:0:0:
72,284,20500,5,0,0:0:0:0:
52,240,20573,1,0,0:0:0:0:
68,192,20645,1,0,0:0:0:0:
280,140,20935,1,0,0:0:0:0:
352,288,21080,6,0,P|432:288|476:272,1,106.666666666667
280,140,21515,2,0,P|220:132|152:144,1,106.666666666667
72,284,21950,1,0,0:0:0:0:
228,384,22384,6,0,P|240:336|224:260,1,106.666666666667
72,178,22819,1,0,0:0:0:0:
72,178,23254,2,0,P|64:230|80:306,1,106.666666666667
304,296,23689,1,0,0:0:0:0:
344,136,23979,6,0,L|284:136,1,53.3333333333333
8,56,24558,6,0,P|104:60|136:52,1,106.666666666667
204,100,24993,2,0,P|280:96|328:104,1,106.666666666667
440,180,25428,1,0,0:0:0:0:
284,296,25718,2,0,L|284:224,1,53.3333333333333
440,180,26153,5,0,0:0:0:0:
464,128,26225,1,0,0:0:0:0:
440,76,26297,2,0,P|372:80|312:68,1,106.666666666667
212,224,26732,1,0,0:0:0:0:
156,8,27022,2,0,L|224:24,1,53.3333333333333
212,224,27602,5,0,0:0:0:0:
124,384,27892,5,0,0:0:0:0:
28,316,28037,2,0,P|20:264|32:204,1,106.666666666667
128,132,28471,2,0,P|196:136|248:120,1,106.666666666667
436,80,28906,2,0,P|376:68|324:80,1,106.666666666667
212,300,29341,1,0,0:0:0:0:
416,360,29631,5,0,0:0:0:0:
460,328,29703,1,0,0:0:0:0:
476,284,29776,2,0,P|464:216|468:172,1,106.666666666667
232,126,30210,2,0,P|240:174|224:246,1,106.666666666667
376,28,30645,1,0,0:0:0:0:
172,40,30935,5,0,0:0:0:0:
376,28,31080,1,0,0:0:0:0:
337,127,31515,6,0,P|277:119|220:128,1,106.666666666667
328,300,31950,2,0,L|404:300,1,53.3333333333333
108,256,32239,2,0,L|108:320,1,53.3333333333333
337,127,32819,6,0,P|345:79|325:11,1,106.666666666667
328,300,33254,2,0,P|380:304|456:288,1,106.666666666667
104,256,33689,2,0,P|168:264|224:256,1,106.666666666667
8,176,34124,1,0,0:0:0:0:
8,176,34413,5,0,0:0:0:0:
0,120,34486,1,0,0:0:0:0:
24,76,34558,2,0,P|80:84|144:76,1,106.666666666667
256,24,34993,2,0,P|252:84|264:144,1,106.666666666667
408,312,35428,2,0,P|408:224|400:192,1,106.666666666667
256,24,35863,2,0,P|252:84|264:144,1,106.666666666667
488,72,36297,2,0,L|408:72,1,53.3333333333333
164,264,36732,6,0,P|260:264|292:256,1,106.666666666667
352,324,37167,2,0,P|416:312|480:320,1,106.666666666667
300,128,37602,1,0,0:0:0:0:
300,128,37892,6,0,L|300:204,1,53.3333333333333
68,208,38326,1,0,0:0:0:0:
112,48,38471,2,0,P|168:52|240:44,1,106.666666666667
496,80,38906,6,0,P|420:76|368:84,1,106.666666666667
224,224,39341,1,0,0:0:0:0:
224,224,39631,5,0,0:0:0:0:
408,252,39776,1,0,0:0:0:0:
192,48,40066,5,0,0:0:0:0:
408,252,40210,1,0,0:0:0:0:
72,328,40500,5,0,0:0:0:0:
192,48,40645,1,0,0:0:0:0:
72,328,40935,5,0,0:0:0:0:
191,295,41080,6,0,B|231:275|291:283|291:283|259:251,1,133.333333333333
152,164,41515,5,0,0:0:0:0:
60,88,55428,5,0,0:0:0:0:
176,128,55863,6,0,P|256:120|304:132,1,106.666666666667
372,64,56297,2,0,P|452:68|496:60,1,106.666666666667
328,256,56732,1,0,0:0:0:0:
328,256,57167,6,0,P|320:304|328:380,1,106.666666666667
488,148,57602,2,0,P|412:152|368:144,1,106.666666666667
116,220,58037,2,0,P|204:212|248:220,1,106.666666666667
488,148,58471,2,0,P|412:152|368:144,1,106.666666666667
192,36,58906,1,0,0:0:0:0:
16,364,59341,6,0,P|84:368|144:352,1,106.666666666667
332,252,59776,2,0,L|212:264,1,106.666666666667
80,168,60210,2,0,P|72:224|88:284,1,106.666666666667
332,252,60645,2,0,P|332:188|312:124,1,106.666666666667
292,360,61080,6,0,P|372:360|408:340,1,106.666666666667
468,272,61515,1,0,0:0:0:0:
112,192,61805,1,0,0:0:0:0:
140,308,61950,1,0,0:0:0:0:
468,272,62239,5,0,0:0:0:0:
488,224,62312,1,0,0:0:0:0:
460,180,62384,1,0,0:0:0:0:
268,204,62674,1,0,0:0:0:0:
140,308,62819,6,0,P|80:316|16:312,1,106.666666666667
280,364,63254,2,0,P|348:360|400:368,1,106.666666666667
268,204,63689,1,0,0:0:0:0:
268,204,64124,6,0,L|252:72,1,106.666666666667
32,60,64558,2,0,P|108:52|160:36,1,106.666666666667
308,224,64993,2,0,P|256:224|176:248,1,106.666666666667
100,344,65428,1,0,0:0:0:0:
456,344,65718,6,0,L|452:268,1,53.3333333333333
504,52,66297,6,0,P|496:136|508:180,1,106.666666666667
204,56,66732,2,0,L|316:44,1,106.666666666667
296,220,67167,2,0,L|164:236,1,106.666666666667
204,56,67602,1,0,0:0:0:0:
404,252,67892,5,0,0:0:0:0:
428,296,67964,1,0,0:0:0:0:
408,348,68037,2,0,P|340:348|296:364,1,106.666666666667
36,280,68471,2,0,P|100:280|152:268,1,106.666666666667
288,96,68906,2,0,L|276:224,1,106.666666666667
276,232,69341,5,0,0:0:0:0:
264,344,69631,5,0,0:0:0:0:
76,296,69776,2,0,P|64:224|76:184,1,106.666666666667
172,160,70210,2,0,P|192:80|216:48,1,106.666666666667
500,88,70645,6,0,P|448:96|368:72,1,106.666666666667
172,160,71080,2,0,P|260:152|308:168,1,106.666666666667
232,364,71515,2,0,L|224:252,1,106.666666666667
172,160,71950,1,0,0:0:0:0:
416,116,72239,1,0,0:0:0:0:
384,28,72384,1,0,0:0:0:0:
52,144,72674,5,0,0:0:0:0:
172,160,72819,2,0,P|256:164|316:148,1,106.666666666667
376,244,73254,2,0,P|460:240|508:252,1,106.666666666667
220,312,73689,2,0,P|144:312|88:324,1,106.666666666667
448,352,74124,1,0,0:0:0:0:
448,352,74558,6,0,P|456:272|448:236,1,106.666666666667
225,206,74993,2,0,P|217:258|225:338,1,106.666666666667
24,136,75428,2,0,P|104:140|152:128,1,106.666666666667
308,68,75863,1,0,0:0:0:0:
308,68,76153,5,0,0:0:0:0:
284,112,76225,1,0,0:0:0:0:
300,160,76297,1,0,0:0:0:0:
484,104,76587,1,0,0:0:0:0:
200,48,76732,6,0,L|92:52,1,106.666666666667
36,284,77167,2,0,L|152:280,1,106.666666666667
300,160,77602,2,0,L|176:168,1,106.666666666667
328,332,78037,1,0,0:0:0:0:
328,332,78471,6,0,L|456:324,1,106.666666666667
176,252,78906,2,0,L|52:260,1,106.666666666667
8,176,79341,1,0,0:0:0:0:
204,96,79631,5,0,0:0:0:0:
8,176,79776,1,0,0:0:0:0:
176,252,80066,5,0,0:0:0:0:
284,152,80210,2,0,P|296:100|288:36,1,106.666666666667
184,16,80645,2,0,P|120:24|52:8,1,106.666666666667
8,176,81080,1,0,0:0:0:0:
356,284,81370,5,0,0:0:0:0:
204,324,81515,2,0,P|140:316|76:328,1,106.666666666667
356,284,81950,2,0,P|432:292|480:280,1,106.666666666667
204,324,82384,1,0,0:0:0:0:
384,124,82674,5,0,0:0:0:0:
136,216,82819,1,0,0:0:0:0:
32,40,83109,6,0,L|36:116,1,53.3333333333333
288,56,83544,5,0,0:0:0:0:
384,124,83689,2,0,P|376:176|392:240,1,106.666666666667
310,324,84124,2,0,P|256:320|192:328,1,106.666666666667
29,214,84558,2,0,P|85:210|149:218,1,106.666666666667
336,60,84993,1,0,0:0:0:0:
120,164,85283,5,0,0:0:0:0:
72,132,85355,1,0,0:0:0:0:
64,80,85428,1,0,0:0:0:0:
360,168,85718,1,0,0:0:0:0:
260,328,85863,6,0,P|208:344|136:340,1,106.666666666667
456,368,86297,2,0,P|444:296|456:240,1,106.666666666667
465,169,86732,6,0,P|397:173|333:161,1,106.666666666667
276,100,87167,2,0,P|220:96|164:104,1,106.666666666667
16,260,87602,2,0,P|84:260|136:248,1,106.666666666667
276,224,88037,2,0,P|280:292|264:364,1,106.666666666667
376,96,88471,1,0,0:0:0:0:
176,24,88761,5,0,0:0:0:0:
376,96,88906,2,0,P|440:100|504:88,1,106.666666666667
276,224,89341,2,0,P|192:220|144:232,1,106.666666666667
440,264,89776,1,0,0:0:0:0:
440,264,90066,5,0,0:0:0:0:
460,212,90138,1,0,0:0:0:0:
448,160,90210,1,0,0:0:0:0:
276,224,90500,1,0,0:0:0:0:
160,324,90645,6,0,P|112:328|32:324,1,106.666666666667
280,364,91080,2,0,P|344:356|408:368,1,106.666666666667
196,172,91515,1,0,0:0:0:0:
280,364,91805,5,0,0:0:0:0:
196,172,91950,1,0,0:0:0:0:
416,160,92239,5,0,0:0:0:0:
440,116,92312,1,0,0:0:0:0:
424,68,92384,2,0,P|368:76|304:64,1,106.666666666667
196,172,92819,2,0,P|204:252|192:300,1,106.666666666667
24,36,93254,1,0,0:0:0:0:
24,36,93689,6,0,P|104:40|140:32,1,106.666666666667
296,124,94124,2,0,P|376:120|408:128,1,106.666666666667
464,192,94558,6,0,P|476:248|456:312,1,106.666666666667
384,344,94993,1,0,0:0:0:0:
384,344,95428,6,0,P|312:340|264:352,1,106.666666666667
24,256,95863,2,0,P|112:248|144:232,1,106.666666666667
264,144,96297,2,0,P|256:192|272:264,1,106.666666666667
80,68,96732,1,0,0:0:0:0:
340,284,97022,5,0,0:0:0:0:
444,12,97167,5,0,0:0:0:0:
