osu file format v9

[General]
AudioFilename: Jewel Cat.mp3
AudioLeadIn: 0
PreviewTime: 40837
Countdown: 0
SampleSet: Normal
StackLeniency: 0.7
Mode: 0
LetterboxInBreaks: 0

[Editor]
DistanceSpacing: 1
BeatDivisor: 4
GridSize: 4

[Metadata]
Title:Jewel Cat
Artist:Hatsuki Yura x Tsukiko
Creator:[CSGA]Ar3sgice
Version:L_Ps Hard
Source:
Tags:mode csga kpx meow miao nya L_P nyan

[Difficulty]
HPDrainRate:5
CircleSize:4
OverallDifficulty:5
ApproachRate:7
SliderMultiplier:1.9
SliderTickRate:2

[Events]
//Background and Video events
0,0,"bg0041319.jpg"
//Break Periods
2,67804,69339
//Storyboard Layer 0 (Background)
//Storyboard Layer 1 (Fail)
//Storyboard Layer 2 (Pass)
//Storyboard Layer 3 (Foreground)
//Storyboard Sound Samples
//Background Colour Transformations
3,100,163,162,255

[TimingPoints]
2740,405.405405405405,4,2,0,75,1,0
9226,-100,4,1,0,65,0,0
12469,-100,4,1,0,65,0,0
35375,-100,4,2,0,65,0,0
36185,-100,4,1,0,65,0,0
36996,-100,4,2,0,65,0,0
37807,-100,4,1,0,65,0,0
46929,-100,4,1,0,66,0,0
54023,-133.333333333333,4,1,0,66,0,0
54631,-133.333333333333,4,1,0,66,0,1
67604,-133.333333333333,4,1,0,66,0,0
70848,-100,4,1,0,65,0,0
92942,-100,4,2,0,65,0,0
93753,-100,4,1,0,65,0,0
94564,-100,4,2,0,65,0,0
95375,-100,4,1,0,65,0,0
108145,-133.333333333333,4,1,0,65,0,0
108956,-100,4,1,0,65,0,0
113010,-100,4,1,0,65,0,1
125983,-100,4,1,0,65,0,0
153550,-100,4,1,0,65,0,1
173010,-100,4,1,0,65,0,0
175645,-50,4,1,0,65,0,0
176253,-100,4,1,0,65,0,0

[Colours]
Combo1 : 254,204,171
Combo2 : 66,155,253
Combo3 : 250,253,138

[HitObjects]
136,96,2740,1,4
136,96,3145,2,0,B|72:120|104:192,1,95,2|0
192,168,3550,2,0,B|248:200,2,47.5
192,168,3956,2,0,B|144:192|144:256,1,95,2|0
240,248,4361,6,0,B|264:304|344:328|400:272,1,190,4|2
472,216,4969,1,0
440,128,5172,2,0,B|384:144|376:216,1,95,2|0
344,112,5577,2,0,B|280:72,2,47.5,0|0|2
184,80,5983,6,0,B|120:88|80:168|112:232,1,190,0|8
248,360,6794,2,0,B|320:320|328:240|296:192,1,190,0|8
440,64,7604,6,0,B|472:112|440:152,1,95,0|8
360,104,8010,2,0,B|328:152|360:192,1,95,0|8
440,152,8415,2,0,B|472:200|440:240,1,95,0|8
360,192,8821,2,0,B|328:240|360:280,1,95,0|8
432,344,9226,6,0,B|392:376|312:384|224:368|184:304|168:224|200:136,1,380
136,96,10239,2,0,B|176:56|224:80,1,95,0|8
416,128,10848,6,0,B|432:224|376:320|248:352|128:256,1,380
100,208,11861,2,0,B|64:252|80:308,1,95,0|8
184,140,12469,6,0,B|160:84|208:-4|288:12,1,190,0|2
268,104,13077,2,0,B|364:104,1,95
440,48,13483,2,0,B|480:96|440:160,1,95,0|8
416,312,14091,5,8
336,360,14294,1,8
256,312,14496,1,8
336,256,14699,1,4
336,64,15104,2,0,B|336:152,2,47.5,2|0|0
248,88,15510,1,0
160,112,15712,6,0,B|120:152|144:208,1,95,4|0
232,176,16118,1,8
416,128,16523,2,0,B|472:152|448:224,1,95
360,200,16929,1,8
453,206,17131,1,0
400,288,17334,6,0,B|400:352|328:360,2,95,0|0|8
304,264,17942,1,0
128,184,18348,2,0,B|80:208|96:272,2,95,2|0|0
200,248,18956,6,0,B|248:208|232:160,1,95
256,72,19361,1,8
448,56,19767,2,0,B|448:184,1,95
448,248,20172,1,8
376,312,20375,6,0,B|312:312,2,47.5
344,224,20780,2,0,B|232:224,2,95,0|8|0
208,96,21591,1,2
120,48,21794,1,8
104,144,21996,1,0
208,96,22199,6,0,B|304:120,1,95
392,144,22604,1,8
360,328,23010,2,0,B|320:368|256:336,1,95
304,256,23415,1,8
272,344,23618,1,0
208,272,23821,6,0,B|128:240,2,47.5,2|0|2
304,256,24226,2,0,B|344:160,1,95,8|0
176,72,24834,2,0,B|128:56|88:96,2,95
160,168,25442,6,0,B|184:224,2,47.5
256,160,25848,1,8
256,160,26050,1,0
352,168,26253,2,0,B|328:224,2,47.5
256,160,26658,1,8
256,160,26860,1,0
216,248,27064,5,8
256,336,27267,1,8
160,328,27469,1,8
216,248,27672,1,4
72,120,28077,6,0,B|72:72,2,47.5,2|0|0
72,120,28483,1,0
72,216,28685,6,0,B|32:256|64:320,1,95,4|0
144,272,29091,1,8
152,80,29496,2,0,B|256:80,1,95
344,104,29902,2,0,B|249:104,1,95,8|0
176,168,30307,5,0
248,232,30510,1,0
344,248,30712,1,8
432,208,30915,1,0
280,320,31321,2,0,B|224:352|184:296,1,95,8|0
248,232,31726,1,8
296,152,31929,6,0,B|296:88|352:72,2,95,0|0|8
472,216,32739,2,0,B|472:280,2,47.5
472,120,33145,2,0,B|464:64|400:48,1,95,8|0
376,144,33550,6,0,B|296:192,2,95,0|0|8
368,248,34158,1,0
288,312,34361,1,0
192,328,34564,6,0,B|168:264|232:232,1,95
288,312,34969,2,0,B|336:288|312:224,1,95
240,168,35375,5,0
144,168,35577,1,8
240,168,35780,1,0
144,168,35983,1,0
48,168,36185,6,0,B|40:112|88:88,1,95
144,168,36591,2,0,B|160:232|112:256,1,95
120,344,36996,5,0
216,344,37199,1,8
120,344,37402,1,0
216,344,37604,1,0
312,344,37807,6,0,B|408:344,2,95
328,248,38415,2,0,B|328:184|384:168,1,95
432,248,38821,1,8
224,248,39226,6,0,B|224:184|168:168,1,95
128,248,39631,2,0,B|48:296,1,95,8|0
32,200,40037,5,0
32,104,40239,1,0
104,40,40442,2,0,B|168:40,2,47.5,0|8|0
144,128,40848,2,0,B|224:88|296:136,2,142.5
216,192,41658,6,0,B|288:232|368:176,2,142.5,4|0|0
88,232,42469,1,4
192,328,42773,1,0
216,192,43077,1,0
216,192,43280,6,0,B|216:96,2,95,0|8|8
408,192,44091,2,0,B|448:264|392:328,2,142.5
256,192,44902,12,0,46523
256,192,46929,5,12
440,248,47334,2,0,B|451:297|408:360|320:352,2,142.5,4|0|0
344,248,48145,6,0,B|332:198|376:136|448:144,2,142.5,4|0|0
440,232,48956,2,0,B|296:144,2,142.5,0|8|0
408,320,49767,6,0,B|176:320,1,190
80,192,50577,2,0,B|56:128|104:72|168:80,2,142.5
148,256,51388,2,0,B|126:334|241:457|445:402|481:199|395:119|312:110,1,570
328,256,53010,5,0
256,192,53212,1,8
328,256,53415,1,0
256,192,53618,1,4
160,88,54023,6,0,B|112:88|96:152,2,71.2499978765846
176,160,54631,2,0,B|208:248|128:288,1,142.499995753169,4|8
256,208,55442,2,0,B|224:120|304:80,1,142.499995753169,0|8
360,64,56050,1,0
408,112,56253,6,0,B|432:160,2,35.6249989382923
376,176,56658,2,0,B|400:208,2,35.6249989382923
336,240,57064,2,0,B|280:272|288:344|336:368,1,142.499995753169
368,304,57672,1,8
400,240,57875,6,0,B|456:272|448:344|400:368,1,142.499995753169
272,344,58685,2,0,B|184:344,1,71.2499978765846
184,272,59091,2,0,B|264:272,1,71.2499978765846,8|0
248,200,59496,6,0,B|336:200,2,71.2499978765846,0|8|8
120,136,60307,1,0
120,136,60510,2,0,B|104:88|144:48,2,71.2499978765846
192,120,61118,1,8
256,152,61321,6,0,B|248:200|296:224,2,71.2499978765846
324,124,61929,1,8
392,136,62131,6,0,B|392:216,3,71.2499978765846,0|0|0|8
360,272,62942,5,0
304,328,63145,1,0
240,280,63348,1,0
152,288,63550,1,8
112,204,63753,5,0
120,116,63956,1,0
120,116,64057,1,0
120,116,64158,1,0
176,48,64361,6,0,B|256:64,1,71.2499978765846
320,120,64767,1,8
248,240,65172,2,0,B|344:272,1,71.2499978765846
280,328,65577,2,0,B|376:360,1,71.2499978765846,8|0
256,192,65983,12,0,67604
344,140,70239,6,0,B|304:172|320:220,1,71.2499978765846
232,320,70848,6,0,B|296:360|448:344|448:200,1,285
272,152,71861,2,0,B|208:56,1,95,0|8
152,248,72469,5,0
232,304,72672,1,8
328,304,72875,1,0
400,248,73077,1,4
264,112,73483,2,0,B|268:184,2,47.5
264,112,73888,1,0
184,64,74091,6,0,B|120:48|88:112,1,95,4|0
168,160,74496,1,8
112,344,74902,2,0,B|160:376|208:336,1,95
296,344,75307,2,0,B|344:376|384:336,1,95,8|0
336,256,75712,5,0
320,160,75915,1,0
408,192,76118,1,8
336,256,76321,1,0
160,192,76726,2,0,B|112:160|136:96,2,95
232,128,77334,6,0,B|328:96,1,95
416,72,77739,1,8
344,248,78145,2,0,B|336:312|272:320,1,95
256,224,78550,1,8
176,280,78753,6,0,B|104:328,2,47.5
104,216,79158,1,0
104,216,79361,1,8
176,152,79564,2,0,B|104:104,2,47.5
256,96,79969,2,0,B|304:64|360:96,2,95,0|8|0
312,176,80577,6,0,B|360:200|408:168,1,95
360,256,80983,1,8
176,312,81388,2,0,B|80:312,1,95
32,232,81794,1,8
32,232,81996,1,0
56,136,82199,6,0,B|64:72|128:64,1,95
152,152,82604,2,0,B|208:136|208:80,1,95,8|0
392,112,83212,1,0
392,112,83415,2,0,B|352:168,2,47.5,8|0|0
448,184,83821,6,0,B|432:248|336:272|280:208,1,190,0|8
200,224,84429,1,8
104,224,84631,2,0,B|104:120,1,95,0|8
32,192,85037,2,0,B|32:296,1,95,8|0
112,344,85442,5,0
208,344,85645,1,8
112,344,85848,1,0
208,344,86050,1,4
392,312,86456,1,0
392,312,86658,1,0
432,128,87064,6,0,B|392:72|296:64|248:128,1,190,4|8
328,184,87672,1,0
256,248,87875,2,0,B|176:272|104:216|112:152,1,190,0|8
104,72,88483,1,0
200,72,88685,6,0,B|248:72,2,47.5
104,72,89091,1,8
104,72,89294,1,0
192,240,89699,2,0,B|224:288|288:256,2,95,0|8|0
256,168,90307,6,0,B|312:136|384:152|424:208,1,190,0|8
392,296,90915,1,0
312,344,91118,2,8,B|208:344,1,95
48,248,91726,1,8
64,152,91929,6,0,B|64:96|112:72,3,95,0|0|0|8
192,328,92942,6,0,B|168:264|232:232,1,95
288,312,93347,2,0,B|336:288|312:224,1,95
240,168,93753,5,0
144,168,93955,1,8
240,168,94158,1,0
144,168,94361,1,0
48,168,94563,6,0,B|40:112|88:88,1,95
144,168,94969,2,0,B|160:232|112:256,1,95
120,344,95374,5,0
216,344,95577,1,8
120,344,95780,1,0
216,344,95982,1,0
312,344,96185,6,0,B|408:344,2,95
328,248,96793,2,0,B|328:184|384:168,1,95
432,248,97199,1,8
440,56,97604,2,0,B|448:120|368:136,1,95
344,48,98010,2,0,B|280:64|288:136,1,95,8|0
192,112,98415,5,0
240,192,98618,1,0
288,112,98821,1,8
192,112,99023,1,0
240,192,99226,2,0,B|144:192|128:280,2,142.5
232,288,100037,6,0,B|296:288|296:288|336:288|360:240,2,142.5,12|0|0
160,352,100848,2,0,B|96:352|96:352|64:352|40:304,2,142.5,12|0|0
256,352,101658,5,0
352,352,101861,1,8
352,352,102064,1,8
352,160,102469,2,0,B|408:160,2,47.5
256,160,102875,2,0,B|120:160,1,95,8|0
64,168,103280,6,0,B|40:224|64:288|144:312|184:272,1,190,0|8
184,96,104091,2,0,B|312:96,1,95
248,184,104496,2,0,B|352:184,1,95,8|0
304,272,104902,6,0,B|384:272,2,47.5
240,344,105307,2,0,B|104:344,1,95,8|0
112,256,105712,2,0,B|40:208|88:120,2,142.5
144,168,106523,6,0,B|88:232|-8:176,2,142.5,12|0|0
192,80,107334,2,0,B|256:40|336:88,2,142.5,12|0|0
256,144,108145,6,0,B|256:312,1,142.499995753169,12|0
432,208,108956,2,0,B|472:184|480:112|432:80,2,142.5,4|8|0
360,144,109767,6,0,B|304:144,2,47.5
312,224,110172,1,8
312,224,110375,1,0
256,296,110577,2,0,B|176:296,2,47.5
216,208,110983,1,8
216,208,111185,1,0
176,120,111388,5,4
248,56,111591,1,8
344,56,111794,1,0
408,120,111996,1,12
360,304,112402,6,0,B|316:340|248:316,2,95
296,232,113010,2,0,B|240:200|152:216|124:292,1,190
132,88,113821,2,0,B|153:148|241:164|297:132,1,190
368,76,114429,1,0
284,32,114631,6,0,B|204:92|220:216,1,190
124,192,115239,2,0,B|112:276|192:336|280:312,1,190
312,264,115848,1,0
368,340,116050,1,0
412,256,116253,5,0
356,180,116456,2,0,B|352:108,2,47.5
312,264,116861,1,0
312,264,117064,2,0,B|232:316|120:296,1,190
96,208,117672,2,0,B|152:224|204:308|200:368,1,190
116,316,118280,5,0
200,232,118483,1,0
104,120,118685,1,0
104,120,118888,6,0,B|104:232,1,95
200,232,119294,2,0,B|200:128,1,95,0|8
264,72,119699,6,0,B|360:72,1,95
400,160,120104,2,0,B|288:160,1,95,0|8
320,256,120510,5,0
368,336,120712,2,0,B|320:368|248:328,2,95,0|0|8
320,256,121321,5,0
272,176,121523,2,0,B|320:144|392:184,2,95,0|0|8
216,256,122131,6,0,B|168:232|160:184,2,95
272,176,122739,6,0,B|240:128|264:32|344:24,1,190,4|8
424,56,123348,2,0,B|464:104|432:208|360:216,1,190
296,272,123956,1,8
208,312,124158,1,0
256,192,124361,12,0,125983
160,96,126388,6,0,B|96:96|80:176,1,95
176,184,126794,2,0,B|208:224,2,47.5,8|0|0
88,224,127199,2,0,B|64:288|128:320,1,95
208,320,127604,5,0
304,316,127807,1,8
208,320,128010,1,0
304,316,128212,1,0
384,256,128415,2,0,B|432:224|424:160,1,95,0|8
328,176,128821,1,8
160,88,129226,5,0
56,248,129631,2,0,B|88:320|168:288,1,95
136,200,130037,1,8
224,168,130239,1,0
256,256,130442,1,8
344,216,130645,1,8
312,128,130848,6,0,B|344:80|400:96,1,95
488,96,131253,2,0,B|488:192,1,95
448,280,131658,2,0,B|416:320,2,47.5,8|0|0
360,248,132064,2,0,B|320:288,2,47.5
320,168,132469,5,4
320,168,132875,1,0
160,88,133483,1,8
160,88,133685,1,8
80,256,134091,6,0,B|112:344|272:368|392:280|368:168,1,380
272,200,135104,1,8
176,208,135307,1,8
312,72,135712,6,0,B|400:96|432:184,2,142.5,4|8|0
216,72,136523,1,4
80,120,136827,1,8
192,208,137131,1,0
192,208,137334,6,0,B|176:256|232:304,1,95
272,216,137739,2,0,B|296:328|448:336|496:232,1,285,8|0
432,168,138550,6,0,B|384:48|208:0|56:128|112:264,1,475
168,312,139767,2,0,B|240:312|240:312|288:312|320:256,2,142.5
168,312,140577,6,0,B|80:312|80:312|48:312|32:248,2,142.5,4|8|0
168,216,141388,2,0,B|168:64,2,142.5,0|8|0
264,216,142199,6,0,B|320:176|376:240,1,95,0|8
304,296,142604,1,8
464,192,143010,2,0,B|464:88,1,95
384,40,143415,2,0,B|384:168,1,95,8|0
296,104,143821,5,0
200,120,144023,2,0,B|160:112|144:152,2,47.5
208,216,144429,1,8
112,232,144631,2,0,B|72:264|104:328,1,95
192,288,145037,2,0,B|192:344|232:368,1,95,8|0
304,304,145442,6,0,B|344:344|408:312,2,95,0|8|8
200,144,146253,2,0,B|256:72|352:88,2,142.5
296,160,147064,6,0,B|272:88|176:56,2,142.5,4|8|0
200,152,147875,2,0,B|128:200|160:288,2,142.5,0|8|0
248,232,148685,5,0
280,320,148888,1,0
280,320,148989,1,0
280,320,149091,1,8
352,264,149294,1,0
336,168,149496,2,0,B|360:96|448:96,2,142.5
256,192,150307,12,0,151523
256,112,151929,5,0
160,192,152131,1,8
256,272,152334,1,0
352,192,152537,1,8
176,112,152942,1,0
96,64,153145,1,8
96,64,153246,1,8
96,64,153348,1,0
88,152,153550,6,0,B|48:192|64:256,1,95,4|0
152,216,153956,1,8
320,304,154361,2,0,B|408:264,1,95
472,192,154767,2,0,B|432:144|360:176,1,95,8|0
288,176,155172,5,0
196,156,155375,1,0
212,64,155577,1,8
300,80,155780,1,0
288,176,155983,1,0
196,156,156185,1,0
212,64,156388,1,8
272,136,156591,1,0
256,224,156794,6,0,B|224:280|152:256,2,95,0|0|8
96,120,157604,2,0,B|112:64|192:64,2,95,0|0|8
120,232,158212,1,0
176,160,158415,5,0
120,232,158618,1,0
120,232,158719,1,0
120,232,158821,1,10
96,328,159023,2,0,B|192:328,1,95,0|4
248,248,159429,2,0,B|344:248,2,95,0|8|0
296,168,160037,5,0
144,56,160442,1,8
144,56,160645,1,8
88,240,161050,2,0,B|88:192,2,47.5
256,320,161658,5,0
432,240,162064,1,8
432,240,162267,1,8
328,80,162672,1,0
232,96,162875,1,0
184,176,163077,1,8
88,184,163280,6,0,B|48:240|96:296,1,95
168,248,163685,2,0,B|160:304|200:336,1,95,8|0
280,288,164091,2,0,B|312:344|400:320,1,95
376,232,164496,2,0,B|480:232,1,95,8|0
416,152,164902,5,0
320,152,165104,1,0
272,152,165206,1,0
224,152,165307,1,8
128,152,165510,1,0
72,232,165712,2,0,B|76:288,4,47.5
256,288,166523,6,0,B|336:320|400:288|432:272,1,142.5,0|8
440,264,166929,2,0,B|488:240|472:176,1,95
384,200,167334,1,0
384,200,167537,1,0
384,200,167739,1,8
240,72,168145,6,0,B|152:64|112:128,1,142.5,0|8
144,160,168550,2,0,B|104:200|128:264,1,95
216,216,168956,1,0
312,224,169158,1,0
312,224,169260,1,0
312,224,169361,1,8
256,296,169564,1,0
352,304,169767,6,0,B|416:328|456:264,1,95
472,200,170172,2,0,B|472:136,2,47.5,8|0|0
384,160,170577,2,0,B|360:96|272:112,1,95
240,48,170983,2,0,B|176:56|168:128,1,95,8|0
112,176,171388,5,0
120,272,171591,1,0
160,296,171692,1,0
208,312,171794,1,8
296,280,171996,1,0
376,232,172199,2,0,B|400:184,4,47.5
296,184,172807,2,0,B|240:184|216:120,1,95,8|4
40,192,173415,5,0
184,312,173821,1,0
280,312,174023,1,0
184,312,174226,1,8
352,224,174631,6,0,B|432:144|384:40,1,190
216,128,175442,2,0,B|112:128,2,95,0|0|8
88,272,176253,6,0,B|128:360|264:344,1,190
328,176,177064,1,0
408,232,177267,2,0,B|320:272,1,95,0|8
256,96,177875,5,4
168,192,178077,1,4
256,280,178280,1,4
336,192,178483,1,4
256,192,178685,12,0,181118
120,192,181929,5,0
168,112,182131,2,0,B|216:136,2,47.5,0|0|8
200,200,182537,2,0,B|240:208|272:168,2,47.5,0|0|8
376,264,183145,1,4
200,200,183550,1,0
376,264,183956,1,4
344,80,184361,6,0,B|304:176,1,95,8|0
272,256,184767,2,0,B|320:144,1,95
216,136,185172,2,0,B|304:168,1,95,8|0
392,200,185577,2,0,B|280:160,1,95
302,168,185983,5,0
112,272,186591,1,4
256,24,187199,2,0,B|256:128,1,95,0|4
