osu file format v9

[General]
AudioFilename: third eye blind.mp3
AudioLeadIn: 0
PreviewTime: 64621
Countdown: 0
SampleSet: Soft
StackLeniency: 0.7
Mode: 0
LetterboxInBreaks: 0

[Editor]
DistanceSpacing: 1
BeatDivisor: 4
GridSize: 8

[Metadata]
Title:third eye blind
Artist:Hatsuki Yura
Creator:S i R i R u
Version:Normal
Source:Touhou
Tags:Kishida Kyoudan Komeiji Satori

[Difficulty]
HPDrainRate:2
CircleSize:3
OverallDifficulty:4
ApproachRate:4
SliderMultiplier:1
SliderTickRate:1

[Events]
//Background and Video events
0,0,"BG.jpg"
//Break Periods
2,52783,61964
//Storyboard Layer 0 (Background)
//Storyboard Layer 1 (Fail)
//Storyboard Layer 2 (Pass)
//Storyboard Layer 3 (Foreground)
//Storyboard Sound Samples
//Background Colour Transformations
3,100,255,255,255

[TimingPoints]
28125,382.165605095541,4,2,1,60,1,0
28507,-100,4,2,1,30,0,0
30322,-100,4,1,1,30,0,0
30513,-100,4,2,1,30,0,0
33475,-100,4,1,1,60,0,0
33857,-100,4,1,1,40,0,0
34239,-200,4,2,1,60,0,0
34621,-100,4,2,1,30,0,0
37201,-100,4,1,1,40,0,0
37583,-100,4,1,1,45,0,0
37965,-100,4,1,1,50,0,0
38825,-100,4,2,1,29,0,0
40354,-100,4,2,1,60,0,0
44462,-100,4,2,2,60,0,0
44653,-100,4,2,1,60,0,0
45513,-100,4,1,1,40,0,0
46468,-100,4,2,1,60,0,0
49526,-100,4,1,1,40,0,0
51054,-100,4,2,1,60,0,0
63284,-100,4,2,1,30,0,0
64430,-100,4,1,1,41,0,0
64812,-100,4,2,1,60,0,1
65099,-100,4,2,2,60,0,0
65290,-100,4,2,1,60,0,0
69685,-100,4,2,2,60,0,0
69876,-100,4,2,1,60,0,0
76373,-100,4,1,2,40,0,0
77042,-100,4,2,1,60,0,1
77233,-100,4,2,1,60,0,0
81914,-100,4,2,2,60,0,0
82105,-100,4,2,1,60,0,0
82679,-100,4,2,2,60,0,0
82870,-100,4,2,1,60,0,0

[Colours]
Combo1 : 206,81,13
Combo2 : 133,71,163

[HitObjects]
112,192,28124,1,4
200,144,28507,1,0
296,144,28889,2,0,B|360:144|400:184|424:248|408:288,1,200,2|0
312,280,30035,2,0,B|104:280,1,200
64,192,31182,6,0,B|64:144,2,50
160,192,31946,2,0,B|216:192|240:144,1,100,2|0
256,48,32710,1,0
400,192,33475,6,0,B|448:192,4,50
304,192,34621,6,0,B|240:192|216:232,1,100,0|2
120,208,35386,2,0,B|80:248|96:312,1,100
192,328,36150,1,0
288,328,36532,2,0,B|384:336|376:232|480:248,1,200,2|4
464,344,37679,5,4
464,344,38061,1,4
464,248,38443,1,4
256,192,38825,12,4,40354
256,192,40736,6,0,B|200:192,2,50,8|0|0
352,192,41500,2,0,B|384:192|416:224|424:264,1,100,8|0
352,328,42265,1,8
304,344,42456,1,0
256,328,42647,1,0
160,328,43029,1,8
96,256,43411,6,0,B|96:152,1,100,0|8
96,56,44175,2,0,B|160:56|208:112|208:176|208:208,1,200
208,296,45322,1,8
208,296,45513,1,0
208,296,45704,2,0,B|280:296,2,50
208,200,46468,6,0,B|208:96,1,100,4|8
304,120,47233,2,0,B|304:48,2,50,0|0|8
344,216,47997,1,0
384,248,48188,1,0
432,256,48379,1,8
432,160,48761,1,0
432,160,49144,1,8
344,120,49526,5,4
256,72,49908,1,4
168,120,50290,1,4
256,176,50672,1,4
256,272,51054,5,8
216,304,51246,1,0
168,304,51437,2,0,B|112:336,2,50,0|8|8
120,216,52201,1,8
120,120,52583,1,4
256,192,63284,12,0,64430
256,240,64812,6,0,B|200:240|152:192|136:136|152:88,1,200,4|0
240,64,65959,1,8
304,136,66341,2,0,B|344:176|416:168,2,100,0|8|0
216,176,67488,5,8
176,200,67679,1,0
160,248,67870,1,0
256,288,68252,1,8
304,288,68443,1,0
352,288,68634,1,0
408,208,69016,5,8
408,112,69398,2,0,B|360:72|288:64|224:96|224:120,1,200
144,168,70545,1,8
144,264,70927,6,0,B|144:320,2,50,4|0|8
232,216,71691,2,0,B|280:176,2,50,0|0|8
248,312,72456,2,0,B|288:328|344:320|360:304,1,100,0|8
360,216,73220,2,0,B|432:144,2,100,0|8|0
280,152,74367,5,8
232,152,74558,2,0,B|168:152|136:192,1,100
136,232,75131,1,8
136,328,75513,2,8,B|56:328,2,75
184,328,76277,2,0,B|240:344|336:304|328:216,1,200,8|4
168,112,77806,5,0
112,192,78188,1,8
208,200,78570,2,0,B|248:240|240:296,1,100,0|8
144,280,79335,2,0,B|56:336,2,100,0|8|0
144,280,80481,1,8
240,280,80863,5,0
312,208,81246,1,8
344,304,81628,2,0,B|392:288|432:232|416:160|368:128,2,200,0|0|4
256,256,83539,6,0,B|208:216,2,50,8|0|0
272,160,84303,2,0,B|304:120|360:120,1,100,8|0
368,216,85067,2,0,B|384:272,2,50,8|0|0
440,152,85832,1,8
392,64,86214,5,0
296,64,86596,1,8
264,104,86787,2,0,B|240:160|184:168,1,100
144,168,87360,1,8
200,248,87742,6,8,B|200:328,2,75
200,248,88507,1,8
280,192,88889,1,8
376,192,89271,1,4
