osu file format v9

[General]
AudioFilename: third eye blind.mp3
AudioLeadIn: 0
PreviewTime: 64621
Countdown: 0
SampleSet: Soft
StackLeniency: 0.7
Mode: 0
LetterboxInBreaks: 0

[Editor]
DistanceSpacing: 1.1
BeatDivisor: 4
GridSize: 8

[Metadata]
Title:third eye blind
Artist:Hatsuki Yura
Creator:S i R i R u
Version:Hard
Source:Touhou
Tags:Kishida Kyoudan Komeiji Satori

[Difficulty]
HPDrainRate:3
CircleSize:4
OverallDifficulty:6
ApproachRate:7
SliderMultiplier:1.4
SliderTickRate:0.5

[Events]
//Background and Video events
0,0,"BG.jpg"
//Break Periods
2,52783,62384
//Storyboard Layer 0 (Background)
//Storyboard Layer 1 (Fail)
//Storyboard Layer 2 (Pass)
//Storyboard Layer 3 (Foreground)
//Storyboard Sound Samples
//Background Colour Transformations
3,100,255,255,255

[TimingPoints]
28125,382.165605095541,4,2,1,60,1,0
28507,-100,4,2,1,30,0,0
32710,-200,4,2,1,60,0,0
33093,-100,4,2,1,60,0,0
33475,-100,4,1,1,60,0,0
33857,-100,4,1,1,40,0,0
34239,-200,4,2,1,60,0,0
34621,-100,4,2,1,30,0,0
37201,-100,4,1,1,40,0,0
37392,-100,4,2,1,49,0,0
37583,-100,4,1,1,40,0,0
37774,-100,4,2,1,49,0,0
37965,-100,4,1,1,49,0,0
38825,-100,4,1,1,60,0,0
40354,-100,4,2,1,60,0,0
45513,-100,4,1,1,40,0,0
46468,-100,4,2,1,60,0,0
48761,-100,4,1,1,29,0,0
48953,-100,4,1,1,51,0,0
49526,-100,4,1,1,40,0,0
51054,-100,4,2,1,60,0,0
63284,-100,4,1,1,41,0,0
64812,-100,4,2,1,60,0,1
65003,-100,4,2,1,60,0,0
76277,-100,4,1,1,40,0,0
77042,-100,4,2,1,60,0,1
77233,-100,4,2,1,60,0,0

[Colours]
Combo1 : 206,81,13
Combo2 : 133,71,163

[HitObjects]
256,192,28124,1,4
376,88,28507,1,0
440,136,28698,1,0
440,216,28889,2,0,B|440:280|384:320|344:328,2,140,2|0|0
312,136,30035,2,0,B|240:136,1,70
168,136,30417,2,0,B|128:136|114:193|128:232|175:243,1,140,2|0
240,240,30991,5,0
240,240,31086,1,0
240,240,31182,2,0,B|328:240,1,70
368,192,31564,2,0,B|408:192|472:240|472:312,2,140,0|2|0
368,112,32519,1,0
368,112,32710,2,0,B|296:112,1,70
232,72,33284,2,0,B|200:32,2,35
232,152,33666,1,0
232,232,33857,2,0,B|232:304,2,70,0|0|4
80,192,34621,6,0,B|80:40,2,140,0|2|0
176,312,35768,2,0,B|224:312|240:272,1,70
240,208,36150,2,0,B|240:128,1,70
240,64,36532,2,0,B|286:60|322:91|318:130|316:158,1,140,2|0
360,224,37105,1,0
360,304,37296,6,0,B|440:304,2,70
208,344,38061,1,0
112,224,38443,1,0
184,88,38825,6,0,B|184:40,2,35
336,88,39398,1,0
360,120,39494,1,0
360,160,39589,2,0,B|360:216,8,35,0|0|0|0|0|0|0|0|4
256,272,40736,5,8
192,224,40927,1,0
112,224,41118,2,0,B|32:224,2,70,0|0|8
192,96,41882,2,0,B|256:96|256:168|336:160,1,140,0|8
312,80,42456,1,0
312,80,42647,2,0,B|392:80,2,70,0|0|8
416,192,43411,6,0,B|416:272,1,70,0|0
344,240,43793,2,0,B|344:320,1,70,8|0
272,288,44175,2,0,B|272:160,2,105,0|0|0
208,336,44940,1,0
80,256,45322,5,8
80,176,45513,1,0
80,176,45609,1,0
80,176,45704,1,0
136,120,45895,2,0,B|112:64,6,35,0|0|0|0|0|0|4
288,144,46851,5,8
288,224,47042,2,0,B|288:272,2,35
352,184,47424,1,0
401,125,47615,2,0,B|441:146|442:206|425:229|398:248,2,140,8|0|8
256,64,48761,1,0
184,96,48953,2,0,B|184:160,6,35,0|0|0|0|0|0|4
64,192,49908,5,4
152,320,50290,1,4
232,192,50672,1,4
320,320,51054,5,8
320,240,51246,2,0,B|392:240,1,70
456,192,51628,1,8
456,112,51819,2,0,B|456:64|424:48,1,70,8|0
352,48,52201,2,0,B|192:48,1,140,8|4
216,144,63284,6,0,B|216:192,1,35
296,144,63570,2,0,B|296:200,1,35
320,256,63857,2,0,B|336:296,1,35
192,256,64144,2,0,B|176:296,1,35
256,320,64430,5,0
408,328,64812,6,0,B|456:312|480:272|488:232|472:192,1,140,4|8
480,144,65386,1,0
480,64,65577,2,0,B|320:64,1,140,0|8
208,144,66341,2,0,B|368:144,2,140,0|8|0
64,192,67488,5,8
112,256,67679,1,0
192,256,67870,2,0,B|288:256,1,70
328,208,68252,1,8
400,240,68443,1,0
392,160,68634,2,0,B|416:112|464:96,2,70,0|0|8
256,88,69398,5,0
104,128,69781,1,8
152,192,69972,1,0
120,264,70163,2,0,B|96:296|40:304,2,70,0|0|8
256,328,70927,6,0,B|256:160,1,140,4|8
256,112,71500,2,0,B|256:32,2,70
256,112,72074,1,8
392,192,72456,1,0
320,328,72838,1,8
240,328,73029,2,0,B|168:320|128:256|136:216,1,140
136,168,73602,6,0,B|136:24,2,140,8|0|8
56,168,74558,2,0,B|56:256,1,70
112,296,74940,1,0
192,296,75131,1,8
424,192,75513,5,8
312,192,75800,1,8
200,192,76086,1,8
120,192,76277,2,0,B|64:192,8,35,0|0|0|0|0|0|0|0|4
256,56,77424,5,8
384,144,77806,1,0
304,272,78188,1,8
152,304,78570,1,0
48,192,78953,6,0,B|48:120,1,70,8|0
128,136,79335,2,0,B|128:224,1,70
80,272,79717,1,8
80,352,79908,1,0
152,304,80099,6,0,B|232:312|304:256,1,140,0|8
232,128,80863,2,0,B|280:64|384:80,2,140,0|8|0
376,192,82010,5,8
448,328,82392,1,0
368,328,82583,2,0,B|288:328,1,70,0|8
256,264,82965,1,0
176,264,83156,6,0,B|139:256|125:217|139:160|179:160,1,140,4|8
256,160,83730,2,0,B|293:160|307:103|293:64|257:56,1,140,0|0
184,56,84303,2,0,B|32:56,2,140,8|0|8
184,136,85258,2,0,B|240:136|280:184|280:240,1,140
280,296,85832,1,8
392,192,86214,5,0
344,48,86596,1,8
264,48,86787,1,0
152,152,87169,1,0
152,232,87360,1,8
256,144,87742,6,8,B|256:272,2,105
256,144,88507,1,8
256,56,88889,5,8
256,232,89271,1,4
