osu file format v9

[General]
AudioFilename: third eye blind.mp3
AudioLeadIn: 0
PreviewTime: 64621
Countdown: 0
SampleSet: Soft
StackLeniency: 0.7
Mode: 0
LetterboxInBreaks: 0

[Editor]
DistanceSpacing: 0.8
BeatDivisor: 4
GridSize: 8

[Metadata]
Title:third eye blind
Artist:Hatsuki Yura
Creator:S i R i R u
Version:Easy
Source:Touhou
Tags:Kishida Kyoudan Komeiji Satori

[Difficulty]
HPDrainRate:1
CircleSize:3
OverallDifficulty:2
ApproachRate:3
SliderMultiplier:0.7
SliderTickRate:1

[Events]
//Background and Video events
0,0,"BG.jpg"
//Break Periods
2,52783,61844
//Storyboard Layer 0 (Background)
//Storyboard Layer 1 (Fail)
//Storyboard Layer 2 (Pass)
//Storyboard Layer 3 (Foreground)
//Storyboard Sound Samples
//Background Colour Transformations
3,100,255,255,255

[TimingPoints]
28125,382.165605095541,4,2,1,60,1,0
28507,-100,4,2,1,30,0,0
33284,-100,4,1,1,60,0,0
34239,-100,4,2,1,40,0,0
37201,-100,4,1,1,40,0,0
37583,-100,4,1,1,45,0,0
37965,-100,4,1,1,50,0,0
38825,-100,4,2,1,30,0,0
40354,-100,4,2,1,40,0,0
45513,-100,4,1,1,40,0,0
46468,-100,4,2,1,40,0,0
48761,-100,4,1,1,51,0,0
49526,-100,4,1,1,40,0,0
51054,-100,4,2,1,30,0,0
52583,-100,4,2,1,50,0,0
63284,-100,4,2,1,30,0,0
64812,-100,4,2,1,60,0,1
65003,-100,4,2,1,60,0,0
77042,-100,4,2,1,60,0,1
77233,-100,4,2,1,60,0,0
87742,-100,4,2,1,30,0,0
89271,-100,4,2,1,60,0,0

[Colours]
Combo1 : 206,81,13
Combo2 : 133,71,163

[HitObjects]
184,96,28124,1,4
296,96,28889,2,0,B|336:96|392:136|400:192,1,140,2|0
296,232,30417,2,0,B|296:304,2,70,2|0|0
184,232,31946,5,2
128,216,32328,1,0
104,168,32710,1,0
104,56,33475,1,0
104,56,33857,1,0
104,56,34239,6,0,B|248:56,2,140,4|2|0
56,152,36532,2,0,B|56:208|80:224,2,70,2|0|0
112,152,37679,5,0
168,152,38061,1,0
224,152,38443,1,0
256,192,38825,12,4,40354
448,192,41118,6,0,B|448:240|424:280|368:304,1,140,8|0
320,304,42265,1,0
264,304,42647,2,0,B|120:304,2,140,8|0|8
264,304,44940,1,0
264,192,45704,1,0
264,192,46086,1,0
264,192,46468,6,0,B|208:192|152:208|120:240,2,140,4|8|0
352,264,48761,2,0,B|432:264,2,70,0|0|4
296,264,49908,5,4
256,232,50290,1,4
256,176,50672,1,4
256,192,51054,12,4,52583
256,192,63284,12,4,64812
168,192,65577,5,8
168,80,66341,2,0,B|224:80|264:112|280:168,2,140,0|8|0
112,80,68252,1,0
80,128,68634,1,8
80,240,69398,2,0,B|80:320,2,70,0|0|8
184,192,70927,6,0,B|216:136|280:120|312:120,1,140,4|8
408,144,72456,2,0,B|376:200|312:216|280:216,1,140,0|8
240,216,73602,1,0
184,216,73984,1,0
104,144,74749,1,8
184,64,75513,2,8,B|240:64,2,52.5
184,64,76277,1,8
256,144,77042,6,0,B|320:160|336:224|328:256,1,140,4|8
216,240,78570,2,0,B|152:288,2,70,0|0|8
112,192,80099,5,0
136,144,80481,1,0
176,112,80863,1,8
288,112,81628,1,0
368,192,82392,1,8
368,248,82774,1,0
368,304,83156,1,4
256,304,83921,6,0,B|104:304,1,140,8|0
48,216,85449,2,0,B|192:216,1,140,8|0
256,128,86978,1,8
256,128,87360,1,0
256,192,87742,12,4,89271
