osu file format v12

[General]
AudioFilename: 6.confession--.mp3
AudioLeadIn: 2000
PreviewTime: 62117
Countdown: 0
SampleSet: Soft
StackLeniency: 0.7
Mode: 0
LetterboxInBreaks: 1
WidescreenStoryboard: 0

[Editor]
Bookmarks: 299,45754,105754,136663,143936,212572
DistanceSpacing: 1.2
BeatDivisor: 4
GridSize: 4

[Metadata]
Title:confession -Mitsuyaku Langage-
TitleUnicode:confession -蜜薬ランガージュ-
Artist:Hatsuki Yura
ArtistUnicode:葉月ゆら
Creator:Kotone
Version:Kiiwa
Source:
Tags:Drop c83 kiiwa Amamiya Yuko
BeatmapID:244039
BeatmapSetID:74126

[Difficulty]
HPDrainRate:6
CircleSize:4
OverallDifficulty:5
ApproachRate:7
SliderMultiplier:1.4
SliderTickRate:2

[Events]
//Background and Video events
0,0,"31368380.jpg",0,0
//Break Periods
2,76863,90308
2,139390,143036
//Storyboard Layer 0 (Background)
//Storyboard Layer 1 (Fail)
//Storyboard Layer 2 (Pass)
//Storyboard Layer 3 (Foreground)
//Storyboard Sound Samples
//Background Colour Transformations
3,100,163,162,255

[TimingPoints]
299.679316313845,454.545454545455,4,2,0,60,1,0
9163,-100,4,2,0,10,0,0
9390,-100,4,2,0,60,0,0
62117,-100,4,2,0,60,0,1
69276,-100,4,2,0,60,0,0
69390,-100,4,2,0,60,0,1
76663,-100,4,2,0,60,0,0
122117,-100,4,2,0,60,0,1
129276,-100,4,2,0,60,0,0
129390,-100,4,2,0,60,0,1
136663,-200,4,2,0,20,0,0
143936,-100,4,2,0,60,0,0
165754,-100,4,2,0,60,0,1
166663,-50,4,2,0,40,0,1
167572,-200,4,2,0,40,0,0
174845,-100,4,2,0,60,0,1
174958,-100,4,2,0,60,0,0
182117,-100,4,2,0,60,0,1
189276,-100,4,2,0,60,0,0
189390,-100,4,2,0,60,0,1
196663,-100,4,2,0,60,0,0
196776,-100,4,2,0,5,0,0
198026,-100,4,2,0,60,0,0
198481,-100,4,2,0,60,0,1
198595,-100,4,2,0,60,0,0
212117,-66.6666666666667,4,2,0,60,0,1
212799,-100,4,2,0,10,0,0
213026,-100,4,2,0,5,0,0

[Colours]
Combo1 : 203,248,22
Combo2 : 61,61,31
Combo3 : 249,164,123

[HitObjects]
433,230,299,6,0,P|417:190|377:174,1,70,4|0,0:0|0:0,0:0:0:0:
353,248,754,2,0,P|326:281|332:324,1,70,2|0,0:0|0:0,0:0:0:0:
409,307,1208,2,0,P|451:313|485:286,1,70,2|2,0:0|0:0,0:0:0:0:
354,247,1663,6,0,P|333:268|366:375,1,140,2|2,0:0|0:0,0:0:0:0:
408,308,2345,2,0,P|429:287|396:180,1,140,0|0,0:0|0:0,0:0:0:0:
412,108,3026,2,0,L|464:40,1,70,2|0,0:0|0:0,0:0:0:0:
464,40,3367,1,0,0:0:0:0:
472,28,3481,1,0,0:0:0:0:
328,48,3708,6,0,L|308:0,2,35,2|0|4,0:0|0:0|0:0,0:0:0:0:
200,104,4163,1,2,0:0:0:0:
64,68,4390,1,2,0:0:0:0:
8,128,4617,5,2,0:0:0:0:
88,148,4845,5,4,0:0:0:0:
200,104,5072,1,2,0:0:0:0:
276,191,5299,1,0,0:0:0:0:
213,292,5526,1,2,0:0:0:0:
98,266,5754,6,0,P|52:260|8:268,1,70,4|2,0:0|0:0,0:0:0:0:
0,346,6208,2,0,P|46:352|90:344,1,70,4|2,0:0|0:0,0:0:0:0:
69,349,6549,1,2,0:0:0:0:
69,349,6663,5,4,0:0:0:0:
179,303,6890,2,0,L|238:283,1,35,0|0,0:0|0:0,0:0:0:0:
304,348,7231,2,0,L|363:328,1,35
428,316,7572,6,0,L|440:164,1,140,4|2,0:0|0:0,0:0:0:0:
228,119,8481,2,0,B|216:119|216:119|192:63|84:67|72:163|108:187,1,210,4|0,0:0|0:0,0:0:0:0:
160,155,9390,6,0,P|202:181|245:180,1,70,4|0,0:0|0:0,0:0:0:0:
207,271,9845,2,0,P|276:253|309:183,1,140,0|0,1:0|0:0,0:0:0:0:
275,114,10526,1,0,0:0:0:0:
221,183,10754,1,0,1:0:0:0:
207,271,10981,1,0,0:0:0:0:
216,361,11208,5,0,0:0:0:0:
134,324,11436,2,0,L|92:332,3,23.3333333333333,0|0|0|0,0:0|0:0|0:0|1:0,0:0:0:0:
48,264,11890,2,0,P|16:284|4:320,1,70
62,181,12345,2,0,L|46:93,2,70,0|4|0,0:0|0:0|0:0,0:0:0:0:
136,112,13026,6,0,P|200:88|200:16,1,140,4|0,0:0|1:0,0:0:0:0:
204,23,13708,1,0,0:0:0:0:
228,172,13936,6,0,L|384:176,1,140,4|0,0:0|1:0,0:0:0:0:
367,175,14617,1,0,0:0:0:0:
496,188,14845,6,0,P|507:256|460:309,1,140,4|0,0:0|1:0,0:0:0:0:
387,350,15526,2,0,P|341:340|307:361,1,70,0|0,0:0|1:0,0:0:0:0:
321,348,15867,1,0,1:0:0:0:
321,348,15981,1,0,1:0:0:0:
222,329,16208,2,0,L|234:366,4,35,0|0|0|0|4,1:0|0:0|1:0|1:0|0:0,0:0:0:0:
169,249,16890,6,0,P|155:205|175:168,1,70,0|0,0:0|1:0,0:0:0:0:
22,194,17345,2,0,L|180:183,1,140
116,108,18026,1,0,1:0:0:0:
230,37,18254,5,0,0:0:0:0:
230,37,18367,1,0,0:0:0:0:
230,37,18481,1,0,0:0:0:0:
211,136,18708,2,0,L|232:170,3,23.3333333333333,0|0|0|0,0:0|0:0|0:0|1:0,0:0:0:0:
302,134,19163,2,0,P|298:197|231:235,1,140
158,290,19845,2,0,P|190:297|233:314,1,70,0|0,1:0|0:0,0:0:0:0:
256,384,20299,5,4,0:0:0:0:
422,310,20754,2,0,L|426:225,1,70,0|0,1:0|0:0,0:0:0:0:
224,310,21208,5,4,0:0:0:0:
459,170,21663,2,0,L|463:85,1,70,0|0,1:0|0:0,0:0:0:0:
466,14,22117,5,4,0:0:0:0:
376,48,22345,2,0,L|346:9,2,35,0|0|0,0:0|0:0|1:0,0:0:0:0:
276,68,22799,2,0,P|232:85|154:60,1,105
160,68,23254,2,0,P|125:43|112:8,1,70,8|4,3:0|1:0,0:0:0:0:
53,173,23936,5,0,1:0:0:0:
25,271,24163,5,2,0:0:0:0:
34,276,24276,1,2,0:0:0:0:
43,281,24390,1,0,1:0:0:0:
142,280,24617,5,2,0:0:0:0:
155,287,24730,1,2,0:0:0:0:
169,295,24844,1,0,1:0:0:0:
284,297,25072,5,2,0:0:0:0:
304,308,25185,1,2,0:0:0:0:
324,319,25299,1,0,1:0:0:0:
413,284,25526,2,0,P|433:319|431:353,1,70,0|0,0:0|1:0,0:0:0:0:
470,206,25981,6,0,L|489:104,1,70,0|0,0:0|1:0,0:0:0:0:
464,49,26436,1,0,0:0:0:0:
388,0,26663,2,0,P|380:77|487:136,1,210,0|0,1:0|0:0,0:0:0:0:
393,144,27572,6,0,P|339:103|240:104,1,140,0|0,1:0|1:0,0:0:0:0:
195,109,28254,1,0,0:0:0:0:
195,109,28481,2,0,P|130:129|74:211,1,140,0|0,1:0|1:0,0:0:0:0:
53,251,29163,2,0,P|32:315|67:408,1,140,0|2,0:0|0:0,0:0:0:0:
135,322,29845,1,0,1:0:0:0:
134,322,30072,6,0,L|124:297,3,23.3333333333333,0|0|0|0,1:0|1:0|1:0|1:0,0:0:0:0:
243,300,30526,5,0,1:0:0:0:
263,303,30640,1,0,1:0:0:0:
283,306,30754,1,0,1:0:0:0:
303,309,30867,1,0,1:0:0:0:
323,313,30981,1,0,1:0:0:0:
343,317,31095,1,0,1:0:0:0:
363,321,31208,1,4,1:0:0:0:
456,304,31436,6,0,L|464:232,1,70,0|0,0:0|1:0,0:0:0:0:
441,194,31890,2,0,L|497:236,1,70,0|0,0:0|1:0,0:0:0:0:
380,164,32344,6,0,L|372:233,1,70,0|0,0:0|1:0,0:0:0:0:
394,273,32799,2,0,L|338:231,1,70,0|0,0:0|1:0,0:0:0:0:
292,140,33254,5,0,0:0:0:0:
209,168,33481,1,0,1:0:0:0:
121,160,33708,1,0,0:0:0:0:
51,106,33936,1,0,1:0:0:0:
35,20,34163,1,0,0:0:0:0:
16,104,34390,2,0,B|28:172|28:172|12:256,1,140,0|0,1:0|1:0,0:0:0:0:
0,328,35072,6,0,P|40:336|100:332,1,70,0|0,0:0|1:0,0:0:0:0:
144,336,35526,1,0,0:0:0:0:
56,360,35754,6,0,P|132:356|180:280,1,140,0|0,1:0|1:0,0:0:0:0:
192,228,36436,1,0,0:0:0:0:
209,103,36663,6,0,P|174:170|216:250,1,140,0|0,1:0|1:0,0:0:0:0:
256,287,37345,1,0,0:0:0:0:
356,364,37572,6,0,P|314:300|224:296,1,140,0|0,1:0|1:0,0:0:0:0:
174,313,38254,1,0,0:0:0:0:
376,252,38481,6,0,L|440:200,1,70,4|0,1:0|0:0,0:0:0:0:
340,172,38936,2,0,L|369:94,1,70,0|0,1:0|0:0,0:0:0:0:
268,120,39390,2,0,L|254:38,1,70,0|0,1:0|0:0,0:0:0:0:
180,111,39845,2,0,L|128:46,1,70,0|0,1:0|0:0,0:0:0:0:
99,147,40299,6,0,B|33:122|33:122|-4:164|12:208,1,140,0|0,1:0|1:0,0:0:0:0:
7,184,40981,1,0,0:0:0:0:
48,300,41208,6,0,B|64:308|136:296|148:240|244:284|188:332|140:316,1,210,0|0,1:0|0:0,0:0:0:0:
264,284,42117,6,0,P|316:288|360:320,1,105,4|0,0:0|0:0,0:0:0:0:
376,344,42572,2,0,P|364:304|384:260,1,70,0|0,1:0|0:0,0:0:0:0:
448,304,43026,5,4,0:0:0:0:
264,284,43254,1,0,0:0:0:0:
284,100,43481,1,0,1:0:0:0:
468,120,43708,1,0,0:0:0:0:
417,161,43936,5,4,0:0:0:0:
325,151,44163,1,0,0:0:0:0:
315,243,44390,1,0,1:0:0:0:
407,252,44618,1,0,0:0:0:0:
366,202,44845,5,4,1:0:0:0:
366,202,44958,1,0,1:0:0:0:
366,202,45072,1,0,1:0:0:0:
252,224,45299,1,0,1:0:0:0:
52,220,45754,6,0,B|108:184|144:144|144:144|176:164|152:240|108:224,1,210,4|2,0:0|0:0,0:0:0:0:
92,292,46663,2,0,P|120:312|248:320,1,140,0|8,1:0|0:0,0:0:0:0:
256,340,47572,6,0,P|205:332|173:356,1,70,0|0,1:0|0:0,0:0:0:0:
336,356,48026,2,0,P|387:364|419:340,1,70,8|2,0:0|0:0,0:0:0:0:
401,356,48367,1,0,0:0:0:0:
402,357,48481,2,0,L|410:185,1,140,0|8,1:0|0:0,0:0:0:0:
444,220,49390,6,0,L|364:212,1,70,4|0,0:0|0:0,0:0:0:0:
316,100,49845,2,0,L|396:108,1,70,8|2,0:0|0:0,0:0:0:0:
444,220,50299,2,0,L|284:200,1,140,0|8,1:0|0:0,0:0:0:0:
344,216,51208,6,0,P|304:204|275:210,1,70,0|0,1:0|0:0,0:0:0:0:
212,292,51663,2,0,P|252:304|280:297,1,70,8|2,0:0|0:0,0:0:0:0:
316,188,52117,6,0,P|275:197|253:217,1,70,0|2,0:0|0:0,0:0:0:0:
239,319,52572,1,8,0:0:0:0:
239,319,52686,1,8,0:0:0:0:
239,319,52799,1,8,0:0:0:0:
239,319,52913,1,8,0:0:0:0:
239,319,53026,6,0,P|140:316|96:356,1,140,4|0,0:0|1:0,0:0:0:0:
4,189,53936,2,0,P|103:192|147:152,1,140,0|0,1:0|1:0,0:0:0:0:
170,306,54845,6,0,L|132:168,1,140,0|0,1:0|1:0,0:0:0:0:
268,44,55754,2,0,L|306:182,1,140,0|0,1:0|1:0,0:0:0:0:
324,256,56436,1,0,0:0:0:0:
380,200,56663,6,0,P|424:192|468:200,1,70,4|0,0:0|0:0,0:0:0:0:
324,256,57117,2,0,P|280:264|236:256,1,70,0|0,1:0|0:0,0:0:0:0:
176,256,57572,2,0,P|136:248|76:156,1,140,0|0,0:0|1:0,0:0:0:0:
164,168,58254,1,0,0:0:0:0:
317,86,58481,5,4,0:0:0:0:
317,297,59390,1,4,0:0:0:0:
134,192,60072,1,2,0:0:0:0:
87,266,60299,6,0,L|50:230,2,35,0|0|0,1:0|1:0|0:0,0:0:0:0:
134,192,60754,1,0,1:0:0:0:
130,109,60981,2,0,P|184:124|213:210,1,140,2|0,0:0|1:0,0:0:0:0:
250,270,61663,2,0,P|307:277|335:268,1,70,0|2,1:0|0:0,0:0:0:0:
430,233,62117,6,0,L|401:124,1,105,4|2,0:0|0:0,0:0:0:0:
475,135,62572,2,0,P|416:129|391:58,1,140,0|0,1:0|0:0,0:0:0:0:
430,233,63254,1,0,0:0:0:0:
319,225,63481,1,0,1:0:0:0:
295,118,63708,1,0,0:0:0:0:
389,60,63936,5,0,0:0:0:0:
430,233,64390,1,0,1:0:0:0:
137,290,64845,5,0,0:0:0:0:
116,203,65072,1,0,0:0:0:0:
96,117,65299,1,0,1:0:0:0:
51,262,65526,2,0,L|61:316,1,35,0|2,0:0|0:0,0:0:0:0:
69,348,65754,5,0,0:0:0:0:
137,290,65981,1,0,0:0:0:0:
51,262,66208,2,0,P|25:218|29:181,1,70,4|0,0:0|0:0,0:0:0:0:
69,348,66663,5,0,0:0:0:0:
120,202,66890,2,0,L|91:170,2,35,0|2|4,0:0|0:0|0:0,0:0:0:0:
155,377,67345,5,0,0:0:0:0:
223,319,67572,1,0,0:0:0:0:
204,229,67799,1,0,0:0:0:0:
120,202,68026,1,0,1:0:0:0:
51,262,68254,1,0,0:0:0:0:
69,348,68481,1,4,0:0:0:0:
256,192,68595,12,4,69390,0:0:0:0:
256,132,69617,5,0,0:0:0:0:
213,63,69845,2,0,P|271:49|334:121,1,140,0|0,1:0|0:0,0:0:0:0:
369,167,70526,2,0,L|446:207,1,70,0|0,0:0|1:0,0:0:0:0:
501,233,70981,1,0,0:0:0:0:
496,165,71208,6,0,P|440:200|465:287,1,140,0|0,0:0|1:0,0:0:0:0:
501,233,71890,1,0,0:0:0:0:
407,332,72117,6,0,L|256:346,2,140,0|0|0,0:0|1:0|0:0,0:0:0:0:
318,268,73254,5,0,0:0:0:0:
225,293,73481,2,0,P|256:340|289:350,1,70,4|0,0:0|0:0,0:0:0:0:
318,268,73936,5,0,0:0:0:0:
218,203,74163,1,0,0:0:0:0:
193,318,74390,2,0,P|235:355|269:356,1,70,4|0,0:0|0:0,0:0:0:0:
114,330,74845,6,0,P|54:333|3:375,2,105,4|4|0,0:0|0:0|1:0,0:0:0:0:
193,318,75754,5,4,1:0:0:0:
115,329,75981,1,0,0:0:0:0:
80,258,76208,1,0,1:0:0:0:
136,204,76436,1,0,0:0:0:0:
204,241,76663,1,4,0:0:0:0:
12,128,91208,6,0,P|108:144|172:120,1,140,4|0,0:0|1:0,0:0:0:0:
216,76,91890,1,0,0:0:0:0:
352,80,92117,6,0,P|256:64|192:88,1,140,0|0,0:0|1:0,0:0:0:0:
148,132,92799,1,0,0:0:0:0:
108,212,93026,6,0,P|100:264|112:292,1,70
196,360,93481,2,0,P|204:308|192:280,1,70,0|0,1:0|0:0,0:0:0:0:
199,292,93936,6,0,L|281:292,1,70
104,280,94390,2,0,L|22:280,1,70,0|0,1:0|0:0,0:0:0:0:
196,360,94845,5,0,0:0:0:0:
284,368,95072,1,0,0:0:0:0:
368,344,95299,1,0,1:0:0:0:
428,280,95526,1,0,0:0:0:0:
436,192,95754,6,0,P|440:144|432:108,1,70
369,245,96208,2,0,P|408:272|443:283,1,70,0|0,1:0|0:0,0:0:0:0:
356,160,96663,2,0,P|312:180|285:205,1,70
436,192,97117,6,0,P|440:144|432:108,1,70,0|0,1:0|0:0,0:0:0:0:
436,122,97458,1,2,0:0:0:0:
436,122,97572,1,2,0:0:0:0:
295,194,97799,1,2,0:0:0:0:
364,52,98026,1,0,1:0:0:0:
389,208,98254,1,2,0:0:0:0:
279,95,98481,6,0,P|224:76|120:80,1,140,4|0,0:0|1:0,0:0:0:0:
68,24,99163,1,0,0:0:0:0:
20,172,99390,6,0,P|75:191|179:187,1,140,0|0,0:0|1:0,0:0:0:0:
231,243,100072,1,0,0:0:0:0:
157,192,100299,6,0,L|97:252,1,70
305,294,100754,2,0,L|354:244,1,70,0|0,1:0|0:0,0:0:0:0:
157,192,101208,6,0,B|105:244|105:244|97:288|129:308,1,140,0|0,0:0|1:0,0:0:0:0:
231,243,101890,1,0,0:0:0:0:
231,243,102117,6,0,P|312:252|344:320,1,140,4|0,0:0|1:0,0:0:0:0:
412,348,102799,1,0,0:0:0:0:
488,304,103026,2,0,L|496:160,1,140,0|0,0:0|1:0,0:0:0:0:
508,76,103708,1,0,0:0:0:0:
416,172,103936,6,0,L|508:180,1,70,4|0,0:0|0:0,0:0:0:0:
317,150,104390,2,0,L|248:144,1,70,0|0,1:0|0:0,0:0:0:0:
210,117,104845,6,0,L|302:125,1,70,4|0,0:0|0:0,0:0:0:0:
112,96,105299,2,0,L|42:89,1,70,4|0,0:0|0:0,0:0:0:0:
4,180,105754,6,0,B|20:236|96:288|160:244|140:176|60:224,1,210,4|2,0:0|0:0,0:0:0:0:
8,332,106663,2,0,P|84:320|160:360,1,140,0|8,1:0|0:0,0:0:0:0:
120,368,107572,6,0,P|152:336|188:324,1,70,0|0,1:0|0:0,0:0:0:0:
320,356,108026,2,0,P|276:344|247:319,1,70,8|2,0:0|0:0,0:0:0:0:
165,135,108481,2,0,P|211:188|217:255,1,140,0|8,1:0|0:0,0:0:0:0:
188,260,109390,6,0,L|268:256,1,70,4|0,0:0|0:0,0:0:0:0:
304,184,109845,2,0,L|384:180,1,70,8|2,0:0|0:0,0:0:0:0:
420,108,110299,2,0,B|490:104|490:104|504:48|472:12,1,140,0|8,1:0|0:0,0:0:0:0:
512,8,111208,6,0,P|476:16|448:48,1,70,0|0,1:0|0:0,0:0:0:0:
360,140,111663,2,0,P|396:132|424:100,1,70,8|2,0:0|0:0,0:0:0:0:
370,0,112117,6,0,P|378:33|410:61,1,70,0|0,1:0|0:0,0:0:0:0:
502,149,112572,1,8,0:0:0:0:
502,149,112686,1,8,0:0:0:0:
502,149,112799,1,8,0:0:0:0:
502,149,112913,1,8,0:0:0:0:
502,149,113026,6,0,P|516:212|460:288,1,140,4|0,0:0|1:0,0:0:0:0:
408,252,113708,1,0,0:0:0:0:
332,348,113936,6,0,L|184:336,1,140,0|0,1:0|1:0,0:0:0:0:
124,368,114617,1,0,0:0:0:0:
28,300,114845,5,0,1:0:0:0:
24,280,115072,1,0,0:0:0:0:
106,192,115299,5,0,1:0:0:0:
104,208,115526,1,0,0:0:0:0:
200,124,115753,5,0,1:0:0:0:
209,132,115981,1,0,0:0:0:0:
296,52,116208,5,0,1:0:0:0:
292,48,116436,1,0,0:0:0:0:
300,140,116663,6,0,L|452:132,1,140,4|0,0:0|1:0,0:0:0:0:
212,244,117572,2,0,L|60:252,1,140,0|0,1:0|1:0,0:0:0:0:
108,40,118481,5,4,0:0:0:0:
200,380,119390,1,4,0:0:0:0:
461,140,120299,1,2,0:0:0:0:
473,224,120526,6,0,L|442:268,2,35,0|0|0,1:0|1:0|1:0,0:0:0:0:
395,193,120981,1,2,0:0:0:0:
386,281,121208,2,0,P|436:322|512:300,1,140,0|0,1:0|1:0,0:0:0:0:
504,306,121776,1,2,0:0:0:0:
504,306,121890,1,2,0:0:0:0:
299,237,122117,6,0,L|325:378,2,140,4|0|0,0:0|1:0|0:0,0:0:0:0:
160,193,123254,1,0,0:0:0:0:
238,306,123481,2,0,P|210:334|172:342,1,70,0|0,1:0|0:0,0:0:0:0:
299,237,123936,5,0,0:0:0:0:
238,306,124163,1,0,0:0:0:0:
160,193,124390,5,0,1:0:0:0:
155,349,124617,1,0,0:0:0:0:
77,195,124845,2,0,P|37:207|-20:167,1,105,0|2,0:0|0:0,0:0:0:0:
0,203,125299,2,0,P|18:239|8:271,1,70,0|0,1:0|0:0,0:0:0:0:
39,139,125754,5,0,0:0:0:0:
10,266,125981,1,0,0:0:0:0:
136,228,126208,2,0,P|176:240|204:240,1,70,4|0,0:0|0:0,0:0:0:0:
64,212,126663,5,0,0:0:0:0:
203,240,126890,1,0,0:0:0:0:
158,104,127117,2,0,P|172:56|168:16,1,70,4|0,0:0|0:0,0:0:0:0:
140,184,127572,5,0,0:0:0:0:
203,240,127799,5,0,0:0:0:0:
160,104,128026,1,0,1:0:0:0:
64,212,128254,1,0,0:0:0:0:
140,184,128481,5,4,0:0:0:0:
256,192,128595,12,4,129390,0:0:0:0:
256,132,129617,5,0,0:0:0:0:
299,63,129845,2,0,P|241:49|178:121,1,140,0|0,1:0|0:0,0:0:0:0:
143,167,130526,2,0,L|66:207,1,70,0|0,0:0|1:0,0:0:0:0:
11,233,130981,1,0,0:0:0:0:
16,165,131208,6,0,P|72:200|47:287,1,140,0|0,0:0|1:0,0:0:0:0:
11,233,131890,1,0,0:0:0:0:
105,332,132117,6,0,L|256:346,2,140,0|0|0,0:0|1:0|0:0,0:0:0:0:
194,268,133254,5,0,0:0:0:0:
287,293,133481,2,0,P|256:340|223:350,1,70,4|0,0:0|0:0,0:0:0:0:
194,268,133936,5,0,0:0:0:0:
294,203,134163,1,0,0:0:0:0:
319,318,134390,2,0,P|277:355|243:356,1,70,4|0,0:0|0:0,0:0:0:0:
398,330,134845,6,0,P|458:333|509:375,2,105,4|4|0,0:0|0:0|1:0,0:0:0:0:
319,318,135754,5,4,1:0:0:0:
397,329,135981,1,0,0:0:0:0:
432,258,136208,1,0,1:0:0:0:
376,204,136436,1,0,0:0:0:0:
308,241,136663,2,0,B|272:240|172:212|104:232|72:280|172:312|208:264,1,280,0|4,0:0|0:0,0:0:0:0:
28,256,143936,6,0,L|180:248,1,140,4|0,0:0|1:0,0:0:0:0:
368,336,144845,2,0,L|216:344,1,140,0|0,0:0|1:0,0:0:0:0:
16,240,145754,6,0,L|168:232,1,140,0|0,0:0|1:0,0:0:0:0:
356,320,146663,2,0,L|204:328,1,140,0|0,0:0|1:0,0:0:0:0:
216,327,147345,1,0,0:0:0:0:
432,368,147572,6,0,L|440:276,1,70
362,250,148026,2,0,L|354:342,1,70,0|0,1:0|0:0,0:0:0:0:
279,271,148481,2,0,L|286:202,1,70
210,154,148936,2,0,L|203:223,1,70,0|0,1:0|0:0,0:0:0:0:
127,175,149391,2,0,L|133:105,1,70
127,175,149845,5,0,1:0:0:0:
63,118,150073,1,0,0:0:0:0:
97,43,150299,1,2,0:0:0:0:
181,52,150526,1,2,0:0:0:0:
199,134,150754,2,0,P|256:160|336:160,1,140,2|4,0:0|0:0,0:0:0:0:
332,160,151663,6,0,P|276:184|272:216,1,70,0|0,1:0|0:0,0:0:0:0:
396,104,152117,2,0,P|404:43|378:24,1,70,0|0,1:0|0:0,0:0:0:0:
413,187,152572,2,0,P|461:224|490:211,1,70,0|0,1:0|0:0,0:0:0:0:
388,268,153026,6,0,P|352:308|240:316,1,140,0|0,1:0|1:0,0:0:0:0:
309,134,153708,1,0,0:0:0:0:
192,192,153936,6,0,P|228:152|340:144,1,140,0|0,1:0|1:0,0:0:0:0:
270,325,154617,1,0,0:0:0:0:
188,328,154845,6,0,P|144:324|108:296,1,70,4|0,0:0|0:0,0:0:0:0:
184,180,155299,2,0,P|220:205|237:247,1,70,0|0,1:0|0:0,0:0:0:0:
68,248,155754,6,0,P|49:207|55:162,1,70,0|0,1:0|0:0,0:0:0:0:
256,304,156208,2,0,P|252:347|224:384,1,70,0|0,1:0|0:0,0:0:0:0:
40,100,156663,6,0,P|72:60|164:40,1,140,0|0,1:0|1:0,0:0:0:0:
472,284,157572,2,0,P|440:324|348:344,1,140,0|0,1:0|1:0,0:0:0:0:
256,192,158254,1,2,0:0:0:0:
256,192,158367,1,2,0:0:0:0:
256,192,158481,6,0,L|176:212,1,70,4|0,0:0|0:0,0:0:0:0:
112,176,158936,2,0,P|116:256|193:287,1,140,0|0,1:0|1:0,0:0:0:0:
220,340,159617,1,0,0:0:0:0:
220,340,159845,6,0,L|388:336,1,140,0|4,1:0|0:0,0:0:0:0:
360,332,160754,1,4,0:0:0:0:
364,328,161208,1,4,0:0:0:0:
368,324,161663,2,0,L|228:327,1,140,4|0,0:0|0:0,0:0:0:0:
438,287,162345,5,0,0:0:0:0:
384,244,162572,2,0,P|436:284|440:356,1,140,0|4,1:0|0:0,0:0:0:0:
405,68,163481,2,0,P|346:107|338:173,1,140,0|0,1:0|1:0,0:0:0:0:
300,248,164163,2,0,P|239:273|176:242,1,140,0|0,1:0|0:0,0:0:0:0:
229,339,164845,2,0,L|241:191,1,140,0|0,1:0|1:0,0:0:0:0:
64,144,165754,5,4,0:0:0:0:
64,144,166057,1,4,0:0:0:0:
64,144,166360,1,4,0:0:0:0:
64,144,166663,2,0,L|48:123,12,23.3333333333333,0|0|0|0|0|0|0|0|0|0|0|0|8,1:0|1:0|1:0|1:0|1:0|1:0|1:0|1:0|1:0|1:0|1:0|1:0|1:0,1:0:0:0:
220,192,167572,6,0,P|208:216|132:232,1,105
204,280,168481,2,0,P|228:292|248:312,2,52.5
137,234,169390,5,0,0:0:0:0:
247,309,169845,1,0,0:0:0:0:
355,229,170299,1,0,0:0:0:0:
312,98,170754,1,0,0:0:0:0:
174,100,171208,5,0,0:0:0:0:
312,98,171436,1,0,0:0:0:0:
211,169,171663,2,0,P|158:176|112:147,1,105
46,118,172572,2,0,L|25:221,1,105
69,294,173481,6,0,P|42:314|36:329,1,35
106,357,173936,2,0,P|145:379|244:360,1,140,0|4,0:0|1:0,0:0:0:0:
385,282,175299,6,0,L|418:380,1,70,0|0,1:0|0:0,0:0:0:0:
329,221,175754,2,0,L|227:200,1,70,0|0,1:0|0:0,0:0:0:0:
409,203,176208,2,0,L|477:125,1,70,0|0,1:0|0:0,0:0:0:0:
512,90,176663,5,0,1:0:0:0:
453,35,176890,2,0,P|414:18|354:20,1,70,0|0,0:0|1:0,0:0:0:0:
310,4,177345,1,0,0:0:0:0:
192,24,177572,6,0,P|227:44|313:-7,1,140,0|0,1:0|1:0,0:0:0:0:
114,21,178254,1,0,0:0:0:0:
149,91,178481,5,4,1:0:0:0:
310,4,178708,1,0,0:0:0:0:
114,21,178936,2,0,P|75:62|70:100,1,70
149,91,179390,5,4,1:0:0:0:
287,224,179617,1,0,0:0:0:0:
96,197,179845,1,0,1:0:0:0:
266,107,180072,1,0,0:0:0:0:
182,280,180299,6,0,L|209:326,2,35,0|0|0,1:0|1:0|1:0,0:0:0:0:
194,185,180754,1,0,0:0:0:0:
130,326,180981,6,0,P|173:375|242:365,1,140,0|2,1:0|0:0,0:0:0:0:
320,340,181663,2,0,P|359:333|394:342,1,70,0|0,1:0|1:0,0:0:0:0:
466,367,182117,6,0,L|505:198,1,140,4|0,0:0|1:0,0:0:0:0:
425,111,182799,5,0,0:0:0:0:
434,187,183026,2,0,P|378:171|351:96,1,140,0|0,0:0|1:0,0:0:0:0:
425,111,183708,1,0,0:0:0:0:
296,45,183936,6,0,L|138:73,1,140,0|0,0:0|1:0,0:0:0:0:
77,87,184617,1,0,0:0:0:0:
23,222,184845,6,0,L|181:194,1,140,0|0,0:0|1:0,0:0:0:0:
242,180,185526,1,0,0:0:0:0:
160,197,185754,5,0,0:0:0:0:
267,100,185981,1,0,0:0:0:0:
298,240,186208,2,0,P|336:275|362:278,1,70,4|0,0:0|0:0,0:0:0:0:
426,294,186663,5,0,0:0:0:0:
242,180,186890,1,0,0:0:0:0:
432,77,187117,2,0,P|453:37|447:-1,1,70,4|0,0:0|0:0,0:0:0:0:
510,70,187572,5,0,0:0:0:0:
462,130,187799,1,0,0:0:0:0:
389,156,188026,1,0,1:0:0:0:
311,153,188254,1,0,0:0:0:0:
242,118,188481,1,4,0:0:0:0:
256,192,188595,12,4,189390,0:0:0:0:
256,132,189617,5,0,0:0:0:0:
236,228,189845,2,0,L|208:376,1,140,0|0,1:0|0:0,0:0:0:0:
200,384,190526,6,0,L|240:307,1,70,0|0,0:0|1:0,0:0:0:0:
152,216,190981,1,0,0:0:0:0:
118,142,191208,6,0,P|84:172|94:273,1,140,0|0,0:0|1:0,0:0:0:0:
48,72,191890,1,0,0:0:0:0:
283,33,192117,6,0,L|132:47,2,140,0|0|0,0:0|1:0|0:0,0:0:0:0:
399,103,193254,5,0,0:0:0:0:
444,156,193481,2,0,P|413:109|380:99,1,70,4|0,0:0|0:0,0:0:0:0:
444,156,193936,5,0,0:0:0:0:
399,103,194163,1,0,0:0:0:0:
337,127,194391,1,4,0:0:0:0:
344,193,194618,1,0,0:0:0:0:
408,210,194845,6,0,P|424:264|404:332,2,105,4|4|0,0:0|0:0|1:0,0:0:0:0:
256,288,195754,5,0,1:0:0:0:
160,192,195981,5,2,0:0:0:0:
260,74,196208,5,0,1:0:0:0:
376,192,196435,5,2,0:0:0:0:
256,288,196663,6,0,B|309:273|354:378|205:418|150:324|194:263|318:162|252:60,1,420,2|8,0:0|0:0,0:0:0:0:
256,288,198481,5,4,0:0:0:0:
180,320,198708,2,0,P|144:332|92:324,1,70,0|0,0:0|1:0,0:0:0:0:
32,308,199163,1,0,0:0:0:0:
156,292,199390,6,0,P|208:304|240:368,1,105
232,352,199845,2,0,L|322:360,1,70,0|0,1:0|0:0,0:0:0:0:
384,308,200299,1,0,0:0:0:0:
480,328,200526,2,0,L|484:360,3,23.3333333333333,0|0|0|0,0:0|0:0|0:0|1:0,0:0:0:0:
384,308,200981,6,0,L|400:156,1,140
340,88,201663,2,0,L|492:104,1,140,0|4,1:0|0:0,0:0:0:0:
272,24,202572,5,0,1:0:0:0:
340,88,202799,1,0,0:0:0:0:
256,108,203026,2,0,P|184:112|128:60,1,140,4|0,0:0|1:0,0:0:0:0:
133,71,203708,1,0,0:0:0:0:
16,32,203936,6,0,L|28:180,1,140,4|0,0:0|1:0,0:0:0:0:
16,248,204617,1,0,0:0:0:0:
56,316,204845,1,0,1:0:0:0:
56,316,204958,1,0,1:0:0:0:
56,316,205072,1,0,0:0:0:0:
128,344,205299,2,0,P|172:348|264:332,1,105,0|0,1:0|1:0,0:0:0:0:
232,364,205754,6,0,P|264:344|292:376,1,70,4|0,0:0|0:0,0:0:0:0:
372,348,206208,2,0,P|440:356|508:232,1,210,0|0,1:0|0:0,0:0:0:0:
496,168,207117,2,0,B|488:148|488:148|496:88,1,70,0|0,1:0|0:0,0:0:0:0:
508,24,207572,5,0,0:0:0:0:
424,44,207799,2,0,L|404:24,3,23.3333333333333,0|0|0|0,0:0|0:0|0:0|1:0,0:0:0:0:
348,84,208254,1,0,0:0:0:0:
312,160,208481,1,0,0:0:0:0:
296,244,208708,1,0,0:0:0:0:
312,328,208936,2,0,L|236:364,1,70,0|0,1:0|1:0,0:0:0:0:
376,272,209390,5,4,0:0:0:0:
144,248,209845,2,0,L|160:328,1,70,0|0,1:0|0:0,0:0:0:0:
376,272,210299,5,4,0:0:0:0:
116,104,210754,2,0,L|132:184,2,70,0|0|4,1:0|1:0|0:0,0:0:0:0:
129,172,211436,5,0,0:0:0:0:
49,81,211663,1,0,1:0:0:0:
169,57,211890,1,0,0:0:0:0:
59,276,212117,5,4,0:0:0:0:
117,104,212344,1,4,0:0:0:0:
239,242,212572,2,0,L|124:204,1,105.000004005432,4|0,1:0|0:0,0:0:0:0:
256,192,213026,12,0,215754,0:0:0:0:
