osu file format v12

[General]
AudioFilename: 02 Yoiyami Hanabi.mp3
AudioLeadIn: 0
PreviewTime: 108145
Countdown: 0
SampleSet: None
StackLeniency: 0.7
Mode: 0
LetterboxInBreaks: 0
UseSkinSprites: 1
WidescreenStoryboard: 0

[Editor]
Bookmarks: 1840,18536,35232,37319,54014,70710,87406,108275,141667,160449,177145,198014,231406,264536,264797
DistanceSpacing: 1.2
BeatDivisor: 12
GridSize: 4

[Metadata]
Title:Yoiyami Hanabi
TitleUnicode:宵闇花火
Artist:Hatsuki Yura
ArtistUnicode:葉月ゆら
Creator:Lan wings
Version:Lan
Source:
Tags:Kotone karenying Regou BakaHuang Beren Kiiwa
BeatmapID:297463
BeatmapSetID:115011

[Difficulty]
HPDrainRate:7
CircleSize:4
OverallDifficulty:7
ApproachRate:9
SliderMultiplier:1.8
SliderTickRate:1

[Events]
//Background and Video events
0,0,"bg.jpg",0,0
//Break Periods
//Storyboard Layer 0 (Background)
//Storyboard Layer 1 (Fail)
//Storyboard Layer 2 (Pass)
//Storyboard Layer 3 (Foreground)
Sprite,Foreground,Centre,"hitcircle.png",320,240 F,0,264243,264591,0,1 M,0,264797,,339,358 S,0,264797,,0.6 C,0,264797,,169,255,232 F,0,264797,265058,0.7,0 S,1,264797,265058,0.6,0.7 M,0,265058,,339,358
Sprite,Foreground,Centre,"hitcircleoverlay.png",320,240 F,0,264243,264591,0,1 M,0,264797,,339,358 S,0,264797,,0.6 F,2,264797,265058,0.7,0 S,1,264797,265058,0.6,0.7 M,0,265058,,339,358
Sprite,Foreground,Centre,"default-1.png",320,240 F,0,264243,264591,0,1 M,0,264797,,339,358 S,0,264797,,0.45 S,0,264797,264962,0.57,0.75 F,0,264797,265058,0.7,0 S,0,264962,265058,0.75,0.9 M,0,265058,,339,358 F,0,265058,,0.5,0
Sprite,Foreground,Centre,"approachcircle.png",320,240 M,0,264138,264797,339,358 S,0,264138,264797,2.4,0.6 F,0,264243,264591,0,1 C,0,264797,,169,255,232 F,0,264797,264895,1,0 S,0,264797,264895,0.6,0.7
Sprite,Foreground,Centre,"hit300g.png",320,240 S,0,264797,264879,0.3,0.7547998 F,0,264797,264962,0,1 M,0,264797,265786,339,358 S,0,264879,264962,0.7547998,0.55 F,0,265058,265786,1,0
//Storyboard Sound Samples
//Background Colour Transformations
3,100,163,162,255

[TimingPoints]
-246,521.739130434783,4,2,1,70,1,0
2319,-100,4,2,0,60,0,0
2406,-100,4,2,1,70,0,0
3884,-100,4,2,0,70,0,0
4101,-100,4,2,1,50,0,0
4275,-100,4,2,1,70,0,0
5667,-100,4,2,1,80,0,0
5840,-100,4,2,1,70,0,0
6493,-100,4,2,2,50,0,0
6797,-100,4,2,0,70,0,0
6840,-100,4,2,1,70,0,0
7493,-100,4,2,1,50,0,0
7667,-100,4,2,1,70,0,0
8232,-100,4,2,1,50,0,0
8493,-100,4,2,1,70,0,0
10667,-100,4,2,0,70,0,0
10754,-100,4,2,1,70,0,0
15145,-100,4,2,0,70,0,0
15188,-100,4,2,1,70,0,0
18232,-100,4,2,2,70,0,0
18319,-100,4,2,1,70,0,0
18536,-80,4,2,2,70,0,1
19014,-80,4,2,2,50,0,1
19101,-80,4,2,2,70,0,1
20101,-66.6666666666667,4,1,1,50,0,1
20362,-80,4,2,2,70,0,1
21362,-80,4,1,1,50,0,1
21623,-80,4,2,2,70,0,1
23971,-80,4,2,2,50,0,1
24058,-80,4,2,2,70,0,1
24232,-80,4,2,1,70,0,1
24319,-80,4,2,2,70,0,1
25014,-80,4,2,1,70,0,1
25362,-80,4,2,2,70,0,1
25536,-80,4,2,2,40,0,1
25623,-80,4,2,2,70,0,1
25797,-80,4,2,2,45,0,1
26014,-80,4,2,2,70,0,1
27101,-80,4,1,1,60,0,1
27362,-80,4,2,2,70,0,1
28449,-66.6666666666667,4,1,1,50,0,1
28710,-80,4,2,2,70,0,1
30014,-66.6666666666667,4,2,2,70,0,1
30449,-80,4,2,2,70,0,1
31449,-80,4,2,2,50,0,1
32319,-80,4,2,2,40,0,1
32580,-80,4,1,1,50,0,1
32971,-80,4,2,1,50,0,1
33275,-80,4,2,1,70,0,1
34014,-80,4,2,2,70,0,1
34710,-66.6666666666667,4,2,2,50,0,1
34884,-80,4,2,2,70,0,1
35232,-100,4,2,1,70,0,0
35362,-100,4,2,1,40,0,0
36145,-100,4,2,1,70,0,0
36275,-80,4,2,1,70,0,0
36536,-83.3333333333333,4,2,1,50,0,0
36797,-86.9565217391304,4,2,1,70,0,0
37058,-90.9090909090909,4,2,2,70,0,0
37232,-90.9090909090909,4,2,1,70,0,0
37319,-100,4,2,2,70,0,0
52449,-80,4,2,2,50,0,0
52710,-100,4,2,1,50,0,0
54014,-100,4,2,1,70,0,0
57710,-100,4,2,1,70,0,0
68580,-100,4,2,1,80,0,0
70406,-100,4,2,1,70,0,0
71232,-80,4,2,2,70,0,0
71493,-100,4,2,2,70,0,0
72754,-100,4,2,2,50,0,0
72840,-100,4,2,2,70,0,0
74101,-80,4,2,2,70,0,0
74362,-66.6666666666667,4,2,2,70,0,0
74623,-100,4,2,2,70,0,0
75406,-80,4,2,2,70,0,0
75667,-100,4,2,2,70,0,0
76927,-100,4,2,1,50,0,0
77188,-100,4,2,1,70,0,0
77275,-100,4,2,2,70,0,0
78275,-80,4,2,2,70,0,0
78536,-66.6666666666667,4,2,2,70,0,0
78797,-100,4,2,2,70,0,0
79058,-66.6666666666667,4,2,2,50,0,0
79580,-80,4,2,2,70,0,0
79840,-100,4,2,2,70,0,0
80623,-80,4,2,2,70,0,0
80884,-100,4,2,2,70,0,0
82449,-80,4,2,2,70,0,0
82710,-66.6666666666667,4,2,2,70,0,0
82971,-100,4,2,2,70,0,0
83884,-100,4,2,1,70,0,0
84145,-100,4,2,2,70,0,0
85536,-100,4,2,1,70,0,0
85623,-100,4,2,2,70,0,0
85797,-100,4,2,2,50,0,0
85927,-100,4,2,1,70,0,0
86580,-100,4,2,1,50,0,0
86667,-100,4,2,2,70,0,0
86971,-100,4,2,1,70,0,0
106188,-133.333333333333,4,2,1,70,0,0
106623,-100,4,2,1,70,0,0
107971,-100,4,2,2,70,0,0
108058,-100,4,2,1,70,0,0
108275,-80,4,2,2,70,0,1
108754,-80,4,2,1,70,0,1
108840,-80,4,2,2,70,0,1
109797,-80,4,1,1,70,0,1
110145,-80,4,2,2,70,0,1
111406,-66.6666666666667,4,2,2,70,0,1
111840,-80,4,2,2,70,0,1
113971,-80,4,1,1,70,0,1
114058,-80,4,2,2,70,0,1
115840,-66.6666666666667,4,2,2,70,0,1
116101,-57.1428571428571,4,2,2,70,0,1
116362,-80,4,2,2,70,0,1
116623,-66.6666666666667,4,2,2,70,0,1
116884,-80,4,2,2,70,0,1
118145,-80,4,1,1,70,0,1
118232,-80,4,2,2,70,0,1
122319,-80,4,1,1,70,0,1
122406,-80,4,2,2,70,0,1
123014,-80,4,2,2,50,0,1
123362,-80,4,2,2,70,0,1
123927,-66.6666666666667,4,2,2,70,0,1
124101,-80,4,2,1,70,0,1
124232,-80,4,2,2,70,0,1
124449,-66.6666666666667,4,2,2,70,0,1
124623,-80,4,2,2,70,0,1
126493,-80,4,1,1,70,0,1
126754,-80,4,2,2,70,0,1
128362,-66.6666666666667,4,2,2,70,0,1
128623,-57.1428571428571,4,2,2,70,0,1
128884,-80,4,2,2,70,0,1
129406,-66.6666666666667,4,2,2,70,0,1
129667,-80,4,2,2,70,0,1
130449,-80,4,2,2,50,0,1
130667,-80,4,1,1,70,0,1
130754,-80,4,2,2,70,0,1
132797,-57.1428571428571,4,2,2,70,0,1
133058,-80,4,2,2,70,0,1
134840,-80,4,1,1,70,0,1
134927,-80,4,2,2,70,0,1
135884,-80,4,2,2,50,0,1
135971,-80,4,2,2,70,0,1
136449,-66.6666666666667,4,2,2,70,0,1
136971,-57.1428571428571,4,2,2,70,0,1
137232,-80,4,2,2,70,0,1
139014,-80,4,1,1,70,0,1
139101,-80,4,2,2,70,0,1
139580,-66.6666666666667,4,2,2,70,0,1
139754,-80,4,2,1,70,0,1
139884,-80,4,2,2,70,0,1
140101,-66.6666666666667,4,2,2,70,0,1
140275,-80,4,2,2,70,0,1
141667,-100,4,2,1,70,0,0
144797,-80,4,2,2,50,0,0
145014,-80,4,1,1,50,0,0
145275,-80,4,2,2,50,0,0
145536,-80,4,1,1,50,0,0
145797,-100,4,1,1,70,0,0
146710,-100,4,2,1,70,0,0
147449,-100,4,2,2,70,0,0
148449,-133.333333333333,4,2,2,70,0,0
148623,-100,4,2,2,70,0,0
149493,-66.6666666666667,4,2,2,70,0,0
149667,-100,4,2,2,70,0,0
150014,-66.6666666666667,4,2,2,70,0,0
150275,-100,4,2,2,70,0,0
151275,-100,4,2,1,70,0,0
151638,-100,4,2,2,70,0,0
153101,-100,4,1,1,50,0,0
153188,-100,4,2,2,50,0,0
154188,-80,4,2,2,70,0,0
154449,-100,4,2,2,70,0,0
155710,-100,4,2,1,70,0,0
155797,-100,4,2,2,70,0,0
156536,-80,4,2,2,70,0,0
156797,-66.6666666666667,4,2,2,70,0,0
157058,-100,4,2,2,70,0,0
157840,-66.6666666666667,4,2,2,70,0,0
158101,-100,4,2,2,70,0,0
159927,-133.333333333333,4,2,2,70,0,0
160362,-100,4,2,2,70,0,0
163840,-80,4,2,2,70,0,0
164101,-66.6666666666667,4,2,2,50,0,0
164362,-100,4,2,2,70,0,0
165145,-66.6666666666667,4,2,2,70,0,0
165406,-100,4,2,2,70,0,0
166188,-66.6666666666667,4,2,2,70,0,0
166449,-100,4,2,2,70,0,0
168275,-80,4,2,2,70,0,0
168536,-100,4,2,2,70,0,0
168797,-66.6666666666667,4,2,2,70,0,0
169232,-100,4,2,2,70,0,0
171101,-100,4,2,2,50,0,0
171362,-100,4,2,2,70,0,0
172188,-80,4,2,2,70,0,0
172449,-66.6666666666667,4,2,2,50,0,0
172710,-100,4,2,2,70,0,0
175319,-80,4,2,2,70,0,0
175580,-66.6666666666667,4,2,2,70,0,0
175754,-100,4,2,2,70,0,0
177145,-100,4,2,1,70,0,0
183406,-133.333333333333,4,2,1,70,0,0
183667,-100,4,2,1,70,0,0
183927,-133.333333333333,4,2,1,70,0,0
184188,-100,4,2,1,70,0,0
184710,-80,4,2,1,70,0,0
184884,-100,4,2,1,70,0,0
189667,-66.6666666666667,4,2,1,70,0,0
189840,-100,4,2,1,70,0,0
191232,-80,4,2,1,70,0,0
191493,-100,4,2,1,70,0,0
193840,-66.6666666666667,4,2,1,70,0,0
194101,-100,4,2,1,70,0,0
196971,-80,4,2,1,70,0,0
197232,-133.333333333333,4,2,1,70,0,0
197493,-66.6666666666667,4,2,1,70,0,0
197754,-100,4,2,2,70,0,0
198014,-80,4,2,2,70,0,1
199536,-80,4,1,1,70,0,1
199623,-80,4,2,2,70,0,1
201667,-66.6666666666667,4,2,2,70,0,1
201797,-80,4,2,2,70,0,1
203754,-66.6666666666667,4,1,1,70,0,1
204014,-80,4,2,2,70,0,1
205840,-66.6666666666667,4,2,2,70,0,1
206101,-80,4,2,2,70,0,1
206362,-66.6666666666667,4,2,2,70,0,1
206536,-80,4,2,2,70,0,1
207884,-80,4,1,1,70,0,1
207971,-80,4,2,2,70,0,1
210014,-66.6666666666667,4,2,2,70,0,1
210188,-80,4,2,2,70,0,1
211797,-80,4,2,2,45,0,1
212101,-66.6666666666667,4,1,1,70,0,1
212275,-80,4,2,2,70,0,1
212623,-66.6666666666667,4,2,2,70,0,1
212797,-80,4,2,2,70,0,1
213667,-66.6666666666667,4,2,2,70,0,1
213840,-80,4,2,1,70,0,1
213971,-80,4,2,2,70,0,1
214145,-80,4,1,1,70,0,1
214232,-80,4,2,2,70,0,1
214710,-80,4,2,2,80,0,1
214927,-80,4,2,2,50,0,1
215014,-80,4,2,2,80,0,1
216232,-80,4,1,1,80,0,1
216319,-80,4,2,2,80,0,1
220406,-80,4,1,1,80,0,1
220493,-80,4,2,2,80,0,1
222536,-66.6666666666667,4,2,2,80,0,1
222710,-80,4,2,2,80,0,1
223275,-80,4,2,2,50,0,1
223362,-80,4,2,2,80,0,1
223536,-80,4,2,2,50,0,1
223623,-80,4,2,2,80,0,1
224580,-80,4,1,1,80,0,1
224667,-80,4,2,2,80,0,1
225884,-80,4,2,2,50,0,1
225971,-80,4,2,2,80,0,1
227449,-80,4,2,2,50,0,1
227710,-80,4,2,2,80,0,1
228754,-80,4,2,1,80,0,1
228840,-80,4,2,2,80,0,1
230319,-80,4,1,1,80,0,1
230406,-80,4,2,2,80,0,1
230580,-80,4,3,2,80,0,1
230884,-66.6666666666667,4,2,2,80,0,1
231058,-80,4,2,2,80,0,1
231319,-80,4,2,2,80,0,0
231406,-66.6666666666667,4,2,2,80,0,1
232971,-57.1428571428571,4,1,1,80,0,1
233406,-66.6666666666667,4,2,2,70,0,1
234536,-50,4,2,2,80,0,1
234971,-66.6666666666667,4,2,2,80,0,1
237101,-66.6666666666667,4,1,1,80,0,1
237188,-66.6666666666667,4,2,2,80,0,1
239232,-50,4,2,2,80,0,1
239493,-66.6666666666667,4,2,2,80,0,1
241275,-66.6666666666667,4,1,1,80,0,1
241362,-66.6666666666667,4,2,2,80,0,1
242884,-50,4,2,2,80,0,1
243319,-66.6666666666667,4,2,2,80,0,1
243927,-57.1428571428571,4,2,2,80,0,1
244101,-66.6666666666667,4,2,2,80,0,1
244971,-50,4,2,2,80,0,1
245449,-50,4,1,1,80,0,1
245667,-66.6666666666667,4,2,2,80,0,1
246014,-57.1428571428571,4,2,2,80,0,1
246188,-66.6666666666667,4,2,2,80,0,1
247058,-57.1428571428571,4,2,2,80,0,1
248580,-66.6666666666667,4,2,2,50,0,1
248667,-66.6666666666667,4,2,2,80,0,1
249667,-50,4,1,1,80,0,1
249840,-66.6666666666667,4,2,2,80,0,1
250927,-66.6666666666667,4,2,2,50,0,1
251014,-66.6666666666667,4,2,2,80,0,1
251232,-50,4,2,2,80,0,1
251667,-66.6666666666667,4,2,2,80,0,1
253797,-66.6666666666667,4,1,1,80,0,1
253884,-66.6666666666667,4,2,2,80,0,1
255927,-50,4,2,2,80,0,1
256188,-66.6666666666667,4,2,2,80,0,1
257188,-66.6666666666667,4,2,2,60,0,1
257275,-66.6666666666667,4,2,2,80,0,1
257971,-66.6666666666667,4,1,1,80,0,1
258058,-66.6666666666667,4,2,2,80,0,1
259580,-50,4,2,2,80,0,1
260014,-66.6666666666667,4,2,2,80,0,1
262058,-66.6666666666667,4,2,1,100,0,1
262319,-66.6666666666667,4,2,2,80,0,1
262710,-57.1428571428571,4,2,2,80,0,1
262884,-66.6666666666667,4,2,2,80,0,1
263232,-57.1428571428571,4,2,2,80,0,1
263406,-66.6666666666667,4,2,2,80,0,1
264275,-57.1428571428571,4,2,1,80,0,1
264449,-66.6666666666667,4,2,2,80,0,1
264536,-66.6666666666667,4,1,0,60,0,1
264797,-66.6666666666667,4,2,2,80,0,0

[Colours]
Combo1 : 175,221,254
Combo2 : 128,128,255
Combo3 : 139,243,202

[HitObjects]
64,220,1840,2,0,L|168:228,1,90,4|0,1:0|0:0,0:0:0:0:
248,292,2362,2,2,L|334:268,1,90,2|0,3:2|0:0,0:0:0:0:
432,240,2884,1,4,0:1:0:0:
328,168,3145,1,0,3:0:0:0:
432,240,3406,1,2,0:0:0:0:
428,112,3667,1,0,0:0:0:0:
312,68,3840,5,0,0:0:0:0:
288,88,3927,2,2,P|241:91|192:88,1,90,0|8,3:0|0:0,0:0:0:0:
112,56,4449,1,8,0:1:0:0:
24,132,4710,1,0,0:0:0:0:
96,220,4884,1,0,0:0:0:0:
132,220,4971,1,4,0:1:0:0:
204,300,5145,1,0,0:0:0:0:
240,300,5232,1,0,3:0:0:0:
368,264,5493,2,0,P|409:284|444:316,1,90,8|0,0:1|3:0,0:0:0:0:
428,136,5927,5,0,0:0:0:0:
408,160,6014,2,0,P|367:182|312:196,1,90,4|0,0:1|3:0,0:0:0:0:
84,136,6449,1,0,0:0:0:0:
104,160,6536,2,0,P|145:182|200:196,1,90,0|2,3:0|0:2,0:0:0:0:
336,108,6971,1,0,0:0:0:0:
336,108,7058,1,4,0:1:0:0:
176,108,7232,1,0,0:0:0:0:
176,108,7319,1,0,3:0:0:0:
256,256,7580,5,2,0:0:0:0:
256,80,7840,1,0,0:0:0:0:
376,192,8101,5,4,0:1:0:0:
256,96,8362,1,8,0:0:0:0:
136,204,8623,5,8,0:1:0:0:
256,108,8884,1,0,3:0:0:0:
300,232,9058,1,0,0:0:0:0:
328,232,9145,1,4,3:1:0:0:
208,308,9319,1,0,0:0:0:0:
180,308,9406,1,0,0:0:0:0:
304,368,9667,1,8,0:1:0:0:
304,368,9927,1,0,0:0:0:0:
416,312,10188,6,0,L|520:320,1,90,4|0,1:0|0:0,0:0:0:0:
328,232,10710,2,0,L|238:225,1,90,2|0,3:2|0:0,0:0:0:0:
140,164,11145,1,0,0:0:0:0:
108,160,11232,1,4,0:1:0:0:
280,152,11493,1,0,0:0:0:0:
180,92,11667,1,0,0:0:0:0:
148,88,11754,1,2,0:0:0:0:
328,80,12014,1,0,3:0:0:0:
228,20,12188,1,0,0:0:0:0:
196,16,12275,5,4,0:1:0:0:
32,144,12536,1,8,0:0:0:0:
212,248,12797,1,12,0:1:0:0:
376,120,13058,1,0,3:0:0:0:
404,324,13232,5,0,0:0:0:0:
404,324,13319,1,4,0:1:0:0:
212,248,13493,1,0,0:0:0:0:
212,248,13580,1,0,3:0:0:0:
376,120,13840,2,0,P|392:156|344:152,1,90,8|0,0:1|3:0,0:0:0:0:
328,48,14275,5,0,0:0:0:0:
360,36,14362,2,0,P|408:44|443:69,1,90,4|0,0:1|0:0,0:0:0:0:
176,120,14884,2,0,P|128:112|92:86,1,90,0|2,3:0|0:0,0:0:0:0:
164,36,15319,1,0,0:0:0:0:
164,36,15406,1,4,0:1:0:0:
376,120,15580,1,0,0:0:0:0:
376,120,15667,1,0,0:0:0:0:
256,256,15927,1,2,0:0:0:0:
256,128,16188,1,0,0:0:0:0:
92,256,16449,6,0,L|44:348,1,90,4|0,0:1|0:0,0:0:0:0:
56,164,16971,2,0,L|8:256,1,90,4|0,0:1|0:0,0:0:0:0:
20,72,17493,1,4,0:1:0:0:
140,168,17754,1,2,0:3:0:0:
296,148,18014,2,0,L|364:140,1,60,0|0,1:0|1:0,0:0:0:0:
372,212,18275,2,0,L|444:220,1,60,2|0,3:0|0:0,0:0:0:0:
504,228,18536,5,4,1:0:0:0:
256,192,18797,1,0,0:0:0:0:
24,84,19058,1,2,0:1:0:0:
56,84,19145,1,0,0:0:0:0:
88,84,19232,1,0,0:0:0:0:
120,84,19319,1,0,0:0:0:0:
184,192,19493,1,0,0:0:0:0:
220,192,19580,1,2,0:3:0:0:
260,312,19754,1,0,0:0:0:0:
292,312,19840,1,0,0:0:0:0:
324,312,19927,1,0,0:0:0:0:
356,312,20014,1,0,0:0:0:0:
388,312,20101,6,2,P|436:252|408:212,1,135.000005149842,2|0,2:0|0:0,0:1:0:0:
336,160,20536,1,0,0:0:0:0:
368,144,20623,2,0,P|404:136|456:148,1,75,0|0,3:0|0:0,0:0:0:0:
304,88,20884,2,0,P|268:96|216:84,1,75,0|0,0:0|0:0,0:0:0:0:
200,72,21145,1,0,1:0:0:0:
168,56,21232,1,0,0:0:0:0:
136,52,21319,1,0,0:0:0:0:
104,60,21406,6,2,P|72:80|36:128,1,75,4|0,2:1|0:0,0:0:0:0:
8,72,21667,2,0,P|14:112|12:164,1,75,0|0,1:0|0:0,0:0:0:0:
4,228,21927,1,8,3:0:0:0:
4,228,22014,1,0,0:0:0:0:
4,228,22101,1,0,0:0:0:0:
56,292,22188,2,0,P|88:308|136:312,1,75,8|0,0:0|0:0,0:0:0:0:
188,356,22449,2,0,P|211:325|248:304,1,75
320,260,22710,6,2,P|368:292|444:308,1,112.5,0|0,1:0|0:0,0:0:0:0:
404,208,23145,1,0,0:0:0:0:
368,188,23232,2,2,P|328:176|288:176,1,75,0|0,1:0|0:0,0:0:0:0:
168,228,23493,2,0,P|208:240|248:240,1,75
224,116,23754,2,0,P|184:104|144:104,1,75,0|0,1:0|0:0,0:0:0:0:
72,64,24014,5,2,0:1:0:0:
78,96,24101,1,0,0:0:0:0:
76,128,24188,1,0,0:0:0:0:
68,160,24275,2,0,P|48:220|56:288,1,112.5,2|0,2:0|0:0,0:0:0:0:
136,184,24710,5,0,0:0:0:0:
152,168,24797,2,2,P|200:192|276:192,1,112.5,0|8,0:0|0:2,0:0:0:0:
440,80,25319,2,2,P|392:56|316:56,1,112.5,8|2,1:0|0:1,0:0:0:0:
360,168,25754,1,0,0:0:0:0:
392,184,25840,2,2,P|429:194|472:192,1,75,2|0,1:0|0:0,0:0:0:0:
376,264,26101,2,0,P|352:288|336:332,1,75,0|0,0:0|0:0,0:0:0:0:
308,216,26362,1,8,0:0:0:0:
88,208,26623,6,0,P|48:224|16:232,1,75,0|0,3:0|0:0,0:0:0:0:
144,260,26884,2,0,P|184:272|224:276,1,75,4|0,0:0|0:0,0:0:0:0:
276,328,27145,2,2,P|304:308|356:280,1,75,4|0,2:1|2:0,0:0:0:0:
376,220,27406,5,8,1:0:0:0:
408,228,27493,1,0,0:0:0:0:
440,216,27580,1,0,0:0:0:0:
456,188,27667,2,0,P|452:152|416:132,1,75,0|0,0:0|0:0,0:0:0:0:
372,52,27927,2,0,P|344:79|300:96,1,75,0|0,1:0|0:0,0:0:0:0:
304,176,28188,5,0,0:0:0:0:
272,180,28275,1,0,0:0:0:0:
240,172,28362,1,0,0:0:0:0:
208,148,28449,2,2,B|161:91|189:76|144:22,1,135.000005149842,2|0,2:0|0:1,0:1:0:0:
92,96,28797,1,0,0:0:0:0:
92,96,28884,1,0,0:0:0:0:
92,96,28971,2,0,P|84:156|52:220,1,112.5,0|8,1:0|0:1,0:0:0:0:
168,344,29493,5,0,1:0:0:0:
152,316,29580,1,0,0:0:0:0:
148,284,29667,1,0,0:0:0:0:
148,252,29754,2,2,P|160:212|184:176,1,75,0|0,0:0|0:0,0:0:0:0:
188,80,30014,6,2,P|234:84|292:76,1,90.0000034332277,0|0,0:0|0:0,0:0:0:0:
464,148,30275,2,2,P|417:143|360:152,1,90.0000034332277,0|0,0:0|0:0,0:0:0:0:
240,244,30536,6,2,P|268:244|296:251,1,56.25,8|0,0:0|0:0,0:0:0:0:
480,240,30797,2,2,P|452:240|424:233,1,56.25,0|0,0:0|0:0,0:0:0:0:
300,164,31058,5,0,1:0:0:0:
404,312,31319,1,0,0:0:0:0:
224,324,31580,2,2,P|186:305|160:276,1,75,10|0,0:1|0:0,0:0:0:0:
164,184,31840,2,2,P|128:192|76:188,1,75,0|0,0:0|0:0,0:0:0:0:
8,104,32101,2,2,P|44:96|96:100,1,75,0|0,0:0|0:0,0:0:0:0:
160,52,32362,5,2,0:1:0:0:
176,88,32449,1,0,0:0:0:0:
204,112,32536,1,0,0:0:0:0:
236,128,32623,2,2,P|296:124|340:80,1,112.5,2|0,2:0|3:0,0:0:0:0:
256,32,33058,5,0,0:0:0:0:
256,32,33145,1,0,1:0:0:0:
112,192,33406,1,8,3:2:0:0:
256,56,33667,5,8,0:1:0:0:
400,216,33928,1,0,3:0:0:0:
192,264,34101,5,0,0:0:0:0:
192,264,34188,2,2,L|126:300,1,75,0|0,0:0|0:0,0:0:0:0:
92,320,34449,1,12,0:1:0:0:
320,264,34710,2,0,L|400:312,1,90.0000034332277,12|0,0:0|0:0,0:0:0:0:
432,332,34971,1,0,0:0:0:0:
256,192,35232,5,4,3:2:0:0:
256,192,35493,1,0,3:0:0:0:
256,192,35754,1,0,3:0:0:0:
256,192,36014,1,0,3:0:0:0:
476,284,36275,6,0,L|456:204,1,75,0|0,3:0|0:0,0:0:0:0:
412,88,36536,2,0,L|398:158,1,71.9999978027344,2|0,0:3|0:0,0:0:0:0:
348,272,36797,2,0,L|328:192,1,69.0000013160706,0|0,1:0|1:0,0:0:0:0:
270,127,37058,2,0,L|256:192,1,66.0000020141602,2|0,0:3|0:0,0:0:0:0:
232,280,37319,5,4,0:0:0:0:
152,168,37580,2,0,L|137:232,1,60
160,304,37840,2,0,P|112:304|52:332,1,90,8|0,0:0|0:0,0:0:0:0:
80,148,38362,2,0,L|92:89,1,60
112,8,38623,1,0,1:0:0:0:
288,96,38884,6,0,P|336:96|396:68,1,90,8|0,0:0|0:0,0:0:0:0:
416,16,39319,1,0,0:0:0:0:
416,16,39406,2,0,P|450:39|500:52,1,90,8|0,0:3|0:0,0:0:0:0:
420,212,39840,5,0,0:0:0:0:
416,248,39927,2,0,L|408:300,2,30,8|0|0,0:0|0:0|0:0,0:0:0:0:
348,192,40188,2,0,L|352:162,2,30
280,136,40449,1,0,1:0:0:0:
172,244,40623,5,0,0:0:0:0:
172,244,40710,2,0,L|104:272,1,60,4|0,0:1|0:0,0:0:0:0:
24,260,40971,1,8,0:0:0:0:
24,260,41232,5,0,0:0:0:0:
72,160,41406,1,0,0:0:0:0:
108,168,41493,2,0,P|152:168|208:152,1,90,0|0,1:0|0:0,0:0:0:0:
440,224,41927,1,0,0:0:0:0:
404,216,42014,2,0,P|360:216|304:232,1,90,8|0,0:0|0:0,0:0:0:0:
256,192,42449,1,0,0:0:0:0:
256,192,42536,1,0,0:0:0:0:
256,192,42797,1,0,1:0:0:0:
164,284,43058,6,0,L|60:284,1,90,8|0,0:0|0:0,0:0:0:0:
292,352,43493,1,0,0:0:0:0:
328,352,43580,1,0,1:0:0:0:
180,208,43840,6,0,L|112:208,1,60
288,264,44101,1,8,0:0:0:0:
200,132,44362,2,0,L|132:132,1,60
308,188,44623,1,0,1:0:0:0:
404,252,44797,1,0,0:0:0:0:
448,252,44884,1,0,0:0:0:0:
220,56,45145,6,0,L|116:56,1,90,8|0,0:0|0:0,0:0:0:0:
316,112,45580,1,0,0:0:0:0:
316,112,45667,2,0,L|432:112,1,90,12|0,0:0|0:0,0:0:0:0:
236,200,46101,1,0,0:0:0:0:
200,200,46188,2,0,L|96:200,1,90,8|0,0:0|0:0,0:0:0:0:
312,288,46536,6,0,L|282:288,1,30
212,328,46710,2,0,L|180:328,2,30
112,356,46971,2,0,L|90:334|64:308,1,60,0|0,1:0|0:0,0:0:0:0:
0,284,47232,6,0,P|20:240|28:180,1,90,8|0,0:0|0:0,0:0:0:0:
52,64,47667,1,0,0:0:0:0:
64,100,47754,2,0,P|88:136|136:176,1,90,0|0,1:0|0:0,0:0:0:0:
152,272,48188,1,0,0:0:0:0:
176,244,48275,2,0,P|201:224|232:208,1,60,8|0,0:0|0:0,0:0:0:0:
236,104,48536,2,0,P|264:116|304:124,1,60
344,208,48797,2,0,L|420:180,1,60,8|0,0:3|0:0,0:0:0:0:
440,108,49058,2,0,L|520:124,1,60,2|0,0:0|0:0,0:0:0:0:
172,56,49319,5,10,0:0:0:0:
172,56,49580,5,0,0:0:0:0:
144,152,49754,1,0,0:0:0:0:
144,192,49840,1,0,1:0:0:0:
100,80,50101,1,0,0:0:0:0:
72,176,50275,1,0,0:0:0:0:
72,216,50361,1,8,0:0:0:0:
28,104,50623,5,0,0:0:0:0:
0,200,50797,1,0,0:0:0:0:
0,240,50884,2,0,L|0:276,2,30
0,348,51145,1,0,1:0:0:0:
244,32,51406,6,0,L|256:108,1,60,8|0,0:0|0:0,0:0:0:0:
272,236,51667,2,0,L|300:164,1,60
352,72,51927,2,0,P|384:108|432:136,1,90,8|0,0:3|0:0,0:0:0:0:
356,208,52362,5,0,0:0:0:0:
360,244,52449,2,0,P|332:304|284:324,1,112.5,12|0,0:0|0:0,0:0:0:0:
176,304,52884,5,0,3:0:0:0:
132,308,52971,1,2,0:0:0:0:
44,232,53145,1,0,3:0:0:0:
0,236,53232,1,0,1:0:0:0:
176,220,53493,1,4,0:1:0:0:
88,144,53667,1,0,0:0:0:0:
44,148,53754,1,4,3:1:0:0:
272,56,54014,6,0,L|336:52,1,60,4|0,0:0|0:0,0:0:0:0:
512,92,54275,2,0,L|452:95,1,60,8|0,0:0|0:0,0:0:0:0:
244,164,54536,2,0,L|302:138,1,60,8|0,0:1|0:0,0:0:0:0:
481,115,54797,2,0,L|426:138,1,60,4|0,0:1|0:0,0:0:0:0:
256,272,55058,6,0,L|302:227,1,60,0|0,3:0|0:0,0:0:0:0:
392,260,55319,2,0,L|420:202,1,60,4|0,0:3|0:0,0:0:0:0:
256,272,55580,2,0,L|210:227,1,60,8|0,0:0|0:0,0:0:0:0:
120,260,55841,2,0,L|92:202,1,60,4|0,0:3|0:0,0:0:0:0:
152,24,56101,6,0,L|178:78,1,60,4|0,1:0|0:0,0:0:0:0:
312,88,56362,2,0,L|252:83,1,60,8|0,0:0|0:0,0:0:0:0:
176,200,56623,2,0,L|209:150,1,60,8|0,0:1|0:0,0:0:0:0:
216,144,56884,1,8,0:1:0:0:
416,56,57058,5,8,0:1:0:0:
428,88,57145,2,2,L|456:152,1,60,4|0,0:1|0:0,0:0:0:0:
364,160,57406,2,2,L|392:224,1,60,4|0,0:3|0:0,0:0:0:0:
300,232,57667,2,2,L|328:296,1,60,2|0,0:0|0:0,0:0:0:0:
236,304,57927,2,2,L|264:368,1,60,8|0,0:1|0:0,0:0:0:0:
84,296,58188,6,0,L|56:232,1,60,4|0,0:1|0:0,0:0:0:0:
104,56,58449,2,0,L|128:110,1,60,8|0,0:0|0:0,0:0:0:0:
160,284,58710,2,0,L|132:220,1,60,4|0,1:0|0:0,0:0:0:0:
180,44,58971,2,0,L|204:98,1,60,8|0,0:1|0:0,0:0:0:0:
428,296,59232,6,0,L|456:232,1,60,8|0,0:0|0:0,0:0:0:0:
408,56,59493,2,0,L|383:110,1,60,4|0,0:1|0:0,0:0:0:0:
352,284,59754,2,0,L|380:220,1,60,2|0,0:0|0:0,0:0:0:0:
332,44,60015,2,0,L|307:98,1,60,8|0,0:1|0:0,0:0:0:0:
16,240,60275,6,0,L|104:212,1,90,4|0,0:1|0:0,0:0:0:0:
248,76,60710,1,0,0:0:0:0:
212,88,60797,2,0,L|126:115,1,90,4|8,1:0|0:1,0:0:0:0:
392,156,61232,1,0,0:0:0:0:
440,140,61319,1,4,0:1:0:0:
332,272,61493,1,0,3:0:0:0:
284,288,61580,2,0,P|256:292|208:292,1,60,4|0,0:1|0:0,0:0:0:0:
156,224,61840,5,2,1:2:0:0:
148,248,61927,1,0,0:0:0:0:
120,248,62014,1,0,0:0:0:0:
112,276,62101,2,0,L|48:308,1,60,4|0,0:1|0:0,0:0:0:0:
132,140,62362,6,0,L|185:113,1,60,4|0,0:0|0:0,0:0:0:0:
380,140,62623,2,0,L|326:113,1,60,0|0,0:0|0:0,0:0:0:0:
120,52,62884,2,0,L|66:78,1,60,8|0,1:0|0:0,0:0:0:0:
392,52,63145,2,0,L|445:78,1,60,8|0,0:0|0:0,0:0:0:0:
356,308,63406,6,0,L|344:236,1,60,4|0,0:1|0:0,0:0:0:0:
156,76,63667,2,0,L|165:135,1,60,4|0,0:3|0:0,0:0:0:0:
140,292,63927,2,0,L|212:280,1,60,2|0,1:2|0:0,0:0:0:0:
372,92,64188,2,0,L|312:101,1,60,4|0,0:3|0:0,0:0:0:0:
380,168,64449,6,0,L|439:158,1,60,0|0,1:0|0:0,0:0:0:0:
132,216,64710,2,0,L|72:225,1,60,8|0,0:0|0:0,0:0:0:0:
280,316,64971,2,0,L|289:375,1,60,8|0,0:1|0:0,0:0:0:0:
232,68,65232,2,0,L|222:8,1,60,8|0,0:1|0:0,0:0:0:0:
248,144,65493,6,2,L|312:140,1,60,4|0,0:1|0:0,0:0:0:0:
264,240,65754,2,0,L|200:244,1,60,4|0,1:3|0:0,0:0:0:0:
344,236,66014,2,0,L|358:294,1,60,8|0,1:2|0:0,0:0:0:0:
168,148,66275,2,0,L|153:89,1,60,8|0,0:1|0:0,0:0:0:0:
120,272,66536,6,0,L|135:331,1,60,4|0,0:0|0:0,0:0:0:0:
24,220,66797,2,0,L|39:279,1,60,10|0,0:0|0:0,0:0:0:0:
232,304,67058,2,0,P|279:294|340:268,1,90,8|8,0:1|0:1,0:0:0:0:
440,288,67493,1,8,0:1:0:0:
412,276,67580,2,0,P|392:256|376:228,1,60,4|0,0:1|0:0,0:0:0:0:
341,124,67840,6,0,L|400:140,1,60,4|0,1:0|0:0,0:0:0:0:
228,60,68101,2,0,L|284:40,1,60,2|0,0:0|0:0,0:0:0:0:
92,92,68362,2,0,L|144:120,1,60,8|0,0:1|0:0,0:0:0:0:
256,192,68623,5,8,1:0:0:0:
256,192,68884,1,8,0:1:0:0:
256,192,69145,1,8,0:1:0:0:
256,192,69406,1,8,0:1:0:0:
256,192,69667,1,8,0:1:0:0:
256,192,69927,1,8,3:0:0:0:
256,192,70188,6,0,L|184:228,1,60,4|0,0:0|0:0,0:0:0:0:
388,196,70449,2,0,L|441:169,1,60,2|0,3:0|0:0,0:0:0:0:
132,256,70710,5,4,0:0:0:0:
132,256,71145,1,0,0:0:0:0:
172,260,71232,2,0,L|288:272,1,112.5,8|0,0:0|0:0,0:0:0:0:
500,252,71667,1,0,0:0:0:0:
512,244,71754,2,0,L|422:237,1,90,0|0,0:0|1:0,0:0:0:0:
36,196,72275,5,8,0:0:0:0:
36,196,72536,2,0,P|15:231|0:268,1,60
120,200,72797,2,0,B|157:193|188:181|188:181|256:116,1,150,8|0,0:3|0:0,0:0:0:0:
280,40,73319,1,8,0:0:0:0:
296,60,73406,1,0,0:0:0:0:
312,80,73493,1,0,0:0:0:0:
328,100,73580,1,0,0:0:0:0:
280,196,73754,5,0,0:0:0:0:
288,232,73840,1,8,0:3:0:0:
196,264,74014,1,0,0:0:0:0:
176,300,74101,2,0,P|144:320|100:328,1,75,0|0,1:0|0:0,0:0:0:0:
264,348,74362,6,0,B|324:364|336:355|404:364,1,135.000005149842,8|0,0:0|0:0,0:0:0:0:
456,212,74797,5,0,0:0:0:0:
420,224,74884,2,0,P|356:188|356:112,1,150,0|0,1:0|0:0,0:0:0:0:
160,156,75406,2,0,P|220:156|272:164,1,112.5,8|0,0:0|0:0,0:0:0:0:
128,264,75841,1,0,0:0:0:0:
100,272,75927,2,0,P|52:272|-4:264,1,90,0|0,0:0|1:0,0:0:0:0:
420,152,76449,1,8,0:0:0:0:
420,152,76710,6,0,L|404:224,1,60,8|0,0:3|0:0,0:0:0:0:
456,32,76971,2,0,L|492:120,1,90,4|2,0:3|0:3,0:0:0:0:
384,292,77493,1,8,0:0:0:0:
260,320,77667,1,0,0:0:0:0:
220,326,77754,1,2,0:0:0:0:
128,248,77927,1,0,0:0:0:0:
92,241,78014,1,0,0:0:0:0:
80,100,78275,2,0,P|56:69|16:36,1,75,0|0,1:0|0:0,0:0:0:0:
160,80,78536,6,0,P|225:89|316:80,1,135.000005149842,8|0,0:0|0:0,0:0:0:0:
120,156,78971,5,0,0:0:0:0:
152,164,79058,2,0,P|232:129|205:8,1,225.000008583069,12|0,0:0|0:0,0:0:0:0:
356,156,79580,2,0,P|408:176|464:176,1,112.5,0|0,1:0|0:0,0:0:0:0:
284,244,80014,5,0,0:0:0:0:
244,264,80101,2,0,L|180:292,1,60
356,336,80362,2,0,L|287:314,1,60,0|0,1:0|0:0,0:0:0:0:
28,248,80623,2,0,B|79:246|84:238|84:238|148:228,1,112.5,8|0,0:0|0:0,0:0:0:0:
380,148,81058,5,0,0:0:0:0:
380,148,81145,2,0,B|292:160|292:160|265:143|244:112,1,150,8|0,0:3|0:0,0:0:0:0:
308,56,81667,1,8,0:0:0:0:
344,44,81754,1,0,0:0:0:0:
380,44,81840,1,0,0:0:0:0:
416,56,81927,2,0,P|440:72|468:108,1,60
480,236,82188,2,0,P|456:220|428:184,1,60
352,304,82449,2,0,P|332:332|288:356,1,75,0|0,1:0|0:0,0:0:0:0:
48,252,82710,6,0,P|112:222|192:220,1,135.000005149842,8|0,0:0|0:0,0:0:0:0:
136,324,83145,5,0,0:0:0:0:
136,324,83232,1,8,1:3:0:0:
136,324,83667,1,0,0:0:0:0:
136,324,83754,1,8,0:0:0:0:
352,304,84014,1,4,0:1:0:0:
228,124,84275,1,0,0:0:0:0:
252,360,84536,1,0,1:0:0:0:
444,220,84797,1,8,0:0:0:0:
148,152,85058,6,0,L|88:172,1,60
48,184,85319,1,8,0:3:0:0:
252,260,85580,2,0,L|192:240,1,60,2|0,0:3|0:0,0:0:0:0:
152,228,85841,1,12,0:0:0:0:
296,196,86014,5,0,0:0:0:0:
336,208,86101,2,0,L|392:226,1,60,2|0,0:3|0:0,0:0:0:0:
432,240,86362,1,0,3:0:0:0:
260,88,86536,1,0,1:0:0:0:
300,104,86623,1,8,3:0:0:0:
112,164,86884,2,0,L|50:191,1,60,8|0,1:2|0:0,0:0:0:0:
19,206,87145,1,0,3:0:0:0:
200,292,87406,6,0,L|284:288,1,60,4|0,0:0|0:0,0:0:0:0:
396,340,87667,2,0,L|350:269,1,60,8|0,0:0|0:0,0:0:0:0:
340,148,87927,2,0,L|301:222,1,60,8|0,0:1|0:0,0:0:0:0:
300,228,88188,1,0,3:0:0:0:
212,140,88362,5,0,0:0:0:0:
184,128,88449,1,4,3:0:0:0:
12,116,88623,1,0,0:0:0:0:
40,128,88710,1,4,3:0:0:0:
280,76,88884,1,0,0:0:0:0:
252,64,88971,1,2,3:2:0:0:
80,52,89145,1,0,0:0:0:0:
108,64,89232,1,8,3:1:0:0:
352,16,89406,5,0,0:0:0:0:
384,28,89493,2,0,L|460:56,1,60,4|0,1:0|0:0,0:0:0:0:
276,164,89754,2,0,L|322:115,1,60,8|0,0:0|0:0,0:0:0:0:
120,144,90014,2,0,P|72:151|8:152,1,90,8|8,0:1|0:1,0:0:0:0:
208,288,90449,5,8,0:1:0:0:
208,288,90536,2,0,L|166:224,1,60,4|0,0:1|0:0,0:0:0:0:
296,136,90797,2,0,L|254:72,1,60,4|0,3:0|0:0,0:0:0:0:
248,212,91058,2,0,L|206:148,1,60,2|0,0:0|0:0,0:0:0:0:
336,60,91319,2,0,L|294:-3,1,60,8|0,0:1|0:0,0:0:0:0:
96,156,91580,6,0,P|55:168|4:176,1,90,4|8,0:1|0:0,0:0:0:0:
248,212,92014,1,0,0:0:0:0:
280,192,92101,2,0,P|320:180|372:172,1,90,4|8,0:1|0:0,0:0:0:0:
224,104,92536,5,0,0:0:0:0:
188,96,92623,1,4,3:0:0:0:
356,256,92797,1,0,0:0:0:0:
392,264,92884,1,4,3:0:0:0:
132,164,93058,1,0,0:0:0:0:
96,156,93145,1,2,3:2:0:0:
264,316,93319,1,0,0:0:0:0:
300,324,93406,1,4,3:0:0:0:
96,76,93580,5,0,0:0:0:0:
60,68,93667,2,0,L|-4:52,1,60,4|0,1:0|0:0,0:0:0:0:
300,120,93927,2,0,L|352:90,1,60,8|0,0:1|0:0,0:0:0:0:
96,156,94188,2,0,L|32:140,1,60,8|0,0:1|0:0,0:0:0:0:
336,208,94449,2,0,L|388:178,1,60,8|8,0:1|0:1,0:0:0:0:
212,228,94710,6,0,L|159:257,1,60,4|0,1:0|0:0,0:0:0:0:
460,212,94971,2,0,L|513:183,1,60,4|0,0:1|0:0,0:0:0:0:
96,204,95232,1,2,0:0:0:0:
64,220,95319,1,0,0:0:0:0:
32,236,95406,1,0,0:0:0:0:
0,252,95493,1,8,0:1:0:0:
224,108,95667,5,0,0:0:0:0:
255,126,95754,2,0,P|303:137|344:140,1,90,4|4,0:0|0:3,0:0:0:0:
204,232,96188,1,0,0:0:0:0:
168,244,96275,2,0,P|140:260|116:280,1,60,8|0,1:0|0:0,0:0:0:0:
272,336,96536,2,0,P|300:320|324:300,1,60,4|0,0:1|0:0,0:0:0:0:
344,140,96797,2,0,P|316:156|292:176,1,60,4|0,3:0|0:0,0:0:0:0:
456,240,97058,2,0,P|484:224|516:192,1,60,4|0,3:0|0:0,0:0:0:0:
448,128,97319,5,10,1:2:0:0:
448,128,97580,1,4,3:0:0:0:
348,40,97754,1,0,0:0:0:0:
296,56,97840,2,0,L|210:27,1,90,4|0,1:0|0:0,0:0:0:0:
176,156,98275,1,0,0:0:0:0:
124,172,98362,2,0,L|52:148,1,60,8|0,0:0|0:0,0:0:0:0:
244,272,98623,2,0,L|300:290,1,60,8|8,0:1|0:1,0:0:0:0:
88,296,98884,6,0,L|69:352,1,60,4|0,1:0|0:0,0:0:0:0:
288,148,99145,2,0,L|269:204,1,60,4|0,3:0|0:0,0:0:0:0:
188,224,99406,2,0,L|169:280,1,60,2|0,0:0|0:0,0:0:0:0:
388,76,99667,2,0,L|369:132,1,60,4|0,3:0|0:0,0:0:0:0:
336,224,99927,5,4,0:0:0:0:
336,224,100188,2,0,L|404:224,1,60,8|0,0:0|0:0,0:0:0:0:
160,320,100449,2,0,L|220:320,1,60,8|0,0:1|0:0,0:0:0:0:
292,320,100710,1,8,0:1:0:0:
292,320,100884,5,8,0:1:0:0:
372,320,100971,2,0,L|432:320,1,60,4|0,0:1|0:0,0:0:0:0:
144,240,101232,6,0,L|84:240,1,60,4|0,0:1|0:0,0:0:0:0:
32,188,101493,2,0,L|2:239,1,60,2|0,0:0|0:0,0:0:0:0:
108,164,101754,2,0,L|78:112,1,60,8|0,0:1|0:0,0:0:0:0:
32,40,102014,5,4,0:0:0:0:
388,216,102275,2,0,P|416:224|460:232,1,60
336,328,102536,2,0,P|308:337|268:357,1,60,8|0,0:0|0:0,0:0:0:0:
311,207,102797,2,0,P|327:182|348:143,1,60,8|0,0:1|0:1,0:0:0:0:
403,291,103058,2,0,P|404:320|410:364,1,60,4|0,0:1|0:0,0:0:0:0:
280,276,103319,1,0,3:0:0:0:
280,276,103580,6,0,P|262:253|231:220,1,60,2|0,0:0|0:0,0:0:0:0:
115,271,103840,2,0,P|143:266|187:256,1,60,8|0,0:1|0:0,0:0:0:0:
195,127,104101,6,0,P|184:154|171:196,1,60,4|0,0:0|0:0,0:0:0:0:
232,60,104362,2,0,P|205:49|163:36,1,60,8|0,0:0|0:0,0:0:0:0:
304,88,104623,2,0,P|315:61|328:19,1,60,8|0,0:1|0:0,0:0:0:0:
264,156,104884,2,0,P|291:167|333:180,1,60,8|8,0:1|0:1,0:0:0:0:
124,92,105145,6,0,P|113:119|100:161,1,60,4|0,1:0|0:0,0:0:0:0:
260,340,105406,2,0,P|271:313|284:271,1,60,4|0,0:1|0:0,0:0:0:0:
232,60,105667,2,0,P|221:87|208:129,1,60,2|0,0:0|0:0,0:0:0:0:
368,308,105928,2,0,P|379:281|392:239,1,60,8|0,0:1|0:0,0:0:0:0:
340,28,106188,6,0,P|332:47|300:144,1,112.500004291535,4|0,0:0|0:0,0:0:0:0:
288,216,106710,1,0,1:0:0:0:
288,216,106971,1,4,1:0:0:0:
200,164,107145,5,0,0:0:0:0:
148,184,107232,2,0,L|88:204,1,60,4|0,0:0|0:0,0:0:0:0:
248,300,107493,2,0,L|268:360,1,60,2|0,3:0|0:0,0:0:0:0:
364,200,107754,2,0,L|424:180,1,60,4|0,0:0|0:0,0:0:0:0:
264,84,108014,2,0,L|244:24,1,60,2|0,3:0|0:0,0:0:0:0:
256,192,108275,5,4,3:0:0:0:
352,292,108536,2,0,L|416:356,1,75
424,212,108797,1,2,0:0:0:0:
420,168,108884,1,0,0:0:0:0:
428,124,108971,1,0,0:0:0:0:
448,84,109058,2,0,P|472:56|512:28,1,75,4|0,0:1|0:0,0:0:0:0:
324,40,109319,6,2,P|287:33|243:12,1,75,0|0,0:0|0:0,0:0:0:0:
160,104,109580,2,2,P|123:110|79:131,1,75,0|0,0:0|0:0,0:0:0:0:
56,320,109840,6,0,P|96:344|112:292,1,112.5,2|0,1:2|2:0,0:0:0:0:
16,200,110275,1,0,0:0:0:0:
16,200,110362,1,0,1:0:0:0:
184,348,110536,1,0,0:0:0:0:
212,352,110623,2,2,P|248:344|280:316,1,75,0|0,0:0|0:0,0:0:0:0:
384,300,110884,2,0,P|368:264|364:216,1,75,2|0,0:0|0:0,0:0:0:0:
360,96,111145,5,4,0:1:0:0:
324,136,111232,1,0,0:0:0:0:
272,140,111319,1,0,0:0:0:0:
232,108,111406,2,2,P|216:60|232:12,1,90.0000034332277,0|0,0:0|0:0,0:0:0:0:
304,208,111667,2,2,P|270:245|220:256,1,90.0000034332277,0|0,0:0|0:0,0:0:0:0:
360,96,111927,6,2,P|399:100|412:108,1,56.25,8|0,0:0|0:0,0:0:0:0:
232,108,112188,2,0,P|216:72|216:55,1,56.25,12|0,0:1|0:0,0:0:0:0:
304,208,112449,6,0,P|270:245|220:256,1,75,0|0,1:0|0:0,0:0:0:0:
28,224,112710,2,2,P|62:187|112:176,1,75,0|0,0:0|0:0,0:0:0:0:
304,208,112971,1,0,1:0:0:0:
304,208,113232,6,2,P|270:245|220:256,1,75,0|0,0:0|0:0,0:0:0:0:
28,224,113493,1,8,0:1:0:0:
188,168,113667,1,0,0:0:0:0:
188,168,113754,1,0,0:0:0:0:
152,336,113927,1,0,0:0:0:0:
152,336,114014,2,0,P|120:360|108:300,1,112.5,2|0,2:0|0:0,0:0:0:0:
228,256,114449,5,0,0:0:0:0:
320,276,114536,1,0,1:0:0:0:
472,88,114797,1,8,0:1:0:0:
344,300,115058,1,2,0:0:0:0:
172,124,115319,1,4,0:1:0:0:
376,276,115493,5,0,0:0:0:0:
436,272,115580,2,0,L|520:268,1,75,8|0,0:1|0:0,0:0:0:0:
224,212,115840,2,2,L|317:191,1,90.0000034332277,4|0,0:1|0:0,0:0:0:0:
12,160,116101,2,2,P|92:128|120:48,1,157.500001502037,8|0,0:0|0:0,0:0:0:0:
72,224,116536,5,0,0:0:0:0:
72,224,116623,2,0,P|92:140|16:68,1,180.000006866455,4|0,0:0|0:0,0:0:0:0:
208,176,117145,5,8,1:0:0:0:
256,192,117232,1,0,0:0:0:0:
308,192,117319,1,0,0:0:0:0:
360,180,117406,2,0,P|388:152|404:108,1,75
312,288,117667,6,2,P|350:298|396:290,1,75,0|0,0:0|0:0,0:0:0:0:
196,300,117927,2,2,P|206:338|236:374,1,75,0|0,0:0|0:0,0:0:0:0:
116,232,118188,2,2,P|64:252|4:242,1,112.5,2|0,0:2|0:0,0:0:0:0:
84,132,118580,5,0,0:0:0:0:
156,144,118710,2,0,P|188:168|208:200,1,75,0|0,1:0|0:0,0:0:0:0:
347,129,118971,2,0,P|310:145|273:146,1,75,8|0,0:1|0:0,0:0:0:0:
264,302,119232,2,0,P|269:262|286:229,1,75,0|0,1:0|0:0,0:0:0:0:
116,232,119493,5,0,0:0:0:0:
68,212,119580,1,0,0:0:0:0:
44,164,119667,1,0,0:0:0:0:
48,112,119754,2,2,P|64:80|92:44,1,75,8|0,1:0|0:0,0:0:0:0:
336,32,120014,2,2,P|320:64|292:100,1,75,0|0,0:0|0:0,0:0:0:0:
116,232,120275,2,2,P|132:200|160:164,1,75,8|0,0:0|0:0,0:0:0:0:
404,152,120536,6,0,P|388:184|360:220,1,75,4|0,1:0|0:0,0:0:0:0:
376,72,120797,1,4,0:0:0:0:
376,72,121058,6,0,P|411:69|456:76,1,75,0|0,0:0|0:0,3:0:0:0:
320,140,121320,1,0,1:0:0:0:
320,140,121580,6,0,P|300:110|283:67,1,75,0|0,0:0|0:0,3:0:0:0:
404,152,121840,1,4,0:0:0:0:
404,152,122014,5,0,0:0:0:0:
364,216,122101,2,2,P|328:228|284:224,1,75,8|0,1:0|0:0,0:0:0:0:
160,108,122362,2,2,P|196:96|240:100,1,75,10|0,2:0|0:0,0:0:0:0:
192,200,122623,6,0,P|164:208|120:204,1,56.25,4|0,0:1|0:0,0:0:0:0:
52,176,122884,1,4,0:0:0:0:
52,176,123145,6,2,P|29:211|16:256,1,75,4|0,0:1|0:0,0:0:0:0:
160,368,123406,1,2,0:0:0:0:
192,328,123493,1,0,0:0:0:0:
204,276,123580,1,0,0:1:0:0:
244,312,123667,2,2,P|277:328|336:328,1,75,0|0,0:0|0:0,0:0:0:0:
512,240,123927,6,0,P|472:224|412:220,1,90.0000034332277,4|0,0:0|0:0,0:0:0:0:
368,112,124188,2,0,P|340:140|304:152,1,75,2|0,0:3|0:0,0:0:0:0:
120,80,124449,6,2,P|160:64|220:60,1,90.0000034332277,8|0,0:0|0:0,0:0:0:0:
168,176,124710,2,0,P|129:188|76:188,1,75,2|0,0:3|0:0,0:0:0:0:
16,120,124971,5,4,1:3:0:0:
272,208,125232,1,4,0:1:0:0:
308,244,125319,1,0,0:0:0:0:
324,296,125406,1,0,0:0:0:0:
336,236,125493,5,2,0:1:0:0:
376,192,125580,1,0,0:0:0:0:
436,180,125667,1,0,0:0:0:0:
492,200,125754,2,2,P|511:238|512:272,1,75,0|0,2:0|0:0,0:0:0:0:
332,104,126014,6,2,P|313:66|312:32,1,75,0|0,1:0|0:0,0:0:0:0:
344,268,126275,2,0,P|382:249|416:248,1,75,0|0,2:0|0:0,0:0:0:0:
180,280,126536,2,0,P|199:318|200:352,1,75,2|0,2:0|2:0,0:0:0:0:
168,116,126797,2,2,P|130:135|96:136,1,75,0|0,2:0|0:0,0:0:0:0:
332,104,127058,5,0,0:0:0:0:
336,52,127145,1,0,0:0:0:0:
384,28,127232,1,0,0:0:0:0:
436,36,127319,2,0,P|460:64|468:103,1,75,4|0,0:1|0:0,0:0:0:0:
256,168,127580,1,0,1:0:0:0:
256,168,127840,5,0,0:0:0:0:
68,208,128014,1,0,0:0:0:0:
39,201,128100,1,2,0:1:0:0:
220,328,128275,1,0,0:0:0:0:
248,336,128362,2,2,P|288:312|292:268,1,90.0000034332277,0|0,0:0|0:0,0:0:0:0:
248,336,128623,6,2,P|320:340|372:268,1,157.500001502037,8|0,0:0|0:0,0:0:0:0:
356,112,129058,5,0,0:0:0:0:
320,88,129145,2,0,P|280:80|232:80,1,75,0|0,1:0|0:0,0:0:0:0:
232,256,129406,2,2,P|258:225|284:180,1,90.0000034332277,8|0,0:1|0:0,0:0:0:0:
116,96,129667,6,0,P|132:152|168:204,1,112.5,0|0,1:0|0:0,0:0:0:0:
56,20,130101,5,0,0:0:0:0:
44,52,130188,2,0,P|40:92|42:136,1,75,0|0,1:0|0:0,0:0:0:0:
156,332,130449,2,2,P|160:292|157:247,1,75,2|0,0:1|0:0,0:0:0:0:
0,216,130710,2,2,P|40:220|84:218,1,75,2|0,1:2|0:0,0:0:0:0:
204,168,130971,2,0,P|164:164|119:167,1,75
312,200,131232,5,0,1:0:0:0:
80,296,131493,1,8,0:1:0:0:
392,176,131754,1,2,0:0:0:0:
44,140,132014,1,4,0:1:0:0:
470,150,132188,5,0,0:0:0:0:
492,144,132275,1,0,1:0:0:0:
244,212,132449,1,0,0:0:0:0:
264,216,132536,1,0,0:1:0:0:
18,274,132710,1,0,0:0:0:0:
36,284,132797,2,0,B|52:280|52:280|64:284|64:284|64:272|64:272|120:304|192:284,1,157.500001502037,8|0,0:0|0:0,0:0:0:0:
468,72,133232,5,0,0:0:0:0:
420,68,133319,2,0,P|384:68|336:72,1,75,4|0,0:0|0:0,0:0:0:0:
288,152,133580,1,0,0:1:0:0:
232,132,133667,1,0,0:0:0:0:
192,84,133754,1,0,0:0:0:0:
140,112,133840,2,2,P|101:116|56:104,1,75,0|0,1:0|0:0,0:0:0:0:
280,240,134101,5,0,0:0:0:0:
336,220,134188,1,0,0:0:0:0:
376,172,134275,1,0,0:0:0:0:
428,200,134362,6,2,P|467:204|501:196,1,75,8|0,0:1|0:0,0:0:0:0:
372,288,134623,2,0,P|340:310|306:321,1,75,2|0,0:0|0:0,0:0:0:0:
456,120,134884,2,2,P|478:88|489:54,1,75,2|0,2:0|0:0,0:0:0:0:
304,240,135145,2,2,P|268:223|241:200,1,75,0|0,0:0|0:0,0:0:0:0:
172,116,135406,6,0,P|147:142|112:164,1,75,0|0,1:0|0:0,0:0:0:0:
328,116,135667,2,0,P|352:89|388:68,1,75,2|0,0:0|0:0,0:0:0:0:
252,264,135927,5,2,0:1:0:0:
200,292,136014,1,0,0:0:0:0:
136,296,136101,1,0,0:0:0:0:
80,276,136188,1,0,0:0:0:0:
40,232,136275,1,0,0:0:0:0:
40,172,136362,1,0,0:0:0:0:
56,112,136449,6,2,P|52:68|40:24,1,90.0000034332277,0|0,0:0|0:0,0:0:0:0:
136,196,136710,2,2,P|140:152|152:108,1,90.0000034332277,0|0,0:0|0:0,0:0:0:0:
76,352,136971,2,2,P|68:280|40:200,1,157.500001502037,8|0,0:0|0:0,0:0:0:0:
256,192,137406,1,0,0:0:0:0:
256,192,137493,2,0,P|294:174|336:136,1,75,4|0,0:0|0:0,0:0:0:0:
396,72,137754,2,0,P|392:113|404:169,1,75,8|0,0:1|0:0,0:0:0:0:
416,264,138014,5,0,0:0:0:0:
368,232,138101,1,0,0:0:0:0:
312,244,138188,1,0,0:0:0:0:
284,292,138275,2,0,P|248:300|200:292,1,75
76,119,138536,6,0,L|144:152,1,75,4|0,0:0|0:0,0:0:0:0:
196,88,138797,2,2,L|279:95,1,75,0|0,0:0|0:0,3:0:0:0:
435,264,139058,6,2,L|368:232,1,75,2|0,2:0|0:0,0:0:0:0:
316,296,139319,2,0,L|232:288,1,75,0|0,0:0|0:0,3:0:0:0:
40,256,139580,6,0,L|156:240,1,90.0000034332277,4|0,0:0|0:0,0:0:0:0:
428,168,139840,2,0,L|420:84,1,75,2|0,0:3|0:0,0:0:0:0:
112,152,140101,2,0,L|226:176,1,90.0000034332277,4|0,0:0|0:0,0:0:0:0:
496,212,140362,2,0,L|503:286,1,75,2|0,0:3|0:0,0:0:0:0:
512,360,140623,5,4,0:0:0:0:
264,312,140884,2,2,L|184:308,1,75,0|0,0:0|0:0,0:0:0:0:
128,260,141145,1,12,0:0:0:0:
48,152,141319,1,0,1:0:0:0:
0,140,141406,1,4,1:0:0:0:
184,60,141580,5,0,0:0:0:0:
224,76,141667,2,0,P|276:80|328:64,1,90,4|0,1:0|0:0,0:0:0:0:
328,324,142101,1,0,0:0:0:0:
288,308,142188,2,0,P|236:304|184:320,1,90,4|0,1:0|0:0,0:0:0:0:
366,207,142623,1,0,0:0:0:0:
392,240,142710,2,0,P|435:269|488:281,1,90,4|0,1:0|0:0,0:0:0:0:
146,177,143145,1,0,0:0:0:0:
120,144,143232,2,0,P|76:114|23:102,1,90,2|0,1:2|0:0,0:0:0:0:
468,188,143667,5,0,0:0:0:0:
468,148,143754,1,4,1:0:0:0:
236,116,143927,1,0,0:0:0:0:
236,76,144014,1,8,0:0:0:0:
352,152,144188,1,0,0:0:0:0:
352,112,144275,1,8,1:0:0:0:
120,80,144448,1,0,0:0:0:0:
120,40,144535,1,0,3:0:0:0:
140,209,144710,5,0,0:0:0:0:
156,244,144797,2,2,P|184:268|216:288,1,75,0|0,1:0|1:0,0:0:0:0:
356,244,145058,2,2,P|328:268|296:288,1,75,4|0,3:1|2:0,0:0:0:0:
131,329,145319,2,2,P|92:332|56:340,1,75,8|0,0:0|0:0,0:0:0:0:
381,329,145580,2,2,P|420:332|456:340,1,75,0|0,3:0|2:0,0:0:0:0:
256,328,145840,6,2,L|256:238,1,90,4|0,1:0|2:0,0:0:0:0:
148,52,146275,1,0,0:0:0:0:
148,52,146362,2,0,L|148:142,1,90,4|0,1:0|0:0,0:0:0:0:
312,132,146797,5,0,0:0:0:0:
352,140,146884,2,2,L|428:124,1,60,0|0,1:0|0:0,0:0:0:0:
216,176,147145,2,2,L|274:188,1,60,0|0,0:0|0:0,0:0:0:0:
96,228,147406,2,0,P|52:230|6:228,1,90,2|0,0:0|0:0,0:0:0:0:
200,316,147840,1,0,0:0:0:0:
244,328,147927,1,0,1:0:0:0:
436,264,148188,6,2,L|472:200,1,60,2|0,0:0|0:0,0:0:0:0:
240,248,148449,2,2,L|217:287,1,45.0000017166138,8|0,0:3|0:0,0:0:0:0:
412,112,148710,6,2,L|448:48,1,60,0|0,0:0|0:0,0:0:0:0:
244,140,148971,1,0,1:0:0:0:
244,140,149232,6,2,L|280:76,1,60,0|0,0:0|0:0,0:0:0:0:
320,268,149493,2,0,L|275:346,1,90.0000034332277,8|0,0:0|0:0,0:0:0:0:
76,352,149754,2,0,L|130:326,1,60,4|0,1:0|0:0,0:0:0:0:
104,216,150014,6,0,P|172:224|236:192,1,135.000005149842,4|0,0:0|0:0,0:0:0:0:
100,132,150449,5,0,0:0:0:0:
28,172,150536,2,0,P|20:216|36:276,1,90,4|0,1:0|0:0,0:0:0:0:
172,168,150971,5,0,0:0:0:0:
172,84,151058,2,0,P|137:55|77:38,1,90,4|0,0:1|3:0,0:0:0:0:
104,216,151493,5,0,0:0:0:0:
175,258,151580,2,0,P|217:242|261:199,1,90,2|0,1:2|0:0,0:0:0:0:
244,336,152014,5,0,0:0:0:0:
252,376,152101,1,4,1:0:0:0:
380,192,152275,1,0,0:0:0:0:
388,232,152362,1,8,0:1:0:0:
312,264,152536,1,0,0:0:0:0:
320,304,152623,1,2,0:0:0:0:
448,120,152797,1,0,0:0:0:0:
456,160,152884,1,4,0:1:0:0:
340,92,153058,5,0,0:0:0:0:
300,120,153145,2,2,P|272:128|232:136,1,60,2|0,0:2|0:0,0:0:0:0:
56,168,153406,2,2,P|84:176|124:184,1,60,8|0,0:1|0:0,0:0:0:0:
276,208,153667,2,2,P|248:216|208:224,1,60,8|0,0:0|0:0,0:0:0:0:
32,256,153928,2,2,P|60:264|100:272,1,60,0|0,0:0|0:0,0:0:0:0:
252,296,154188,6,2,L|144:324,1,112.5,4|0,0:0|0:0,0:0:0:0:
352,328,154623,1,0,0:0:0:0:
392,316,154710,2,0,L|449:300,1,60,0|0,1:0|0:0,0:0:0:0:
512,128,154971,5,0,0:0:0:0:
484,160,155058,1,0,0:0:0:0:
444,144,155145,1,0,0:0:0:0:
412,164,155232,2,2,P|380:168|332:164,1,60,4|0,0:0|0:0,0:0:0:0:
336,264,155493,2,0,P|306:251|266:224,1,60,4|0,0:1|0:0,0:0:0:0:
220,312,155754,2,2,P|200:286|179:242,1,60,2|0,2:0|0:0,0:0:0:0:
96,296,156014,2,2,P|91:263|96:215,1,60,0|0,0:0|0:0,0:0:0:0:
48,96,156275,5,4,0:0:0:0:
88,132,156362,1,0,0:0:0:0:
140,144,156449,1,0,0:0:0:0:
192,140,156536,2,0,P|224:128|256:96,1,75,8|0,0:1|0:0,0:0:0:0:
128,56,156797,2,0,P|96:116|100:196,1,135.000005149842,2|0,0:0|0:0,0:0:0:0:
220,312,157232,5,0,0:0:0:0:
328,268,157319,2,0,L|368:252,1,30,4|0,0:0|0:0,0:0:0:0:
440,300,157493,2,0,L|484:300,1,30,0|0,1:0|1:0,0:0:0:0:
464,80,157754,5,0,1:0:0:0:
424,100,157840,2,0,P|360:84|284:80,1,135.000005149842,4|0,0:0|0:0,0:0:0:0:
144,112,158275,5,0,0:0:0:0:
144,112,158362,1,0,1:0:0:0:
112,136,158797,1,0,1:0:0:0:
80,160,159145,1,0,1:0:0:0:
384,192,159406,1,0,1:0:0:0:
384,192,159667,5,0,0:0:0:0:
352,200,159754,1,0,0:0:0:0:
372,220,159840,1,0,0:0:0:0:
336,236,159927,2,0,P|296:276|264:328,1,112.500004291535,8|0,3:0|0:0,0:0:0:0:
200,208,160449,6,0,P|156:192|108:168,1,90,4|0,0:0|0:0,0:0:0:0:
32,80,160884,1,0,0:0:0:0:
0,104,160971,1,8,0:0:0:0:
152,284,161232,2,0,P|184:292|220:296,1,60
392,208,161493,2,0,P|360:200|324:196,1,60,4|0,0:1|0:0,0:0:0:0:
84,240,161754,1,0,1:0:0:0:
76,244,162014,5,8,0:0:0:0:
64,272,162101,1,0,0:0:0:0:
60,300,162188,1,0,0:0:0:0:
64,328,162275,2,0,P|43:298|4:276,1,60
152,284,162536,2,0,P|172:313|212:336,1,60,0|0,1:0|0:0,0:0:0:0:
196,176,162797,2,0,P|175:146|136:124,1,60,4|0,0:1|0:0,0:0:0:0:
324,224,163058,5,8,0:0:0:0:
364,240,163145,1,0,0:0:0:0:
404,232,163232,1,0,0:0:0:0:
440,212,163319,2,0,P|456:180|464:152,1,60,4|0,0:1|0:0,0:0:0:0:
408,68,163580,1,8,0:3:0:0:
396,72,163754,5,0,0:0:0:0:
348,84,163840,2,0,L|276:56,1,75,0|0,1:0|0:0,0:0:0:0:
44,88,164101,6,2,L|192:96,1,135.000005149842,10|0,0:0|0:0,0:0:0:0:
344,168,164536,1,0,0:0:0:0:
400,152,164623,1,0,1:0:0:0:
260,168,164884,5,0,0:0:0:0:
424,240,165058,1,0,0:0:0:0:
480,224,165145,2,0,P|508:168|492:92,1,135.000005149842,8|0,0:0|0:0,0:0:0:0:
352,32,165580,1,0,0:0:0:0:
292,36,165667,1,4,0:1:0:0:
200,132,165840,1,0,0:0:0:0:
140,136,165927,1,0,1:0:0:0:
0,256,166188,6,0,P|52:288|136:296,1,135.000005149842,8|0,0:0|0:0,0:0:0:0:
384,224,166623,1,0,0:0:0:0:
368,184,166710,2,0,P|316:152|264:144,1,90,0|0,1:0|0:0,0:0:0:0:
272,284,167145,5,0,0:0:0:0:
304,308,167232,2,0,L|332:328,2,30,8|0|0,0:0|0:0|0:0,0:0:0:0:
96,256,167493,2,0,L|156:300,1,60,4|0,0:1|0:0,0:0:0:0:
60,132,167754,2,0,L|11:96,1,60
200,228,168014,1,8,1:0:0:0:
200,228,168275,2,0,P|259:233|328:228,1,112.5,8|4,1:0|0:1,0:0:0:0:
132,176,168710,5,0,0:0:0:0:
96,256,168797,2,0,P|116:296|156:328,1,90,4|0,0:0|0:0,0:0:0:0:
408,216,169058,2,0,P|388:176|348:144,1,90
312,230,169319,1,8,0:0:0:0:
312,230,169580,6,0,P|324:260|360:296,1,60
464,160,169840,1,4,0:1:0:0:
460,120,169927,1,0,0:0:0:0:
436,92,170014,1,0,0:0:0:0:
400,76,170101,2,0,P|368:71|318:84,1,60,0|0,1:0|0:0,0:0:0:0:
256,28,170362,5,8,0:0:0:0:
236,60,170449,1,0,0:0:0:0:
204,84,170536,1,0,0:0:0:0:
164,92,170623,2,0,P|134:81|104:60,1,60,4|0,0:1|0:0,0:0:0:0:
124,168,170884,2,0,P|129:199|126:235,1,60,0|0,1:0|0:0,3:0:0:0:
208,172,171145,2,2,P|232:151|265:136,1,60,4|0,0:1|0:0,3:0:0:0:
404,156,171406,5,8,0:0:0:0:
404,156,171493,1,0,0:0:0:0:
404,156,171580,1,0,0:0:0:0:
404,156,171667,1,0,0:0:0:0:
328,316,171840,1,0,0:0:0:0:
328,316,171927,1,8,0:3:0:0:
208,172,172101,5,0,0:0:0:0:
208,172,172188,2,0,P|196:127|188:88,1,75,0|0,1:0|0:0,0:0:0:0:
148,224,172449,2,2,P|133:295|116:360,1,135.000005149842,8|0,0:0|0:0,0:0:0:0:
216,304,172884,5,0,3:0:0:0:
216,304,172971,2,0,P|256:336|296:356,1,90,0|0,1:0|0:0,3:0:0:0:
512,280,173406,1,0,3:0:0:0:
512,280,173493,2,0,P|472:248|432:228,1,90,8|0,0:0|0:0,0:0:0:0:
300,268,173927,1,0,0:0:0:0:
300,268,174014,1,4,1:0:0:0:
432,312,174188,1,0,0:0:0:0:
432,312,174275,1,0,1:0:0:0:
236,128,174536,5,8,0:0:0:0:
220,140,174623,1,0,0:0:0:0:
204,148,174710,1,0,0:0:0:0:
188,152,174797,2,2,P|156:151|124:144,1,60,8|0,0:1|0:0,0:0:0:0:
48,104,175058,5,0,1:0:0:0:
48,104,175319,2,0,P|36:140|12:200,1,75,0|0,1:0|0:0,0:0:0:0:
96,192,175580,2,0,P|104:236|120:288,1,90.0000034332277,8|0,0:0|0:0,0:0:0:0:
24,260,175840,1,2,0:0:0:0:
148,104,176014,5,0,0:0:0:0:
140,64,176101,1,4,1:0:0:0:
264,172,176275,1,0,0:0:0:0:
272,212,176362,2,0,P|276:244|272:280,1,60,4|0,1:0|0:0,0:0:0:0:
352,256,176623,2,0,P|376:264|412:268,1,60,8|0,0:1|0:0,0:0:0:0:
476,216,176884,1,4,0:1:0:0:
304,40,177145,5,4,0:0:0:0:
116,160,177406,2,0,L|56:132,1,60,10|0,0:2|0:0,0:0:0:0:
188,192,177667,1,0,1:0:0:0:
280,120,177927,2,0,L|228:132,1,45,4|8,0:3|0:1,0:0:0:0:
356,104,178188,1,0,3:0:0:0:
480,144,178362,2,0,L|528:132,1,30,0|4,3:0|0:0,0:0:0:0:
510,137,178710,5,2,1:2:0:0:
304,40,178971,1,0,3:0:0:0:
88,112,179145,1,0,0:0:0:0:
76,160,179232,2,0,L|48:264,1,90,4|8,1:0|0:0,0:0:0:0:
424,272,179667,1,0,0:0:0:0:
436,224,179754,2,0,L|464:120,1,90,12|0,1:0|0:0,0:0:0:0:
164,248,180188,5,0,0:0:0:0:
148,284,180275,2,0,L|132:324,2,30,4|0|0,0:1|0:0|0:0,0:0:0:0:
364,100,180536,2,0,L|380:60,2,30,4|0|0,0:3|0:0|0:0,0:0:0:0:
188,164,180797,2,0,L|116:172,1,60,2|0,0:0|0:0,0:0:0:0:
324,220,181058,2,0,L|396:212,1,60,4|0,3:0|0:0,0:0:0:0:
472,204,181319,5,0,1:0:0:0:
216,116,181580,2,0,L|288:108,1,60,8|0,3:2|0:0,0:0:0:0:
364,100,181841,1,8,1:0:0:0:
140,208,182101,2,0,L|95:213,1,45,4|0,3:1|0:0,0:0:0:0:
0,304,182362,2,0,L|72:296,1,60,4|0,0:1|0:0,0:0:0:0:
172,340,182623,2,0,L|231:346,1,60,4|0,3:0|0:0,0:0:0:0:
304,288,182884,1,2,0:0:0:0:
472,80,183145,5,4,3:1:0:0:
260,192,183319,1,0,0:0:0:0:
184,200,183406,2,0,P|149:189|120:172,1,67.5000025749208,0|8,1:0|3:2,0:0:0:0:
259,114,183840,1,0,0:0:0:0:
328,148,183927,2,0,P|363:149|397:143,1,67.5000025749208,8|8,1:0|0:1,0:0:0:0:
184,120,184362,5,0,0:0:0:0:
156,96,184449,1,0,0:0:0:0:
120,88,184536,1,0,0:0:0:0:
84,96,184623,1,0,0:0:0:0:
48,124,184710,2,0,P|16:100|0:64,1,75,4|0,1:0|0:0,0:0:0:0:
76,196,184971,5,2,0:0:0:0:
84,236,185058,1,0,0:0:0:0:
76,276,185145,1,0,0:0:0:0:
56,312,185232,2,0,P|29:331|-4:340,1,60
144,344,185493,6,0,L|220:348,1,60,4|0,0:0|0:0,0:0:0:0:
328,296,185754,2,0,L|268:292,1,60,8|0,0:0|0:0,0:0:0:0:
512,248,186014,1,0,1:0:0:0:
512,248,186275,6,0,L|440:236,1,45
424,160,186536,2,0,L|348:176,1,60,4|0,1:0|0:0,0:0:0:0:
224,152,186797,2,0,L|282:139,1,60,0|0,1:0|0:0,0:0:0:0:
24,144,187058,1,2,0:0:0:0:
24,144,187319,6,0,P|53:155|88:172,1,60
136,228,187580,1,0,1:0:0:0:
297,90,187840,2,0,P|272:109|240:131,1,60,4|0,0:1|0:0,3:0:0:0:
168,144,188101,1,8,1:2:0:0:
203,346,188362,2,0,P|198:315|195:276,1,60,0|0,0:0|0:0,3:0:0:0:
220,208,188623,5,0,3:0:0:0:
240,156,188884,1,4,3:1:0:0:
292,176,189145,1,2,3:2:0:0:
272,228,189406,1,0,3:0:0:0:
176,192,189580,5,0,0:0:0:0:
176,192,189667,2,0,P|130:198|80:200,1,90.0000034332277,4|0,0:0|0:0,0:0:0:0:
224,80,189927,2,0,P|260:76|304:76,1,60,8|0,0:0|0:0,0:0:0:0:
384,144,190188,1,8,0:1:0:0:
384,144,190449,6,0,P|348:148|304:148,1,60,8|0,0:1|0:0,0:0:0:0:
176,208,190710,2,0,P|212:204|256:204,1,60,4|0,0:1|0:0,0:0:0:0:
388,240,190971,1,0,1:0:0:0:
408,260,191058,1,0,0:0:0:0:
416,288,191145,1,0,0:0:0:0:
416,316,191232,2,0,P|380:356|324:360,1,112.5,2|8,0:0|0:1,0:0:0:0:
152,120,191667,5,0,0:0:0:0:
152,120,191754,2,0,P|196:132|240:152,1,90,4|8,0:0|0:0,0:0:0:0:
116,188,192188,1,0,0:0:0:0:
116,188,192275,2,0,P|83:220|44:248,1,90,8|8,0:1|0:1,0:0:0:0:
72,120,192710,1,0,0:0:0:0:
72,120,192797,2,0,P|60:75|60:48,1,60,4|0,0:1|0:0,0:0:0:0:
192,184,193058,2,0,P|203:228|204:256,1,60,4|0,1:0|0:0,0:0:0:0:
152,320,193319,5,2,0:0:0:0:
124,328,193406,1,0,0:0:0:0:
96,332,193493,1,0,0:0:0:0:
68,328,193580,2,0,P|40:312|20:288,1,60,8|0,0:1|0:0,0:0:0:0:
208,256,193840,6,0,B|260:268|280:312|332:304,1,135.000005149842,4|8,0:0|0:0,0:0:0:0:
328,192,194275,1,0,0:0:0:0:
328,192,194362,1,8,0:1:0:0:
328,192,194623,5,8,0:1:0:0:
356,204,194710,1,0,0:0:0:0:
384,216,194797,1,8,0:1:0:0:
412,228,194884,1,4,1:0:0:0:
284,100,195058,1,0,0:0:0:0:
256,88,195145,1,4,3:1:0:0:
388,68,195319,5,0,0:0:0:0:
416,80,195406,2,0,P|446:82|476:80,1,60,2|0,0:0|0:0,0:0:0:0:
224,160,195667,2,0,P|193:157|164:160,1,60,8|0,0:1|0:0,0:0:0:0:
72,184,195927,5,4,0:0:0:0:
72,184,196449,1,0,1:0:0:0:
224,240,196710,1,0,1:0:0:0:
380,196,196884,5,0,1:0:0:0:
420,180,196971,2,0,L|496:144,1,75,4|0,0:0|0:0,0:0:0:0:
312,232,197232,2,0,L|308:288,1,45.0000017166138,2|0,0:3|0:0,0:0:0:0:
376,112,197493,2,0,L|388:20,1,90.0000034332277,4|0,0:0|0:0,0:0:0:0:
227,180,197754,2,0,L|224:240,1,60,2|0,0:3|0:0,0:0:0:0:
78,248,198014,5,4,0:0:0:0:
232,84,198275,1,4,0:1:0:0:
436,184,198536,1,0,1:0:0:0:
460,232,198623,1,0,0:0:0:0:
456,284,198710,1,0,0:0:0:0:
420,324,198797,2,0,P|380:329|320:320,1,75,0|0,0:0|0:0,0:0:0:0:
248,212,199058,6,2,P|287:206|348:216,1,75,0|0,0:0|0:0,0:0:0:0:
168,268,199319,2,2,P|128:273|68:264,1,75,0|0,0:0|0:0,0:0:0:0:
324,132,199580,2,2,P|361:147|408:185,1,75,2|0,1:2|0:0,0:0:0:0:
88,348,199840,2,2,P|50:332|3:294,1,75,8|0,0:1|0:0,0:0:0:0:
236,120,200101,5,0,1:0:0:0:
288,128,200188,1,0,0:0:0:0:
340,120,200275,1,0,0:0:0:0:
392,104,200362,2,0,P|430:96|480:100,1,75
256,200,200623,5,0,1:0:0:0:
212,208,200710,1,0,0:0:0:0:
168,204,200797,1,0,0:0:0:0:
212,236,200884,5,0,0:0:0:0:
224,288,200971,1,0,0:0:0:0:
200,336,201058,1,0,0:0:0:0:
152,360,201145,2,2,P|112:357|60:340,1,75,0|0,1:0|0:0,0:0:0:0:
304,256,201406,2,2,P|343:258|396:276,1,75,0|0,0:0|0:0,0:0:0:0:
132,280,201667,6,2,P|100:256|84:228,1,67.5000025749208,8|0,0:0|0:0,0:0:0:0:
28,92,201927,1,4,0:1:0:0:
64,104,202014,1,0,0:0:0:0:
100,104,202101,1,0,0:0:0:0:
140,92,202188,2,0,P|172:68|188:32,1,75,0|0,1:0|0:0,0:0:0:0:
224,148,202449,5,4,0:1:0:0:
248,192,202536,1,0,0:0:0:0:
300,204,202623,1,0,0:0:0:0:
348,188,202710,2,2,P|380:164|396:128,1,75,0|0,1:0|0:0,0:0:0:0:
404,296,202971,2,0,P|408:335|431:367,1,75,4|0,0:1|0:0,0:0:0:0:
280,284,203232,2,0,P|243:268|204:272,1,75,8|0,1:0|0:0,0:0:0:0:
0,340,203493,5,0,0:0:0:0:
48,356,203580,1,0,0:0:0:0:
100,344,203667,1,0,0:0:0:0:
136,304,203754,2,0,P|136:240|100:172,1,135.000005149842,2|4,2:2|2:1,0:0:0:0:
184,28,204188,5,0,0:0:0:0:
196,76,204275,2,0,P|214:106|248:136,1,75,0|0,0:1|0:0,0:0:0:0:
368,24,204536,2,0,P|333:24|290:39,1,75,8|0,0:1|0:0,3:0:0:0:
336,184,204797,2,2,P|352:153|361:108,1,75,2|0,0:0|0:0,3:0:0:0:
216,196,205058,2,2,P|199:226|190:271,1,75,0|0,0:0|0:0,3:0:0:0:
72,256,205319,6,0,P|36:268|-4:272,1,75,0|0,1:0|0:0,0:0:0:0:
120,104,205580,1,0,0:0:0:0:
172,88,205667,1,0,0:0:0:0:
224,92,205754,1,0,0:0:0:0:
272,112,205840,2,0,P|344:120|408:72,1,135.000005149842,8|4,0:0|0:1,0:0:0:0:
240,184,206275,5,0,0:0:0:0:
224,236,206362,2,0,P|192:272|156:296,1,90.0000034332277,4|0,0:0|0:0,0:0:0:0:
308,316,206623,1,0,0:0:0:0:
316,320,206710,1,0,0:0:0:0:
324,324,206797,1,0,0:0:0:0:
332,328,206884,5,2,0:1:0:0:
392,320,206971,1,0,0:0:0:0:
436,280,207058,1,0,0:0:0:0:
456,224,207145,2,2,P|452:184|440:132,1,75,0|0,0:0|0:0,0:0:0:0:
340,52,207406,6,2,P|344:92|356:144,1,75,0|0,1:0|0:0,0:0:0:0:
172,332,207667,2,2,P|168:292|161:257,1,75,0|0,0:0|0:0,0:0:0:0:
396,276,207927,2,2,P|356:280|321:286,1,75,2|0,0:2|0:0,0:0:0:0:
116,108,208188,2,2,P|156:104|190:97,1,75,0|0,0:0|0:0,0:0:0:0:
471,274,208449,6,0,P|416:290|371:308,1,75,0|0,1:0|0:0,0:0:0:0:
40,109,208710,2,2,P|95:93|140:75,1,75,0|0,0:0|0:0,0:0:0:0:
360,228,208971,6,0,P|334:225|284:216,1,56.25,0|0,1:0|0:0,0:0:0:0:
216,164,209232,1,4,0:1:0:0:
184,184,209319,1,0,0:0:0:0:
148,192,209406,1,0,0:0:0:0:
112,192,209493,2,2,P|72:184|32:172,1,75,0|0,0:0|0:0,0:0:0:0:
232,248,209754,5,0,0:0:0:0:
280,268,209840,1,0,0:0:0:0:
304,316,209927,1,0,0:0:0:0:
304,368,210014,2,2,P|336:332|376:312,1,90.0000034332277,8|0,0:0|0:0,0:0:0:0:
488,316,210275,1,4,0:1:0:0:
452,128,210449,5,4,0:1:0:0:
364,152,210536,2,0,P|327:152|264:148,1,75,4|0,0:0|0:0,0:0:0:0:
180,88,210797,2,2,P|144:112|104:132,1,75,0|0,0:0|0:0,0:0:0:0:
8,264,211058,2,0,P|44:240|84:220,1,75,0|0,1:0|0:0,0:0:0:0:
176,200,211319,1,8,0:1:0:0:
300,276,211493,5,0,0:0:0:0:
348,268,211580,1,4,0:0:0:0:
488,160,211754,1,0,0:0:0:0:
440,168,211841,1,2,0:1:0:0:
196,360,212101,6,2,L|296:344,1,90.0000034332277,2|0,0:2|0:0,0:0:0:0:
424,256,212362,1,0,0:0:0:0:
388,216,212449,1,0,0:0:0:0:
340,192,212536,1,0,0:0:0:0:
288,184,212623,2,0,P|246:187|196:180,1,90.0000034332277,8|0,1:0|0:0,0:0:0:0:
4,228,212884,2,0,P|45:224|96:232,1,75,8|0,0:1|0:0,0:0:0:0:
212,284,213145,5,2,0:0:0:0:
172,316,213232,1,0,0:0:0:0:
120,332,213319,1,0,0:0:0:0:
68,332,213406,2,2,P|28:316|-4:296,1,75,0|0,0:0|0:0,0:0:0:0:
280,244,213667,6,0,P|320:260|360:288,1,90.0000034332277,4|0,0:0|0:0,0:0:0:0:
416,344,213927,1,2,0:3:0:0:
440,296,214014,1,0,0:0:0:0:
476,260,214101,1,0,0:0:0:0:
444,220,214188,2,0,P|425:186|416:148,1,75,2|0,0:2|1:0,0:0:0:0:
316,88,214449,2,0,P|336:56|348:16,1,75,2|0,0:3|0:0,0:0:0:0:
244,24,214710,5,4,0:3:0:0:
244,24,214971,5,2,0:1:0:0:
240,40,215058,1,0,0:0:0:0:
236,56,215145,1,0,0:0:0:0:
216,96,215232,5,0,1:0:0:0:
176,120,215319,1,0,0:0:0:0:
132,124,215406,1,0,0:0:0:0:
92,108,215493,2,2,P|72:78|56:32,1,75,0|0,0:0|0:0,0:0:0:0:
48,192,215754,6,0,P|67:221|84:268,1,75,0|0,1:0|0:0,0:0:0:0:
204,288,216014,2,0,P|185:317|168:364,1,75
464,192,216275,2,0,P|445:163|428:116,1,75,2|0,2:0|0:0,0:0:0:0:
308,96,216536,2,0,P|327:67|344:20,1,75
152,200,216797,5,0,1:0:0:0:
172,240,216884,1,0,0:0:0:0:
208,268,216971,1,0,0:0:0:0:
252,272,217058,2,2,P|288:264|328:236,1,75,0|0,0:0|0:0,0:0:0:0:
384,84,217319,2,0,P|352:91|328:104,1,56.25,8|0,1:1|0:0,0:0:0:0:
228,64,217580,5,0,0:0:0:0:
228,120,217667,1,0,0:0:0:0:
188,160,217754,1,0,0:0:0:0:
132,168,217840,2,2,P|97:153|64:128,1,75,0|0,0:0|0:0,0:0:0:0:
380,216,218101,2,2,P|414:230|448:256,1,75,0|0,0:0|0:0,0:0:0:0:
256,192,218362,1,4,0:0:0:0:
256,192,218623,5,0,0:0:0:0:
256,228,218710,1,0,0:0:0:0:
248,264,218797,1,0,0:0:0:0:
228,296,218884,2,0,P|196:316|156:328,1,75,0|0,1:0|0:0,0:0:0:0:
164,232,219145,5,0,0:0:0:0:
208,220,219232,1,0,0:0:0:0:
252,216,219319,1,0,0:0:0:0:
296,224,219406,2,0,P|329:241|359:270,1,75,0|0,1:0|0:0,0:0:0:0:
168,156,219667,1,4,0:1:0:0:
93,239,219840,5,0,0:0:0:0:
57,247,219927,1,0,1:0:0:0:
245,71,220101,1,0,0:0:0:0:
281,63,220188,2,0,P|318:63|369:71,1,75,4|0,0:1|0:0,0:0:0:0:
505,23,220449,2,0,P|485:55|454:95,1,75,2|0,2:0|0:0,0:0:0:0:
419,237,220710,2,0,P|401:215|389:191,1,56.25
477,171,220971,5,0,1:0:0:0:
245,71,221232,1,2,0:0:0:0:
57,247,221493,2,0,L|17:315,1,75,2|0,1:2|0:0,0:0:0:0:
188,176,221754,2,2,L|150:241,1,75,0|0,0:0|0:0,0:0:0:0:
319,109,222014,2,2,L|281:174,1,75,0|0,0:0|0:0,0:0:0:0:
452,40,222275,5,0,0:0:0:0:
444,60,222362,1,0,0:0:0:0:
444,84,222449,1,0,0:0:0:0:
452,108,222536,2,0,P|468:152|468:200,1,90.0000034332277,8|0,0:0|0:0,0:0:0:0:
384,244,222797,5,0,0:0:0:0:
360,256,222884,2,0,L|312:280,1,37.5
306,247,223058,2,0,L|224:288,1,75,4|0,0:0|0:0,0:0:0:0:
232,192,223319,5,2,0:1:0:0:
208,148,223406,1,0,0:0:0:0:
212,96,223493,1,0,0:0:0:0:
188,152,223580,5,2,1:0:0:0:
144,192,223667,1,0,0:0:0:0:
84,200,223754,1,0,0:0:0:0:
28,180,223840,2,0,P|12:148|4:108,1,75,4|0,0:1|0:0,0:0:0:0:
88,32,224101,6,2,P|104:64|112:104,1,75,0|0,1:0|0:0,0:0:0:0:
96,360,224362,2,2,P|128:344|168:336,1,75,0|0,0:0|0:0,0:0:0:0:
424,352,224623,2,2,P|408:320|400:280,1,75,2|0,2:0|0:0,0:0:0:0:
416,24,224884,2,2,P|384:40|344:48,1,75,0|0,0:0|0:0,0:0:0:0:
172,148,225145,5,0,0:0:0:0:
220,128,225232,1,0,0:0:0:0:
272,124,225319,1,0,0:0:0:0:
324,132,225406,2,0,P|356:146|388:171,1,75,2|0,0:0|0:0,3:0:0:0:
188,252,225667,5,8,1:0:0:0:
136,224,225754,1,0,0:0:0:0:
100,176,225840,1,0,0:0:0:0:
92,116,225927,1,6,0:1:0:0:
112,60,226014,1,0,0:0:0:0:
164,28,226101,1,0,0:0:0:0:
224,24,226188,6,2,P|259:40|300:52,1,75,0|0,0:0|0:0,3:0:0:0:
500,60,226449,2,2,P|465:44|424:32,1,75,0|0,0:0|0:0,3:0:0:0:
220,128,226710,5,8,0:0:0:0:
260,148,226797,1,0,0:0:0:0:
304,152,226884,1,0,0:0:0:0:
348,144,226971,2,0,P|385:153|428:184,1,75,4|0,0:1|0:0,0:0:0:0:
292,256,227232,5,0,1:0:0:0:
252,236,227319,1,0,0:0:0:0:
208,232,227406,1,0,0:0:0:0:
164,240,227493,2,2,P|127:231|84:200,1,75,0|0,0:0|0:0,0:0:0:0:
132,308,227754,2,2,P|140:340|144:388,1,75,0|0,0:0|0:0,0:0:0:0:
52,360,228014,1,4,1:0:0:0:
160,156,228188,5,0,0:0:0:0:
160,156,228275,1,4,0:0:0:0:
396,224,228449,1,0,0:0:0:0:
396,224,228536,2,2,P|388:260|356:300,1,75,0|0,0:0|0:0,0:0:0:0:
312,224,228797,1,2,1:2:0:0:
312,224,228971,5,0,0:0:0:0:
352,156,229058,2,0,P|388:144|432:152,1,75,4|0,1:0|0:0,0:0:0:0:
276,156,229319,6,0,P|240:168|196:160,1,75,4|0,0:0|0:0,0:0:0:0:
80,64,229580,2,0,P|116:52|160:60,1,75,8|0,0:1|0:0,0:0:0:0:
124,132,229840,1,2,0:0:0:0:
124,132,230014,5,0,0:0:0:0:
48,148,230101,2,0,P|17:122|-8:88,1,75,4|0,1:0|0:0,0:0:0:0:
248,24,230362,2,0,P|279:50|304:84,1,75,2|0,2:0|0:0,0:0:0:0:
312,224,230623,2,0,L|312:256,4,18.75
328,36,230884,6,0,P|368:56|416:68,1,90.0000034332277,12|0,0:0|0:0,0:0:0:0:
220,100,231145,2,0,P|185:96|128:96,1,75,0|0,1:0|0:0,0:0:0:0:
32,124,231406,6,0,P|28:172|16:220,1,90.0000034332277,4|0,0:0|0:0,0:0:0:0:
128,272,231667,2,2,P|152:306|208:348,1,90.0000034332277,0|0,0:0|0:0,0:0:0:0:
136,172,231927,1,0,1:0:0:0:
356,200,232101,5,0,0:0:0:0:
428,164,232188,2,2,P|448:124|448:72,1,90.0000034332277,0|0,0:0|0:0,0:0:0:0:
488,224,232449,1,0,1:0:0:0:
492,236,232536,1,0,0:0:0:0:
496,248,232623,1,0,0:0:0:0:
416,312,232710,6,2,P|376:328|328:336,1,90.0000034332277,0|0,0:0|0:0,0:0:0:0:
128,272,232971,2,2,P|32:288|128:308,1,262.500002503395,2|0,2:0|0:0,0:0:0:0:
220,196,233493,6,0,P|214:146|192:96,1,90.0000034332277,0|0,1:0|0:0,0:0:0:0:
312,184,233754,2,2,P|358:203|412:209,1,90.0000034332277,0|0,0:0|0:0,0:0:0:0:
280,276,234014,2,2,P|239:306|207:350,1,90.0000034332277,2|0,0:0|0:0,0:0:0:0:
220,196,234275,5,4,0:1:0:0:
212,132,234362,1,0,0:0:0:0:
184,76,234449,1,0,0:0:0:0:
132,44,234536,2,2,P|68:48|16:80,1,120,0|0,0:0|0:0,0:0:0:0:
376,108,234797,2,2,P|312:104|260:72,1,120,4|0,0:1|0:0,0:0:0:0:
480,88,235058,1,8,0:0:0:0:
480,88,235232,5,0,0:0:0:0:
448,164,235319,2,0,P|412:188|364:198,1,90.0000034332277,4|0,0:1|0:0,0:0:0:0:
212,132,235580,1,0,1:0:0:0:
212,132,235840,6,2,P|250:150|283:186,1,90.0000034332277,0|0,0:0|0:0,0:0:0:0:
300,352,236101,1,0,1:0:0:0:
300,352,236362,6,2,P|296:309|311:262,1,90.0000034332277,4|0,0:1|0:0,0:0:0:0:
448,164,236623,1,0,1:0:0:0:
448,164,236797,5,0,0:0:0:0:
380,108,236884,2,2,P|416:84|464:74,1,90.0000034332277,0|0,0:0|0:0,0:0:0:0:
212,132,237145,2,0,P|176:156|128:166,1,90.0000034332277,2|0,2:0|0:0,0:0:0:0:
28,76,237406,2,0,P|64:52|112:42,1,90.0000034332277,4|0,0:1|0:0,0:0:0:0:
284,56,237667,6,2,P|308:104|312:144,1,90.0000034332277,0|0,1:0|0:0,0:0:0:0:
153,285,237927,2,0,P|162:232|182:197,1,90.0000034332277,4|0,0:1|0:0,0:0:0:0:
393,176,238188,2,2,P|355:214|318:230,1,90.0000034332277,2|0,0:0|0:0,0:0:0:0:
135,123,238449,2,2,P|188:115|227:123,1,90.0000034332277,4|0,0:1|0:0,0:0:0:0:
313,318,238710,2,2,P|265:293|238:263,1,90.0000034332277,0|0,1:0|0:0,0:0:0:0:
284,56,238971,5,0,0:0:0:0:
300,88,239058,1,0,0:0:0:0:
308,124,239145,1,0,0:0:0:0:
312,160,239232,2,0,B|292:168|276:168|276:168|265:177|265:177|248:184|248:184|228:213|128:192,1,180,8|0,0:0|0:0,0:0:0:0:
360,248,239667,5,0,0:0:0:0:
392,280,239754,2,0,L|488:356,1,90.0000034332277,4|0,0:0|0:0,0:0:0:0:
432,136,240014,2,0,L|452:236,1,90.0000034332277
496,36,240275,6,2,L|488:84,1,45.0000017166138,0|0,1:0|0:0,0:0:0:0:
384,76,240449,2,2,L|355:110,1,45.0000017166138,0|0,0:0|0:0,0:0:0:0:
68,84,240710,5,0,0:0:0:0:
120,72,240797,2,0,P|168:72|220:88,1,90.0000034332277,0|0,1:0|0:0,0:0:0:0:
392,312,241058,2,0,P|344:312|292:296,1,90.0000034332277
64,160,241319,2,2,P|110:167|165:162,1,90.0000034332277,2|0,2:0|0:0,0:0:0:0:
448,224,241580,2,2,P|401:216|346:221,1,90.0000034332277,0|0,0:0|0:0,0:0:0:0:
92,252,241840,5,0,1:0:0:0:
420,132,242101,1,4,0:1:0:0:
0,232,242362,1,4,0:1:0:0:
512,152,242623,1,0,0:0:0:0:
508,168,242710,1,0,0:0:0:0:
504,184,242797,1,0,0:0:0:0:
500,200,242884,6,2,P|480:240|408:240,1,120,0|0,1:0|0:0,0:0:0:0:
256,352,243145,2,2,P|276:312|348:312,1,120,0|0,0:0|0:0,0:0:0:0:
420,132,243406,1,8,0:0:0:0:
188,248,243580,1,0,0:0:0:0:
148,224,243667,2,0,P|105:215|48:220,1,90.0000034332277,4|0,1:0|0:0,0:0:0:0:
196,120,243927,6,0,P|248:124|328:116,1,105.000001001358,4|0,0:0|0:0,0:0:0:0:
332,200,244188,2,2,P|372:176|424:160,1,90.0000034332277,0|0,0:0|0:0,0:0:0:0:
512,152,244449,1,0,1:0:0:0:
276,272,244623,1,0,0:0:0:0:
188,248,244710,2,2,P|148:272|96:288,1,90.0000034332277,4|0,0:1|0:0,0:0:0:0:
52,104,244971,6,0,P|104:136|156:188,1,120,4|0,0:0|0:0,0:0:0:0:
284,120,245232,2,2,P|336:92|356:32,1,120,0|0,0:0|0:0,0:0:0:0:
284,120,245493,2,2,P|343:121|390:79,1,120,2|0,2:0|0:0,0:0:0:0:
224,184,245754,2,0,P|256:200|292:208,1,67.5000025749208,4|0,0:1|0:0,0:0:0:0:
352,276,246014,6,0,P|404:260|460:256,1,105.000001001358,4|0,0:0|0:0,0:0:0:0:
228,280,246275,1,2,0:0:0:0:
184,284,246362,1,0,0:0:0:0:
140,276,246449,1,0,0:0:0:0:
100,256,246536,2,0,P|56:264|16:288,1,90.0000034332277,0|0,1:0|0:0,0:0:0:0:
68,168,246797,1,8,0:1:0:0:
76,176,246971,5,0,0:0:0:0:
148,140,247058,2,0,P|176:96|192:36,1,105.000001001358,4|0,0:0|0:0,0:0:0:0:
364,244,247319,2,0,P|336:288|320:348,1,105.000001001358,4|0,1:0|0:0,0:0:0:0:
120,224,247580,2,0,P|173:219|244:228,1,105.000001001358,8|0,1:3|1:0,0:0:0:0:
392,160,247840,2,0,P|339:165|268:156,1,105.000001001358,4|0,1:0|0:0,0:0:0:0:
172,304,248101,5,4,0:3:0:0:
172,304,248362,1,0,0:0:0:0:
172,304,248623,1,2,1:0:0:0:
128,316,248710,1,0,0:0:0:0:
80,312,248797,1,0,0:0:0:0:
32,288,248884,1,0,0:0:0:0:
8,236,248971,1,0,0:0:0:0:
4,172,249058,1,0,0:0:0:0:
40,116,249145,2,2,P|52:96|56:24,1,90.0000034332277,0|0,1:0|0:0,0:0:0:0:
156,124,249406,5,0,0:0:0:0:
164,128,249493,1,0,0:0:0:0:
172,132,249580,1,0,0:0:0:0:
264,160,249667,2,0,P|324:156|388:132,1,120,2|0,2:0|0:0,0:0:0:0:
512,44,249927,2,0,P|487:84|472:136,1,90.0000034332277
500,288,250188,5,0,1:0:0:0:
484,236,250275,1,0,0:0:0:0:
436,212,250362,1,0,0:0:0:0:
384,228,250449,2,2,P|344:252|324:300,1,90.0000034332277,0|0,0:0|0:0,0:0:0:0:
232,224,250710,5,0,1:0:0:0:
208,236,250797,1,0,0:0:0:0:
184,248,250884,1,0,0:0:0:0:
156,252,250971,5,6,0:1:0:0:
92,244,251058,1,0,0:0:0:0:
48,200,251145,1,0,0:0:0:0:
40,140,251232,2,2,P|-8:132|28:160,1,120,0|0,0:0|0:0,0:0:0:0:
148,144,251493,2,2,P|172:88|176:28,1,120,0|0,0:0|0:0,0:0:0:0:
0,268,251754,5,12,0:0:0:0:
56,312,251840,1,0,0:0:0:0:
124,324,251927,1,0,0:0:0:0:
188,320,252014,1,0,0:0:0:0:
240,292,252101,1,0,0:0:0:0:
272,248,252188,1,0,0:0:0:0:
284,200,252275,6,0,P|284:156|268:104,1,90.0000034332277,0|0,1:0|0:0,0:0:0:0:
360,236,252536,2,2,P|372:264|400:296,1,67.5000025749208,0|0,0:0|0:0,0:0:0:0:
440,224,252797,1,4,1:0:0:0:
148,144,252971,5,0,0:0:0:0:
112,132,253058,1,4,0:1:0:0:
316,88,253232,1,0,0:0:0:0:
352,100,253319,2,0,L|464:80,1,90.0000034332277,0|0,1:0|0:0,0:0:0:0:
192,232,253580,2,2,L|103:247,1,90.0000034332277,4|0,0:1|0:0,0:0:0:0:
328,205,253840,2,2,B|348:276|348:276|368:308|404:320,1,135.000005149842,2|0,2:0|0:0,0:0:0:0:
248,172,254275,5,0,0:0:0:0:
196,156,254362,2,0,L|106:152,1,90.0000034332277,0|0,1:0|0:0,0:0:0:0:
420,232,254623,2,0,L|509:235,1,90.0000034332277,8|0,0:1|0:0,0:0:0:0:
132,228,254884,2,2,L|42:224,1,90.0000034332277,2|0,0:0|0:0,0:0:0:0:
376,144,255145,2,2,L|465:147,1,90.0000034332277,8|0,0:1|0:0,0:0:0:0:
68,324,255406,5,8,0:1:0:0:
216,272,255580,1,0,0:0:0:0:
272,256,255667,2,2,P|316:256|361:260,1,90.0000034332277,0|0,0:0|0:0,0:0:0:0:
272,256,255927,6,0,P|321:200|245:173,1,180,4|0,0:0|0:0,0:0:0:0:
384,328,256362,5,0,0:0:0:0:
424,312,256449,2,0,P|448:284|460:228,1,90.0000034332277,4|0,0:0|0:0,0:0:0:0:
456,80,256710,2,2,P|468:124|504:172,1,90.0000034332277,0|0,0:0|0:0,0:0:0:0:
432,8,256971,5,0,1:0:0:0:
396,36,257058,1,0,0:0:0:0:
380,76,257145,1,0,0:0:0:0:
344,24,257232,5,6,0:1:0:0:
280,12,257319,1,0,0:0:0:0:
228,48,257406,1,0,0:0:0:0:
224,112,257493,2,2,P|243:158|284:196,1,90.0000034332277,0|0,0:0|0:0,0:0:0:0:
184,268,257754,2,2,P|160:304|96:328,1,90.0000034332277,0|0,0:0|0:0,0:0:0:0:
280,336,258014,2,2,P|320:348|370:346,1,90.0000034332277,2|0,2:0|0:0,0:0:0:0:
492,188,258275,2,2,P|452:176|401:177,1,90.0000034332277,0|0,0:0|0:0,0:0:0:0:
164,184,258536,5,0,1:0:0:0:
148,192,258623,1,0,0:0:0:0:
132,200,258710,1,0,0:0:0:0:
116,208,258797,1,4,0:1:0:0:
116,208,259058,5,2,0:1:0:0:
148,176,259145,1,0,0:0:0:0:
152,128,259232,1,0,0:0:0:0:
132,80,259319,1,0,0:0:0:0:
76,68,259406,1,0,0:0:0:0:
16,92,259493,1,0,0:0:0:0:
4,160,259580,6,2,B|12:224|12:224|44:284,1,120,0|0,0:0|0:0,0:0:0:0:
304,304,259840,2,2,B|296:240|296:240|264:180,1,120,0|0,0:0|0:0,0:0:0:0:
80,336,260101,1,4,0:0:0:0:
228,128,260362,1,0,1:0:0:0:
436,280,260536,1,0,1:0:0:0:
440,284,260623,1,4,1:0:0:0:
472,32,260884,1,4,0:1:0:0:
228,128,261145,5,2,0:1:0:0:
180,152,261232,1,0,0:0:0:0:
132,176,261319,1,0,0:0:0:0:
84,204,261406,1,0,1:0:0:0:
32,364,261580,1,0,1:0:0:0:
80,336,261667,1,4,0:0:0:0:
96,344,261927,5,4,1:0:0:0:
112,352,262188,5,2,0:2:0:0:
336,336,262449,1,4,0:1:0:0:
432,216,262623,1,0,0:0:0:0:
480,204,262710,2,0,P|496:156|496:100,1,105.000001001358,4|0,0:0|0:0,0:0:0:0:
284,204,262971,2,0,P|272:256|272:300,1,90.0000034332277,8|0,0:1|0:0,0:0:0:0:
132,176,263232,6,0,P|88:184|28:180,1,105.000001001358,4|0,0:0|0:0,0:0:0:0:
224,44,263493,2,0,P|224:96|236:136,1,90.0000034332277,8|0,0:1|0:0,0:0:0:0:
348,256,263754,5,0,1:0:0:0:
352,292,263840,1,0,0:0:0:0:
344,328,263927,1,0,0:0:0:0:
328,360,264014,2,0,P|285:376|241:373,1,90.0000034332277,0|0,1:0|0:0,0:0:0:0:
9,247,264275,2,0,P|56:228|110:226,1,105.000001001358,6|0,0:0|0:0,0:0:0:0:
272,296,264536,1,4,0:0:0:0:
