osu file format v12

[General]
AudioFilename: 02 Yoiyami Hanabi.mp3
AudioLeadIn: 0
PreviewTime: 108145
Countdown: 0
SampleSet: Normal
StackLeniency: 0.7
Mode: 0
LetterboxInBreaks: 0
WidescreenStoryboard: 0

[Editor]
Bookmarks: 139058,141667
DistanceSpacing: 0.5
BeatDivisor: 4
GridSize: 4

[Metadata]
Title:Yoiyami Hanabi
TitleUnicode:宵闇花火
Artist:Hatsuki Yura
ArtistUnicode:葉月ゆら
Creator:Lan wings
Version:Kotone
Source:
Tags:Kotone karenying Regou BakaHuang Beren Kiiwa
BeatmapID:297468
BeatmapSetID:115011

[Difficulty]
HPDrainRate:7
CircleSize:5
OverallDifficulty:7
ApproachRate:8
SliderMultiplier:1.7
SliderTickRate:1

[Events]
//Background and Video events
0,0,"bg.jpg",0,0
//Break Periods
2,141867,157612
//Storyboard Layer 0 (Background)
//Storyboard Layer 1 (Fail)
//Storyboard Layer 2 (Pass)
//Storyboard Layer 3 (Foreground)
//Storyboard Sound Samples
//Background Colour Transformations
3,100,163,162,255

[TimingPoints]
-246,521.739130434783,4,2,5,100,1,0
275,-100,4,2,5,50,0,0
2623,-100,4,2,0,50,0,0
3014,-100,4,2,5,50,0,0
4971,-100,4,2,0,50,0,0
5232,-100,4,2,5,50,0,0
6797,-100,4,2,0,50,0,0
7188,-100,4,2,5,50,0,0
9145,-100,4,2,0,50,0,0
9275,-100,4,2,5,50,0,0
11232,-100,4,2,0,50,0,0
11754,-100,4,2,5,50,0,0
13319,-100,4,2,0,50,0,0
13449,-100,4,2,5,50,0,0
14362,-100,4,2,0,50,0,0
17754,-100,4,1,0,32,0,0
18014,-100,4,1,0,28,0,0
18536,-100,4,2,6,80,0,0
34710,-100,4,1,6,44,0,0
35232,-100,4,2,0,80,0,0
36797,-100,4,1,0,44,0,0
37319,-100,4,1,5,60,0,0
40971,-133.333333333333,4,1,5,60,0,0
41493,-100,4,1,5,60,0,0
44884,-133.333333333333,4,1,5,60,0,0
45667,-100,4,1,5,60,0,0
49058,-133.333333333333,4,1,5,60,0,0
49840,-100,4,1,5,60,0,0
52840,-100,4,1,0,40,0,0
54014,-100,4,1,5,60,0,0
61840,-133.333333333333,4,1,5,60,0,0
62362,-100,4,1,5,60,0,0
68623,-83.3333333333333,4,2,0,48,0,0
70710,-100,4,1,5,60,0,0
74101,-133.333333333333,4,1,5,60,0,0
74884,-100,4,1,5,60,0,0
78275,-133.333333333333,4,1,5,60,0,0
79058,-100,4,1,5,60,0,0
82449,-133.333333333333,4,1,5,60,0,0
83232,-100,4,1,5,60,0,0
86232,-100,4,1,0,40,0,0
86884,-66.6666666666667,4,1,0,40,0,0
87406,-100,4,1,5,60,0,0
106971,-100,4,1,0,45,0,0
108275,-100,4,1,5,80,0,1
116362,-100,4,1,0,50,0,1
116754,-100,4,1,5,80,0,1
133058,-100,4,1,0,50,0,1
133319,-100,4,1,5,80,0,1
140101,-100,4,1,0,60,0,1
141667,-100,4,1,5,60,0,0
175971,-100,4,1,0,45,0,0
176623,-66.6666666666667,4,1,0,45,0,0
176884,-100,4,1,5,60,0,0
196710,-100,4,1,0,50,0,0
198014,-100,4,1,5,80,0,1
206101,-100,4,1,0,50,0,1
206362,-100,4,1,5,80,0,1
229580,-100,4,1,0,80,0,1
231275,-100,4,1,5,80,0,0
231406,-83.3333333333333,4,1,5,80,0,1
261927,-83.3333333333333,4,1,0,60,0,1
264797,-100,4,1,5,90,0,0

[Colours]
Combo1 : 175,221,254
Combo2 : 128,128,255
Combo3 : 139,243,202

[HitObjects]
59,214,1840,2,0,L|67:302,1,85,4|0,0:1|0:0,0:0:0:0:
176,45,2623,1,2,0:0:0:0:
191,148,2884,2,0,B|149:166|97:139|85:93|85:93|73:114|73:138,1,170,0|2,0:0|3:2,0:0:0:0:
73,126,3927,2,0,P|110:149|155:146,1,85,0|2,0:0|3:2,0:0:0:0:
233,222,4449,2,0,P|274:220|310:242,1,85,2|0,3:0|0:0,0:0:0:0:
139,237,4971,2,0,B|124:204|134:159|178:139|178:139|141:158|88:142,1,170,2|8,0:0|3:0,0:0:0:0:
127,149,6014,6,0,P|181:137|213:100,1,85
36,72,6797,1,2,0:0:0:0:
2,159,7058,2,0,L|24:335,1,170,0|2,0:0|3:2,0:0:0:0:
23,327,8101,5,0,0:0:0:0:
109,290,8362,1,2,3:2:0:0:
31,342,8623,2,0,L|21:253,1,85,2|0,3:0|0:0,0:0:0:0:
1,110,9145,2,0,B|38:101|70:115|91:144|91:144|72:106|94:59,1,170,2|8,0:0|3:0,0:0:0:0:
291,84,10188,6,0,L|134:106,2,127.5,4|0|0,0:1|0:0|0:0,0:0:0:0:
452,12,11232,1,0,0:0:0:0:
384,76,11493,1,2,0:0:0:0:
442,148,11754,2,0,P|458:182|447:228,1,85,2|0,3:2|0:0,0:0:0:0:
324,334,12275,6,0,P|308:300|319:254,1,85,0|2,0:0|3:2,0:0:0:0:
464,167,12797,2,0,P|480:201|469:247,1,85,2|0,3:0|0:0,0:0:0:0:
318,255,13319,2,0,L|138:235,1,170,2|8,0:0|3:0,0:0:0:0:
52,75,14362,5,2,0:0:0:0:
55,82,15406,1,2,0:0:0:0:
58,89,16449,1,2,0:0:0:0:
116,192,16971,1,2,0:0:0:0:
58,296,17493,5,2,0:0:0:0:
139,319,17754,1,0,1:0:0:0:
210,270,18014,1,0,1:0:0:0:
231,267,18145,1,0,1:0:0:0:
252,264,18275,1,0,1:0:0:0:
479,245,18536,6,0,P|437:280|354:263,1,127.5,4|0,0:0|0:0,0:0:0:0:
375,177,19058,2,0,L|385:89,1,85,8|0,0:0|0:0,0:0:0:0:
474,66,19580,1,0,0:3:0:0:
293,30,19840,2,0,L|245:38,2,28.3333333333333
310,35,20101,2,0,L|209:52,1,85,10|0,0:0|0:0,0:0:0:0:
97,109,20623,6,0,P|89:155|115:188,1,85,0|2,0:0|0:0,0:0:0:0:
261,265,21145,2,0,P|269:219|243:186,1,85,10|0,0:0|0:0,0:0:0:0:
168,347,21667,1,0,0:3:0:0:
358,279,21927,1,0,0:0:0:0:
378,274,22058,1,0,0:0:0:0:
398,269,22188,1,8,0:0:0:0:
418,264,22319,1,0,0:0:0:0:
438,259,22449,1,0,0:3:0:0:
458,254,22580,1,0,0:0:0:0:
478,248,22710,6,0,P|497:194|458:128,1,127.5,0|0,0:0|0:0,0:0:0:0:
390,110,23232,2,0,L|291:130,1,85,10|0,0:3|0:0,0:0:0:0:
182,208,23754,1,0,0:0:0:0:
181,20,24014,2,0,P|196:30|208:51,2,28.3333333333333
176,35,24275,2,0,P|204:69|207:114,1,85,8|0,0:0|0:0,0:0:0:0:
182,208,24797,5,0,0:3:0:0:
86,244,25058,1,2,0:0:0:0:
188,374,25318,1,10,0:0:0:0:
89,344,25579,1,0,0:3:0:0:
245,289,25840,2,0,P|285:275|336:277,1,85,0|2,0:3|0:0,0:0:0:0:
434,334,26275,1,0,0:0:0:0:
434,334,26362,2,0,L|448:247,1,85,10|0,0:0|0:0,0:0:0:0:
472,106,26797,5,0,0:0:0:0:
472,106,26884,2,0,L|362:126,1,85,4|0,0:0|0:0,0:0:0:0:
217,207,27406,2,0,L|327:187,1,85,8|0,0:0|0:0,0:0:0:0:
334,36,27927,1,0,0:0:0:0:
247,99,28188,2,0,L|202:108,2,28.3333333333333
259,98,28449,2,0,L|149:118,1,85,10|0,0:0|0:0,0:0:0:0:
40,30,28971,6,0,P|16:82|32:130,1,85,0|2,0:0|0:0,0:0:0:0:
178,144,29493,2,0,P|144:97|95:87,1,85,10|0,0:0|0:0,0:0:0:0:
13,207,30014,2,0,P|70:201|103:163,1,85,2|0,0:3|0:0,0:0:0:0:
90,185,30406,1,0,0:0:0:0:
178,144,30536,2,0,L|241:134,1,42.5,8|0,0:0|0:0,0:0:0:0:
304,199,30797,2,0,L|241:209,1,42.5
320,119,31058,6,0,P|399:109|454:116,1,127.5,0|0,0:3|0:0,0:0:0:0:
490,186,31580,2,0,L|473:278,1,85,10|0,0:3|0:0,0:0:0:0:
282,287,32101,1,0,0:0:0:0:
386,234,32362,1,0,0:0:0:0:
386,234,32449,1,0,0:0:0:0:
386,234,32536,1,0,0:0:0:0:
386,234,32623,2,0,L|381:333,1,85,8|0,0:0|0:0,0:0:0:0:
181,327,33145,5,0,0:0:0:0:
282,287,33406,1,2,0:0:0:0:
101,254,33667,1,2,0:0:0:0:
181,327,33927,1,0,0:0:0:0:
150,157,34188,1,2,0:3:0:0:
101,254,34449,1,0,0:0:0:0:
261,174,34710,1,0,0:0:0:0:
261,174,34840,1,0,0:0:0:0:
261,174,34971,1,0,0:0:0:0:
119,50,35232,5,4,0:0:0:0:
261,174,36275,2,0,P|305:172|347:129,1,85,0|0,0:0|3:1,0:0:0:0:
170,220,36797,2,0,L|160:272,2,42.5
207,48,37319,5,6,0:0:0:0:
34,130,37710,1,2,0:0:0:0:
81,315,38101,1,2,0:0:0:0:
170,220,38362,2,0,P|232:198|315:219,1,127.5
344,242,38884,1,8,0:0:0:0:
432,293,39145,2,0,L|484:282,1,42.5
492,280,39406,6,0,L|509:181,1,85,2|0,0:0|0:0,0:0:0:0:
425,58,39927,2,0,L|408:157,1,85,8|0,0:0|0:0,0:0:0:0:
286,148,40449,1,0,0:0:0:0:
474,341,40710,5,2,0:0:0:0:
474,341,40971,2,0,L|492:280,1,63.7500024318696,2|0,0:0|0:0,0:0:0:0:
412,146,41493,5,2,0:0:0:0:
229,88,41884,1,2,0:0:0:0:
412,146,42275,1,2,0:0:0:0:
302,211,42536,2,0,P|238:216|166:223,1,127.5,0|0,0:0|0:0,0:0:0:0:
113,258,43058,1,8,0:0:0:0:
35,191,43319,1,0,0:0:0:0:
175,223,43580,6,0,P|185:263|157:317,1,85,0|2,0:0|0:0,0:0:0:0:
159,144,44101,2,0,P|149:104|177:50,1,85,8|2,0:0|0:0,0:0:0:0:
261,32,44623,1,0,0:0:0:0:
35,110,44884,5,2,0:0:0:0:
35,110,45145,2,0,L|25:186,1,63.7500024318696,2|0,0:0|0:0,0:0:0:0:
64,229,45536,5,0,0:0:0:0:
64,229,45667,2,0,L|208:220,2,127.5,6|2|2,0:0|0:0|0:0,0:0:0:0:
269,274,46710,2,0,P|339:288|404:253,1,127.5
439,227,47232,1,8,0:0:0:0:
369,152,47493,5,0,0:0:0:0:
369,152,47623,1,0,0:0:0:0:
369,152,47754,1,2,0:0:0:0:
482,46,48014,2,0,P|489:96|472:141,1,85,0|8,0:0|0:0,0:0:0:0:
369,152,48536,1,0,0:0:0:0:
482,46,48797,1,0,0:0:0:0:
232,72,49058,6,0,L|139:81,2,63.7500024318696,2|2|0,0:0|0:0|0:0,0:0:0:0:
279,123,49710,5,0,0:0:0:0:
279,123,49840,2,0,P|292:192|264:250,2,127.5,2|2|2,0:0|0:0|0:0,0:0:0:0:
388,56,50884,2,0,L|494:46,1,85
491,217,51406,5,8,0:0:0:0:
427,139,51667,1,0,0:0:0:0:
451,322,51927,2,0,P|418:360|385:364,1,85,2|0,0:0|0:0,0:0:0:0:
310,331,52319,1,0,0:0:0:0:
310,331,52449,2,0,P|289:305|298:254,1,85,4|0,0:0|0:0,0:0:0:0:
370,212,52840,1,0,0:0:0:0:
370,212,52971,2,0,L|428:216,2,42.5
178,189,53493,1,0,0:0:0:0:
178,189,53623,1,0,0:0:0:0:
178,189,53754,1,0,0:0:0:0:
84,273,54014,6,0,P|49:239|56:189,1,85,4|2,0:0|3:2,0:0:0:0:
149,72,54536,2,0,L|264:86,1,85,8|0,3:0|0:0,0:0:0:0:
309,99,54927,1,0,0:0:0:0:
309,99,55058,2,0,P|362:97|395:52,1,85,2|0,0:0|0:0,0:0:0:0:
468,161,55580,2,0,P|443:207|465:258,1,85,8|0,0:0|0:0,0:0:0:0:
481,334,56101,5,2,0:0:0:0:
354,264,56362,1,2,3:2:0:0:
383,361,56623,1,8,3:0:0:0:
313,248,56884,1,0,0:0:0:0:
334,256,57015,1,0,0:0:0:0:
354,264,57145,2,0,L|451:251,1,85,2|0,0:0|0:0,0:0:0:0:
487,118,57667,2,0,L|390:131,1,85,8|0,0:0|0:0,0:0:0:0:
307,20,58058,5,0,0:0:0:0:
307,20,58188,2,0,P|289:52|305:100,1,85,2|2,0:0|3:2,0:0:0:0:
403,37,58710,1,2,3:0:0:0:
239,172,58971,1,0,0:0:0:0:
239,172,59101,1,0,0:0:0:0:
239,172,59232,2,0,P|257:204|244:248,1,85,2|0,0:0|0:0,0:0:0:0:
119,343,59754,2,0,P|101:311|113:266,1,85,8|0,0:0|0:0,0:0:0:0:
239,172,60275,2,0,L|383:152,1,127.5,2|0,0:0|0:0,0:0:0:0:
436,190,60797,2,0,P|449:240|429:282,1,85,8|0,0:0|0:0,0:0:0:0:
298,312,61319,1,0,0:0:0:0:
433,109,61580,5,2,0:0:0:0:
433,109,61840,2,0,L|442:38,1,63.7500024318696,2|0,0:0|0:0,0:0:0:0:
442,32,62232,1,0,0:0:0:0:
444,15,62362,1,4,0:0:0:0:
346,71,62623,5,2,3:2:0:0:
244,29,62884,2,0,P|192:49|152:36,1,85,8|0,0:3|0:0,0:0:0:0:
76,22,63275,1,0,0:0:0:0:
76,22,63406,2,0,L|56:112,1,85,2|0,0:0|0:0,0:0:0:0:
31,259,63927,2,0,L|141:245,1,85,8|0,0:0|0:0,0:0:0:0:
260,224,64449,2,0,P|271:273|258:327,2,85,0|2|8,0:0|3:2|3:0,0:0:0:0:
187,151,65232,1,0,0:0:0:0:
187,151,65362,1,0,0:0:0:0:
187,151,65493,2,0,P|237:124|311:133,1,127.5,2|0,0:0|0:0,0:0:0:0:
370,174,66014,2,0,P|417:186|460:163,1,85,8|0,0:0|0:0,0:0:0:0:
501,133,66406,5,0,0:0:0:0:
501,133,66536,2,0,L|488:238,1,85,4|2,0:0|3:2,0:0:0:0:
363,295,67058,1,8,3:0:0:0:
464,321,67319,1,0,0:0:0:0:
464,321,67449,1,0,0:0:0:0:
464,321,67580,1,2,0:0:0:0:
249,351,67840,5,0,0:0:0:0:
167,258,68101,1,2,0:0:0:0:
230,153,68362,1,0,0:0:0:0:
349,178,68623,2,0,L|484:165,1,101.999996887207,0|0,1:0|1:0,0:0:0:0:
128,86,69145,2,0,L|-7:99,1,101.999996887207,0|0,1:0|1:0,0:0:0:0:
321,64,69667,5,0,1:0:0:0:
125,206,69927,1,0,1:0:0:0:
252,300,70188,1,0,1:0:0:0:
252,300,70319,1,0,1:0:0:0:
252,300,70449,1,0,1:0:0:0:
342,252,70710,5,6,0:0:0:0:
441,88,71101,1,2,0:0:0:0:
439,279,71493,1,2,0:0:0:0:
418,179,71754,2,0,P|353:144|283:163,1,127.5
247,183,72275,1,8,0:0:0:0:
139,114,72536,1,0,0:0:0:0:
236,259,72797,6,0,P|275:258|308:229,1,85,2|0,0:0|0:0,0:0:0:0:
134,294,73319,2,0,P|94:294|61:323,1,85,8|0,0:0|0:0,0:0:0:0:
213,354,73840,1,0,0:0:0:0:
139,114,74101,2,0,L|118:46,2,63.7500024318696,2|2|0,0:0|0:0|0:0,0:0:0:0:
208,154,74754,5,0,0:0:0:0:
208,154,74884,2,0,L|354:143,2,127.5,2|2|2,0:0|0:0|0:0,0:0:0:0:
123,313,75927,2,0,L|112:219,1,85
90,102,76449,1,0,0:0:0:0:
70,223,76710,1,0,0:0:0:0:
92,226,76841,1,0,0:0:0:0:
113,228,76971,6,0,L|218:242,1,85,2|0,0:0|0:0,0:0:0:0:
358,336,77493,2,0,L|253:322,1,85,8|0,0:0|0:0,0:0:0:0:
334,205,78014,1,0,0:0:0:0:
414,222,78275,2,0,L|492:232,2,63.7500024318696,2|2|0,0:0|0:0|0:0,0:0:0:0:
334,205,78927,5,0,0:0:0:0:
334,205,79058,2,0,P|321:129|341:83,2,127.5,6|2|2,0:0|0:0|0:0,0:0:0:0:
388,336,80101,2,0,L|300:347,1,85
215,294,80623,1,8,0:0:0:0:
128,332,80884,2,0,L|72:340,1,42.5
60,342,81145,6,0,L|51:250,1,85,2|0,0:0|0:0,0:0:0:0:
207,209,81667,2,0,L|216:301,1,85,8|0,0:0|0:0,0:0:0:0:
108,163,82188,1,0,0:0:0:0:
315,64,82449,5,2,0:0:0:0:
315,64,82710,2,0,L|388:53,1,63.7500024318696,2|0,0:0|0:0,0:0:0:0:
478,201,83232,5,2,0:0:0:0:
294,253,83623,2,0,L|138:260,1,127.5,2|2,0:0|0:0,0:0:0:0:
34,180,84275,2,0,L|124:175,1,85
221,168,84797,1,8,0:0:0:0:
171,277,85058,2,0,L|127:296,2,42.5,0|0|2,0:0|0:0|0:0,0:0:0:0:
375,257,85580,5,0,0:0:0:0:
375,257,85710,1,0,0:0:0:0:
375,257,85840,2,0,P|350:247|294:253,1,85,4|0,0:0|0:0,0:0:0:0:
262,267,86232,1,0,0:0:0:0:
279,237,86362,1,0,0:0:0:0:
286,203,86493,1,0,0:0:0:0:
279,169,86623,1,2,0:2:0:0:
264,138,86754,1,0,0:0:0:0:
240,114,86884,2,0,P|189:90|109:118,1,127.500004863739,2|0,0:2|0:0,0:0:0:0:
188,303,87406,6,0,P|232:292|273:249,1,85,4|2,0:1|3:2,0:0:0:0:
123,106,87927,2,0,L|113:196,1,85,8|0,3:0|0:0,0:0:0:0:
79,249,88319,1,0,0:0:0:0:
79,249,88449,2,0,L|69:339,1,85,2|0,0:0|0:0,0:0:0:0:
27,129,88971,2,0,L|37:39,1,85,8|0,0:0|0:0,0:0:0:0:
38,31,89362,1,0,0:0:0:0:
39,18,89493,1,2,0:0:0:0:
153,75,89754,5,2,3:2:0:0:
271,30,90014,2,0,P|314:43|365:35,1,85,8|0,3:0|0:0,0:0:0:0:
419,11,90406,1,0,0:0:0:0:
419,11,90536,2,0,L|438:105,2,85,2|0|8,0:0|0:0|0:0,0:0:0:0:
349,153,91319,1,0,0:0:0:0:
349,153,91449,1,0,0:0:0:0:
349,153,91580,6,0,L|412:224,1,85,2|2,0:0|3:2,0:0:0:0:
228,293,92101,1,2,3:0:0:0:
349,333,92362,1,0,0:0:0:0:
349,333,92493,1,0,0:0:0:0:
349,333,92623,1,2,0:0:0:0:
228,293,92884,1,0,0:0:0:0:
349,333,93145,2,0,L|454:314,1,85,8|0,0:0|0:0,0:0:0:0:
228,293,93667,6,0,L|87:309,1,127.5,2|0,0:0|0:3,0:0:0:0:
44,278,94188,2,0,P|29:235|34:194,1,85,8|0,3:0|0:0,0:0:0:0:
138,25,94710,1,2,0:0:0:0:
81,110,94971,1,0,0:0:0:0:
232,65,95232,2,0,P|247:108|242:149,1,85,8|0,0:0|0:0,0:0:0:0:
202,339,95754,6,0,P|272:341|325:282,1,127.5,2|0,0:0|0:0,0:0:0:0:
348,240,96275,1,2,3:0:0:0:
389,369,96536,1,0,0:0:0:0:
399,356,96667,1,0,0:0:0:0:
408,343,96797,2,0,L|497:327,1,85,2|0,0:0|0:0,0:0:0:0:
466,136,97319,2,0,L|377:152,1,85,8|0,0:0|0:0,0:0:0:0:
281,167,97840,5,2,0:0:0:0:
57,289,98362,1,8,3:0:0:0:
137,87,98623,2,0,L|191:75,1,42.5
197,75,98884,2,0,P|212:115|201:164,1,85,2|0,0:0|0:0,0:0:0:0:
151,350,99406,2,0,P|136:310|147:261,1,85,8|0,0:0|0:0,0:0:0:0:
177,215,99797,1,0,0:0:0:0:
177,215,99927,6,0,L|269:202,1,85,4|0,0:0|3:0,0:0:0:0:
354,305,100449,1,2,3:0:0:0:
392,101,100710,1,0,0:0:0:0:
392,101,100840,1,0,0:0:0:0:
392,101,100971,1,2,0:0:0:0:
447,213,101232,1,0,0:0:0:0:
354,305,101493,1,8,0:0:0:0:
242,243,101754,1,0,0:0:0:0:
263,117,102014,5,4,0:0:0:0:
40,242,102536,1,8,0:0:0:0:
62,69,102797,1,0,0:0:0:0:
62,69,102927,1,0,0:0:0:0:
62,69,103058,2,0,P|94:121|78:189,1,127.5,2|0,0:0|0:0,0:0:0:0:
40,242,103580,2,0,P|26:291|34:324,1,85,8|0,0:0|0:0,0:0:0:0:
195,254,104101,5,4,0:0:0:0:
319,221,104362,1,2,3:2:0:0:
285,344,104623,1,8,0:3:0:0:
195,254,104884,1,0,0:0:0:0:
195,254,105014,1,0,0:0:0:0:
195,254,105145,1,2,0:0:0:0:
408,311,105406,1,0,0:0:0:0:
227,130,105667,1,8,0:0:0:0:
351,97,105928,1,0,0:0:0:0:
441,188,106188,1,4,0:0:0:0:
319,221,106710,5,8,0:0:0:0:
227,130,106971,1,0,0:0:0:0:
206,125,107101,1,0,0:0:0:0:
185,120,107232,1,0,0:0:0:0:
319,221,107493,1,0,0:0:0:0:
93,162,107754,1,0,0:0:0:0:
72,157,107884,1,0,0:0:0:0:
51,152,108015,1,0,0:0:0:0:
195,254,108275,5,4,2:0:0:0:
458,44,108797,2,0,P|490:102|476:165,1,127.5,8|0,0:0|0:0,0:0:0:0:
445,224,109319,1,2,0:0:0:0:
401,130,109580,1,2,0:0:0:0:
458,44,109840,1,8,0:0:0:0:
345,218,110101,1,0,0:0:0:0:
283,51,110362,6,0,P|338:30|377:46,1,85,2|0,0:0|0:0,0:0:0:0:
345,218,110884,2,0,P|290:239|251:223,1,85,8|0,0:0|0:0,0:0:0:0:
401,130,111406,1,2,0:0:0:0:
490,250,111667,2,0,L|499:351,2,85,2|8|0,0:0|0:0|0:0,0:0:0:0:
291,134,112449,5,2,0:0:0:0:
65,300,112971,2,0,P|106:343|185:321,1,127.5,8|0,0:0|0:0,0:0:0:0:
241,275,113493,1,2,0:0:0:0:
324,338,113754,1,0,0:0:0:0:
135,280,114014,1,8,0:0:0:0:
339,233,114275,2,0,L|382:224,1,42.5
450,207,114536,6,0,P|463:242|446:300,1,85,2|0,0:0|0:0,0:0:0:0:
416,120,115058,2,0,P|403:85|420:27,1,85,8|0,0:0|0:0,0:0:0:0:
507,131,115580,1,2,0:0:0:0:
336,188,115840,2,0,P|298:189|248:155,1,85,2|2,0:0|0:0,0:0:0:0:
75,98,116362,5,0,0:0:0:0:
75,98,116493,1,0,0:0:0:0:
75,98,116623,2,0,L|53:241,1,127.5,4|0,0:2|0:0,0:0:0:0:
96,296,117145,2,0,P|167:312|228:279,1,127.5,8|0,0:0|0:0,0:0:0:0:
256,216,117667,2,0,P|253:165|224:134,1,85,2|0,0:0|0:0,0:0:0:0:
308,289,118188,1,8,0:0:0:0:
159,87,118449,1,0,0:0:0:0:
159,87,118580,1,0,0:0:0:0:
159,87,118710,6,0,P|201:60|254:70,1,85,2|0,0:0|0:0,0:0:0:0:
395,122,119232,2,0,P|438:123|470:96,1,85,8|0,0:0|0:0,0:0:0:0:
335,39,119754,1,2,0:0:0:0:
96,161,120014,2,0,L|0:171,2,85,2|8|0,0:0|0:0|0:0,0:0:0:0:
163,200,120667,5,0,0:0:0:0:
163,200,120797,2,0,P|184:274|165:317,1,127.5,4|0,0:0|0:0,0:0:0:0:
18,292,121319,2,0,P|45:266|94:263,1,85,8|0,0:0|0:0,0:0:0:0:
260,352,121840,2,0,P|305:348|332:322,1,85,4|0,0:0|0:0,0:0:0:0:
285,174,122362,1,8,0:0:0:0:
332,322,122623,1,0,0:0:0:0:
337,301,122754,1,0,0:0:0:0:
342,280,122884,6,0,L|432:259,1,85,4|0,0:0|0:0,0:0:0:0:
485,201,123275,1,0,0:0:0:0:
485,201,123406,2,0,P|496:139|474:100,1,85,8|0,0:0|0:0,0:0:0:0:
374,38,123927,2,0,L|284:59,1,85,4|0,0:0|0:0,0:0:0:0:
148,170,124449,1,8,3:1:0:0:
168,165,124580,1,0,3:1:0:0:
188,160,124710,1,0,3:1:0:0:
90,316,124971,5,4,0:2:0:0:
234,82,125493,2,0,P|279:172|254:219,1,127.5,8|0,0:0|0:0,0:0:0:0:
231,257,126014,1,2,0:0:0:0:
380,171,126275,1,0,0:0:0:0:
234,82,126536,1,8,0:0:0:0:
281,166,126797,1,0,0:0:0:0:
352,267,127058,6,0,L|458:261,1,85,2|0,0:0|0:0,0:0:0:0:
148,216,127580,2,0,L|42:222,1,85,8|0,0:0|0:0,0:0:0:0:
226,332,128101,1,2,0:0:0:0:
394,166,128362,2,0,L|485:159,2,85,2|8|0,0:0|0:0|0:0,0:0:0:0:
87,54,129145,5,2,0:0:0:0:
125,329,129667,2,0,P|68:290|72:225,1,127.5,8|0,0:0|0:0,0:0:0:0:
106,168,130188,2,0,L|197:153,1,85,2|0,0:0|0:0,0:0:0:0:
290,349,130710,2,0,L|199:364,1,85,8|0,0:0|0:0,0:0:0:0:
243,253,131232,5,2,0:0:0:0:
298,157,131493,1,0,0:0:0:0:
407,175,131754,1,8,0:0:0:0:
419,284,132014,1,0,0:0:0:0:
321,336,132275,1,2,0:0:0:0:
298,157,132536,2,0,L|289:62,2,85,2|8|0,0:0|0:0|0:0,0:0:0:0:
245,231,133188,5,0,0:3:0:0:
245,231,133319,2,0,P|191:267|125:258,1,127.5,4|0,0:1|0:0,0:0:0:0:
70,224,133840,2,0,P|34:169|45:103,1,127.5,8|0,0:0|0:0,0:0:0:0:
81,51,134362,1,2,0:0:0:0:
1,181,134623,1,0,0:0:0:0:
148,103,134884,2,0,L|247:100,1,85,8|0,0:0|0:0,0:0:0:0:
390,136,135406,6,0,P|348:153|309:152,1,85,2|0,0:0|0:0,0:0:0:0:
81,51,135927,2,0,P|123:34|162:35,1,85,8|0,0:0|0:0,0:0:0:0:
108,221,136449,2,0,L|79:317,2,85,2|2|8,0:0|0:0|0:0,0:0:0:0:
183,351,137232,5,0,0:0:0:0:
183,351,137362,1,0,0:0:0:0:
183,351,137493,2,0,P|241:331|283:344,1,85,4|0,0:0|0:0,0:0:0:0:
471,263,138014,2,0,P|413:243|371:256,1,85,8|0,0:0|0:0,0:0:0:0:
141,199,138536,2,0,L|244:188,1,85,4|0,0:0|0:0,0:0:0:0:
512,130,139058,2,0,L|409:119,1,85,8|0,0:0|0:0,0:0:0:0:
298,34,139580,5,4,0:0:0:0:
427,120,139840,1,0,0:0:0:0:
427,120,139971,1,0,0:0:0:0:
427,120,140101,1,0,0:2:0:0:
225,189,140362,1,0,0:0:0:0:
391,246,140623,1,0,0:0:0:0:
262,334,140884,1,0,0:0:0:0:
391,246,141145,2,0,L|467:242,2,42.5
160,285,141667,1,4,0:0:0:0:
52,60,158362,5,2,0:0:0:0:
52,60,158754,1,2,0:0:0:0:
52,60,159145,1,2,0:0:0:0:
165,117,159406,2,0,L|153:300,1,170,2|8,0:0|0:0,0:0:0:0:
70,343,160188,1,0,0:0:0:0:
248,319,160449,6,0,L|383:294,2,127.5,6|2|2,0:0|0:0|0:0,0:0:0:0:
505,320,161493,2,0,P|485:344|433:357,1,85
407,219,162014,2,0,P|435:206|487:218,1,85,8|0,0:0|0:0,0:0:0:0:
486,217,162406,1,0,0:0:0:0:
486,217,162536,2,0,L|467:127,1,85,2|0,0:0|0:0,0:0:0:0:
438,1,163058,2,0,L|347:20,1,85,8|0,0:0|0:0,0:0:0:0:
222,51,163580,1,0,0:0:0:0:
469,135,163840,5,2,0:0:0:0:
469,135,164101,1,2,0:0:0:0:
413,220,164362,1,0,0:0:0:0:
330,160,164623,6,0,L|193:171,2,127.5,2|2|2,0:0|0:0|0:0,0:0:0:0:
287,280,165667,2,0,P|243:313|156:307,1,127.5
112,292,166188,2,0,P|55:278|18:295,1,85,8|0,0:0|0:0,0:0:0:0:
67,347,166580,5,0,0:0:0:0:
67,347,166710,2,0,L|79:198,1,127.5,2|0,0:0|0:0,0:0:0:0:
128,171,167232,2,0,P|170:160|213:172,1,85,8|0,0:0|0:0,0:0:0:0:
389,226,167754,2,0,P|347:237|304:225,2,85,0|2|2,0:0|0:0|0:0,0:0:0:0:
458,140,168536,2,0,L|463:90,1,42.5
465,68,168797,5,6,0:0:0:0:
468,294,169188,1,2,0:0:0:0:
270,184,169580,1,2,0:0:0:0:
358,118,169840,2,0,P|373:185|343:249,1,127.5
301,290,170362,1,8,0:0:0:0:
270,184,170623,1,0,0:0:0:0:
358,118,170884,5,2,0:0:0:0:
301,290,171145,1,0,0:0:0:0:
269,82,171406,1,8,0:0:0:0:
446,158,171667,1,0,0:0:0:0:
377,229,171927,2,0,P|431:269|475:260,2,85,0|2|2,0:0|0:0|0:0,0:0:0:0:
269,82,172710,1,0,0:0:0:0:
177,143,172971,5,2,0:0:0:0:
56,291,173362,1,2,0:0:0:0:
225,202,173754,1,2,0:0:0:0:
103,164,174014,2,0,P|100:104|150:65,1,127.5
216,52,174536,2,0,L|295:87,1,85,8|0,0:0|0:0,0:0:0:0:
360,110,174927,5,0,0:0:0:0:
360,110,175058,2,0,P|420:119|455:89,1,85,2|0,0:0|0:0,0:0:0:0:
216,52,175580,2,0,P|156:43|121:73,1,85,8|0,0:0|0:0,0:0:0:0:
124,80,175971,1,0,0:0:0:0:
131,108,176101,1,0,0:0:0:0:
139,136,176232,1,0,0:0:0:0:
147,164,176362,1,2,0:2:0:0:
155,192,176493,1,0,0:0:0:0:
162,220,176623,2,0,P|144:267|73:282,1,127.500004863739,2|0,0:2|0:0,0:0:0:0:
255,334,177145,6,0,L|351:327,1,85,4|2,0:0|3:2,0:0:0:0:
426,183,177667,2,0,P|436:140|417:102,1,85,8|0,3:0|0:0,0:0:0:0:
351,71,178058,1,0,0:0:0:0:
351,71,178188,2,0,P|341:114|360:152,1,85,2|0,0:0|0:0,0:0:0:0:
415,336,178710,2,0,P|425:293|406:255,1,85,8|0,0:0|0:0,0:0:0:0:
279,231,179232,5,2,0:0:0:0:
300,346,179493,1,2,1:2:0:0:
415,336,179754,1,8,3:0:0:0:
257,193,180014,1,0,0:0:0:0:
268,212,180144,1,0,0:0:0:0:
279,231,180275,2,0,L|373:221,1,85,2|0,0:0|0:0,0:0:0:0:
160,303,180797,2,0,L|66:313,1,85,8|0,0:0|0:0,0:0:0:0:
30,263,181188,5,0,0:0:0:0:
30,263,181319,2,0,P|16:223|28:183,1,85,0|2,0:0|3:2,0:0:0:0:
123,99,181840,1,2,3:0:0:0:
148,224,182101,1,0,0:0:0:0:
148,224,182232,1,0,0:0:0:0:
148,224,182362,1,2,0:0:0:0:
123,99,182623,1,0,0:0:0:0:
148,224,182884,2,0,L|160:321,1,85,8|0,0:0|0:0,0:0:0:0:
255,339,183406,6,0,L|398:329,1,127.5,2|0,0:0|3:0,0:0:0:0:
444,285,183927,2,0,P|452:234|440:190,1,85,8|0,3:0|0:0,0:0:0:0:
422,134,184319,2,0,L|433:88,1,42.5,0|2,0:0|0:0,0:0:0:0:
256,159,184710,1,2,0:0:0:0:
450,26,184971,1,2,0:0:0:0:
256,159,185232,5,0,0:0:0:0:
256,159,185362,1,0,0:0:0:0:
256,159,185493,2,0,P|295:180|343:174,1,85,4|2,0:0|3:2,0:0:0:0:
201,60,186014,2,0,P|162:39|114:45,1,85,2|0,3:0|0:0,0:0:0:0:
74,95,186406,1,0,0:0:0:0:
74,95,186536,2,0,L|91:224,1,127.5,2|0,0:0|0:0,0:0:0:0:
105,292,187058,2,0,P|144:313|192:307,1,85,8|0,0:0|0:0,0:0:0:0:
282,260,187580,5,2,0:0:0:0:
446,48,188101,1,8,0:0:0:0:
322,101,188362,1,0,0:0:0:0:
322,101,188493,1,0,0:0:0:0:
322,101,188623,2,0,L|342:196,1,85,2|0,0:0|0:0,0:0:0:0:
452,297,189145,2,0,L|432:202,1,85,8|0,0:0|0:0,0:0:0:0:
502,145,189536,1,0,0:0:0:0:
502,145,189667,6,0,L|482:50,2,85,4|2|8,0:0|3:2|3:0,0:0:0:0:
354,267,190449,1,0,0:0:0:0:
354,267,190580,1,0,0:0:0:0:
354,267,190710,1,2,0:0:0:0:
308,175,190971,1,0,0:0:0:0:
409,181,191232,1,8,0:0:0:0:
354,267,191493,1,0,0:0:0:0:
252,257,191754,5,4,0:0:0:0:
411,357,192014,1,2,3:2:0:0:
310,341,192275,1,8,3:0:0:0:
252,257,192536,1,0,0:0:0:0:
252,257,192667,1,0,0:0:0:0:
252,257,192797,2,0,P|250:187|291:150,1,127.5,2|0,0:0|0:0,0:0:0:0:
236,189,193319,2,0,P|193:193|162:161,1,85,8|0,0:0|0:0,0:0:0:0:
137,105,193710,1,0,0:0:0:0:
137,105,193840,6,0,L|31:97,1,85,4|2,0:0|3:2,0:0:0:0:
267,59,194362,2,0,L|373:67,1,85,2|0,3:0|0:0,0:0:0:0:
425,88,194754,1,0,0:0:0:0:
425,88,194884,1,2,0:0:0:0:
230,165,195145,1,0,0:0:0:0:
432,188,195406,1,8,0:0:0:0:
316,248,195667,1,0,0:0:0:0:
416,300,195927,1,4,0:0:0:0:
416,300,196449,5,8,0:0:0:0:
332,139,196710,1,0,0:0:0:0:
328,118,196840,1,0,0:0:0:0:
324,96,196971,1,0,0:0:0:0:
416,300,197232,1,0,0:0:0:0:
235,227,197493,1,0,0:0:0:0:
231,206,197623,1,0,0:0:0:0:
227,184,197754,1,0,0:0:0:0:
198,55,198014,5,4,0:2:0:0:
59,255,198536,2,0,P|110:325|175:321,1,127.5,8|0,0:0|0:0,0:0:0:0:
215,312,199058,1,2,0:0:0:0:
35,171,199319,1,0,0:0:0:0:
34,356,199580,1,8,0:0:0:0:
215,312,199840,1,0,0:0:0:0:
259,219,200101,6,0,P|308:192|364:204,1,85,2|0,0:0|0:0,0:0:0:0:
310,74,200623,2,0,P|255:88|204:63,1,85,8|0,0:0|0:0,0:0:0:0:
428,116,201145,1,2,0:0:0:0:
328,281,201406,2,0,L|317:367,2,85,2|8|0,0:0|0:0|0:0,0:0:0:0:
428,116,202188,5,2,0:0:0:0:
181,26,202710,2,0,P|156:94|196:146,1,127.5,8|0,0:0|0:0,0:0:0:0:
242,185,203232,1,2,0:0:0:0:
292,75,203493,1,0,0:0:0:0:
181,26,203754,1,8,0:0:0:0:
127,134,204014,1,0,0:0:0:0:
332,163,204275,6,0,L|434:146,1,85,2|0,0:0|0:0,0:0:0:0:
153,222,204797,2,0,L|51:239,1,85,8|0,0:0|0:0,0:0:0:0:
329,273,205319,1,2,0:0:0:0:
222,310,205580,1,0,0:0:0:0:
218,125,205840,1,8,0:0:0:0:
397,51,206101,6,0,L|416:98,1,42.5
445,146,206362,2,0,P|449:194|437:251,1,85,4|0,0:0|0:0,0:0:0:0:
302,118,206884,2,0,P|298:70|310:13,1,85,8|0,0:0|0:0,0:0:0:0:
352,222,207406,1,2,0:0:0:0:
512,303,207667,1,0,0:0:0:0:
352,222,207927,2,0,P|308:221|272:259,1,85,8|0,0:0|0:0,0:0:0:0:
210,332,208449,6,0,P|169:351|115:334,1,85,2|0,0:0|0:0,0:0:0:0:
23,205,208971,2,0,L|116:193,1,85,8|0,0:0|0:0,0:0:0:0:
193,37,209493,1,2,0:0:0:0:
106,194,209754,1,2,0:0:0:0:
193,37,210014,2,0,P|213:83|192:134,1,85,8|0,0:0|0:0,0:0:0:0:
184,183,210406,1,0,0:0:0:0:
184,183,210536,6,0,L|173:291,1,85,4|0,0:0|0:0,0:0:0:0:
305,354,211058,2,0,L|316:246,1,85,8|0,0:0|0:0,0:0:0:0:
360,116,211580,1,4,0:0:0:0:
470,225,211840,1,0,0:0:0:0:
360,116,212101,1,8,0:0:0:0:
482,175,212362,5,0,0:0:0:0:
476,200,212492,1,0,0:0:0:0:
470,225,212623,2,0,P|446:255|401:259,1,85,4|0,0:0|0:0,0:0:0:0:
333,226,213014,1,0,0:0:0:0:
333,226,213145,2,0,P|297:213|250:223,1,85,8|0,0:0|0:0,0:0:0:0:
121,319,213667,2,0,L|221:307,2,85,4|0|8,0:0|0:0|3:1,0:0:0:0:
64,274,214319,1,0,0:3:0:0:
64,274,214449,2,0,B|50:227|78:229|67:192,1,85,0|4,0:3|0:2,0:0:0:0:
240,35,215232,6,0,P|266:99|213:159,1,127.5,8|0,0:0|0:0,0:0:0:0:
178,186,215754,1,2,0:0:0:0:
334,65,216014,1,0,0:0:0:0:
159,95,216275,1,8,0:0:0:0:
353,153,216536,1,0,0:0:0:0:
274,219,216797,6,0,P|266:280|282:317,1,85,2|0,0:0|0:0,0:0:0:0:
449,130,217319,2,0,P|457:69|441:32,1,85,8|0,0:0|0:0,0:0:0:0:
440,236,217840,2,0,P|432:297|448:334,2,85,2|2|8,0:0|0:0|0:0,0:0:0:0:
335,123,218623,5,0,0:0:0:0:
342,148,218753,1,0,0:0:0:0:
349,173,218884,2,0,P|312:218|228:205,1,127.5,2|0,0:0|0:0,0:0:0:0:
187,179,219406,1,8,0:0:0:0:
236,29,219667,1,0,0:0:0:0:
236,29,219797,1,0,0:0:0:0:
236,29,219927,1,2,0:0:0:0:
187,179,220188,1,0,0:0:0:0:
142,67,220449,1,8,0:0:0:0:
117,234,220710,1,0,0:0:0:0:
236,29,220971,6,0,P|300:22|340:45,1,85,2|0,0:0|0:0,0:0:0:0:
321,186,221493,2,0,P|282:134|282:87,1,85,8|0,0:0|0:0,0:0:0:0:
420,33,222014,2,0,P|394:91|354:115,2,85,2|2|8,0:0|0:0|0:0,0:0:0:0:
456,232,222797,1,0,0:0:0:0:
460,206,222927,1,0,0:0:0:0:
464,180,223058,6,0,L|478:311,1,127.5,4|0,0:0|0:0,0:0:0:0:
427,358,223580,2,0,P|378:371|341:338,1,85,8|0,0:0|0:0,0:0:0:0:
205,341,224101,1,2,0:0:0:0:
282,285,224362,1,0,0:0:0:0:
63,262,224623,2,0,P|112:249|149:282,1,85,8|0,0:0|0:0,0:0:0:0:
282,285,225145,6,0,P|294:226|282:199,1,85,2|0,0:0|0:0,0:0:0:0:
211,61,225667,1,8,0:0:0:0:
171,169,225927,1,0,0:0:0:0:
328,95,226188,1,2,0:0:0:0:
285,204,226449,1,2,0:0:0:0:
211,61,226710,2,0,L|111:67,1,85,8|0,0:0|0:0,0:0:0:0:
56,116,227101,5,0,0:0:0:0:
56,116,227232,2,0,P|46:166|58:203,1,85,4|0,0:0|0:0,0:0:0:0:
165,350,227754,2,0,P|175:300|163:263,1,85,8|8,0:0|0:0,0:0:0:0:
221,210,228145,1,8,0:0:0:0:
221,210,228275,2,0,L|312:202,1,85,4|0,0:0|0:0,0:0:0:0:
486,39,228797,2,0,L|395:47,1,85,8|0,0:0|0:0,0:0:0:0:
204,90,229319,5,4,0:0:0:0:
105,207,229580,1,0,0:0:0:0:
105,207,229710,1,0,0:0:0:0:
105,207,229840,1,0,0:0:0:0:
186,337,230101,1,0,0:0:0:0:
335,300,230361,1,0,0:0:0:0:
346,148,230622,1,0,0:0:0:0:
105,207,230884,1,0,0:0:0:0:
129,201,231014,1,0,0:0:0:0:
154,195,231145,2,0,L|245:175,1,85,0|4,0:0|0:0,0:0:0:0:
335,300,231667,5,0,0:0:0:0:
335,300,231797,1,0,0:0:0:0:
335,300,231927,2,0,P|284:325|207:279,1,152.999995330811,8|0,0:0|0:0,0:0:0:0:
209,200,232449,2,0,P|251:167|302:169,1,101.999996887207,2|0,0:0|0:0,0:0:0:0:
122,335,232971,2,0,L|13:342,1,101.999996887207,8|0,0:0|0:0,0:0:0:0:
37,50,233493,5,2,0:0:0:0:
157,24,233754,1,0,0:0:0:0:
157,24,233884,1,0,0:0:0:0:
157,24,234014,1,8,0:0:0:0:
217,129,234275,1,0,0:0:0:0:
136,220,234536,1,2,0:0:0:0:
23,171,234797,1,2,0:0:0:0:
217,129,235058,1,8,0:0:0:0:
247,126,235188,1,0,0:0:0:0:
277,123,235319,1,0,0:0:0:0:
307,120,235449,1,0,0:0:0:0:
337,118,235580,6,0,L|448:109,1,101.999996887207,2|0,0:0|0:0,0:0:0:0:
330,343,236101,2,0,P|272:287|296:208,1,152.999995330811,8|0,0:0|0:0,0:0:0:0:
473,265,236623,2,0,P|462:317|416:345,1,101.999996887207,2|0,0:0|0:0,0:0:0:0:
397,167,237145,1,8,0:0:0:0:
473,265,237406,1,0,0:0:0:0:
421,61,237667,5,2,0:0:0:0:
397,167,237927,1,0,0:0:0:0:
421,61,238188,1,8,0:0:0:0:
278,212,238449,1,0,0:0:0:0:
421,61,238710,2,0,P|366:39|322:52,1,101.999996887207,2|0,0:0|0:0,0:0:0:0:
264,89,239101,1,0,0:0:0:0:
264,89,239232,2,0,P|224:99|169:77,1,101.999996887207,8|0,0:0|0:0,0:0:0:0:
121,22,239623,1,0,0:0:0:0:
121,22,239754,6,0,L|110:125,1,101.999996887207,4|0,0:0|0:0,0:0:0:0:
14,298,240275,2,0,L|25:195,1,101.999996887207,8|0,0:0|0:0,0:0:0:0:
178,211,240797,2,0,L|167:314,1,101.999996887207,2|0,0:0|0:0,0:0:0:0:
334,361,241319,2,0,P|401:351|422:325,1,101.999996887207,8|0,0:0|0:0,0:0:0:0:
492,227,241840,1,2,0:0:0:0:
421,128,242101,1,0,0:0:0:0:
304,166,242362,1,8,0:0:0:0:
304,289,242623,1,0,0:0:0:0:
420,327,242884,2,0,P|474:322|522:320,2,101.999996887207,2|0|8,0:0|0:0|0:0,0:0:0:0:
242,296,243667,5,0,0:0:0:0:
273,292,243797,1,0,0:0:0:0:
304,289,243927,1,4,0:0:0:0:
366,110,244188,1,0,0:0:0:0:
366,110,244319,1,0,0:0:0:0:
366,110,244449,2,0,P|399:163|389:211,1,101.999996887207,8|0,0:0|0:0,0:0:0:0:
304,289,244971,1,4,0:0:0:0:
508,255,245232,1,0,0:0:0:0:
394,199,245493,1,8,0:0:0:0:
229,31,245754,5,0,0:0:0:0:
229,31,245884,1,0,0:0:0:0:
229,31,246014,2,0,P|206:99|237:139,1,101.999996887207,4|0,0:0|0:0,0:0:0:0:
262,169,246406,1,0,0:0:0:0:
262,169,246536,2,0,L|149:190,1,101.999996887207,8|0,0:0|0:0,0:0:0:0:
58,254,247058,1,4,0:0:0:0:
161,187,247319,1,0,0:0:0:0:
183,356,247580,1,8,3:1:0:0:
173,333,247710,1,0,3:0:0:0:
164,310,247840,1,0,3:0:0:0:
225,42,248101,6,0,P|271:85|261:172,1,152.999995330811,4|0,0:2|0:0,0:0:0:0:
280,100,248623,2,0,P|324:74|374:86,1,101.999996887207,8|0,0:0|0:0,0:0:0:0:
400,260,249145,2,0,P|356:286|306:274,1,101.999996887207,2|0,0:0|0:0,0:0:0:0:
458,165,249667,1,8,0:0:0:0:
308,275,249927,1,0,0:0:0:0:
196,126,250188,6,0,L|309:118,1,101.999996887207,2|0,0:0|0:0,0:0:0:0:
498,53,250710,2,0,L|385:61,1,101.999996887207,8|0,0:0|0:0,0:0:0:0:
397,172,251232,1,2,0:0:0:0:
298,4,251493,1,0,0:0:0:0:
397,172,251754,1,10,0:0:0:0:
401,197,251884,1,0,0:0:0:0:
405,221,252014,1,0,0:0:0:0:
409,246,252145,1,0,0:0:0:0:
414,270,252275,5,2,0:0:0:0:
307,329,252536,1,0,0:0:0:0:
307,329,252667,1,0,0:0:0:0:
307,329,252797,1,8,0:0:0:0:
414,270,253058,1,0,0:0:0:0:
188,298,253319,2,0,P|134:290|93:316,1,101.999996887207,2|0,0:0|0:0,0:0:0:0:
379,188,253840,2,0,P|433:180|474:206,1,101.999996887207,8|0,0:0|0:0,0:0:0:0:
308,329,254362,5,2,0:0:0:0:
379,188,254623,1,0,0:0:0:0:
492,301,254884,1,8,0:0:0:0:
367,95,255145,1,0,0:0:0:0:
308,329,255406,2,0,P|256:349|208:338,1,101.999996887207,2|0,0:0|0:0,0:0:0:0:
22,212,255927,2,0,P|74:192|122:203,1,101.999996887207,8|0,0:0|0:0,0:0:0:0:
182,237,256319,5,0,0:0:0:0:
182,237,256449,2,0,L|202:116,1,101.999996887207,4|0,0:0|0:0,0:0:0:0:
324,74,256971,2,0,P|390:75|441:153,1,152.999995330811,8|0,0:0|0:0,0:0:0:0:
426,215,257493,2,0,P|376:249|315:237,1,101.999996887207,2|0,0:0|0:0,0:0:0:0:
497,49,258014,1,8,0:0:0:0:
355,157,258275,1,0,0:0:0:0:
491,275,258536,6,0,P|489:324|481:377,1,101.999996887207,2|0,0:0|0:0,0:0:0:0:
355,157,259058,2,0,P|357:108|365:55,1,101.999996887207,8|0,0:0|0:0,0:0:0:0:
364,55,259449,1,0,0:0:0:0:
364,55,259580,1,2,0:0:0:0:
383,268,259840,1,0,0:0:0:0:
265,233,260101,2,0,L|160:240,1,101.999996887207,8|0,0:0|0:0,0:0:0:0:
93,244,260493,5,0,0:0:0:0:
93,244,260623,2,0,P|72:325|118:377,1,152.999995330811,4|0,0:0|0:0,0:0:0:0:
188,364,261145,1,10,0:0:0:0:
140,165,261406,2,0,L|128:105,2,50.9999984436036,0|0|4,0:0|0:0|0:0,0:0:0:0:
188,364,261927,1,0,0:0:0:0:
214,212,262188,1,0,0:0:0:0:
89,326,262449,1,0,0:0:0:0:
256,297,262710,5,4,2:2:0:0:
52,215,262971,1,0,0:0:0:0:
76,225,263102,1,0,0:0:0:0:
100,235,263232,1,4,2:0:0:0:
33,83,263493,1,0,0:0:0:0:
170,146,263754,1,0,0:0:0:0:
293,59,264014,1,0,0:0:0:0:
420,197,264275,1,0,0:0:0:0:
396,187,264406,1,0,0:0:0:0:
372,177,264536,1,0,0:0:0:0:
348,340,264797,5,4,0:2:0:0:
