osu file format v14

[General]
AudioFilename: The Secret Garden.mp3
AudioLeadIn: 1500
PreviewTime: 71706
Countdown: 0
SampleSet: None
StackLeniency: 0.3
Mode: 0
LetterboxInBreaks: 1
WidescreenStoryboard: 0

[Editor]
Bookmarks: 78134,106349,129206
DistanceSpacing: 0.1
BeatDivisor: 4
GridSize: 4
TimelineZoom: 1

[Metadata]
Title:The Secret Garden
TitleUnicode:The Secret Garden
Artist:Hatsuki Yura
ArtistUnicode:葉月ゆら
Creator:Mayzel
Version:Karen
Source:
Tags:hameln koisuru marionette karenying kotone
BeatmapID:1156085
BeatmapSetID:545712

[Difficulty]
HPDrainRate:7
CircleSize:4
OverallDifficulty:6
ApproachRate:8
SliderMultiplier:1.8
SliderTickRate:1

[Events]
//Background and Video events
0,0,"BG2.jpg",0,0
//Break Periods
//Storyboard Layer 0 (Background)
//Storyboard Layer 1 (Fail)
//Storyboard Layer 2 (Pass)
//Storyboard Layer 3 (Foreground)
//Storyboard Sound Samples

[TimingPoints]
635,357.142857142857,4,2,0,70,1,0
635,-133.333333333333,4,1,1,50,0,0
724,-133.333333333333,4,2,1,50,0,0
3492,-133.333333333333,4,1,1,50,0,0
3581,-133.333333333333,4,2,1,50,0,0
6349,-133.333333333333,4,1,1,50,0,0
6438,-133.333333333333,4,2,1,50,0,0
9206,-133.333333333333,4,1,1,50,0,0
9295,-133.333333333333,4,2,1,50,0,0
10634,-200,4,2,1,50,0,0
11706,-100,4,2,1,50,0,0
12063,-100,4,2,1,70,0,0
21617,-100,4,1,1,50,0,0
22063,-200,4,2,1,70,0,0
23134,-100,4,2,1,70,0,0
23492,-133.333333333333,4,2,2,70,0,0
24563,-133.333333333333,4,2,1,70,0,0
25277,-133.333333333333,4,2,2,70,0,0
25992,-133.333333333333,4,2,1,70,0,0
26706,-133.333333333333,4,2,2,70,0,0
27420,-133.333333333333,4,2,1,70,0,0
28134,-133.333333333333,4,2,2,70,0,0
28849,-133.333333333333,4,2,1,70,0,0
29563,-133.333333333333,4,2,2,70,0,0
30277,-133.333333333333,4,2,1,70,0,0
30992,-133.333333333333,4,2,2,70,0,0
31706,-133.333333333333,4,2,1,70,0,0
32420,-133.333333333333,4,2,2,70,0,0
33134,-133.333333333333,4,2,1,70,0,0
33849,-133.333333333333,4,2,2,70,0,0
34563,-133.333333333333,4,2,1,70,0,0
35277,-133.333333333333,4,2,2,70,0,0
35992,-133.333333333333,4,2,1,70,0,0
36706,-133.333333333333,4,2,2,70,0,0
37420,-133.333333333333,4,2,1,70,0,0
38134,-133.333333333333,4,2,2,70,0,0
38849,-133.333333333333,4,2,1,70,0,0
39563,-133.333333333333,4,2,2,70,0,0
40277,-133.333333333333,4,2,1,70,0,0
40992,-133.333333333333,4,2,2,70,0,0
41706,-133.333333333333,4,2,1,70,0,0
42420,-133.333333333333,4,2,2,70,0,0
43134,-133.333333333333,4,2,1,70,0,0
43849,-133.333333333333,4,2,2,70,0,0
44563,-133.333333333333,4,2,1,70,0,0
45277,-133.333333333333,4,2,2,70,0,0
45992,-133.333333333333,4,1,2,50,0,0
46349,-133.333333333333,4,2,2,70,0,0
47420,-133.333333333333,4,2,1,70,0,0
48134,-133.333333333333,4,2,2,70,0,0
48849,-133.333333333333,4,2,1,70,0,0
49563,-133.333333333333,4,2,2,70,0,0
50277,-133.333333333333,4,2,1,70,0,0
50992,-133.333333333333,4,2,2,70,0,0
51706,-133.333333333333,4,2,1,70,0,0
52420,-133.333333333333,4,2,2,70,0,0
53134,-133.333333333333,4,2,1,70,0,0
53849,-133.333333333333,4,2,2,70,0,0
54563,-133.333333333333,4,2,1,70,0,0
55277,-133.333333333333,4,2,2,70,0,0
55992,-133.333333333333,4,2,1,70,0,0
56706,-133.333333333333,4,2,2,70,0,0
57420,-133.333333333333,4,2,1,70,0,0
58134,-133.333333333333,4,2,2,70,0,0
58849,-133.333333333333,4,2,1,70,0,0
59563,-133.333333333333,4,2,2,70,0,0
60277,-133.333333333333,4,2,1,70,0,0
60992,-133.333333333333,4,2,2,70,0,0
61706,-133.333333333333,4,2,1,70,0,0
62420,-133.333333333333,4,2,2,70,0,0
63134,-133.333333333333,4,2,1,70,0,0
63849,-133.333333333333,4,2,2,70,0,0
64563,-133.333333333333,4,2,1,70,0,0
65277,-133.333333333333,4,2,2,70,0,0
65992,-133.333333333333,4,2,1,70,0,0
66706,-133.333333333333,4,2,2,70,0,0
67420,-133.333333333333,4,2,1,70,0,0
68134,-133.333333333333,4,2,2,70,0,0
68670,-133.333333333333,4,1,1,50,0,0
68849,-133.333333333333,4,2,1,70,0,0
69742,-133.333333333333,4,1,1,50,0,0
70367,-133.333333333333,4,2,2,50,0,0
70634,-133.333333333333,4,2,1,50,0,0
71170,-133.333333333333,4,2,2,50,0,0
71349,-133.333333333333,4,2,1,50,0,0
71706,-133.333333333333,4,2,1,40,0,0
72063,-100,4,2,1,80,0,1
81527,-100,4,1,1,50,0,1
81884,-100,4,2,1,80,0,1
82152,-100,4,1,1,50,0,1
82331,-100,4,2,1,80,0,1
83134,-100,4,1,1,50,0,1
83492,-100,4,2,1,80,0,1
93134,-100,4,1,1,50,0,1
93402,-100,4,2,2,80,0,1
93849,-200,4,1,1,45,0,1
94563,-66.6666666666667,4,2,1,80,0,1
94920,-100,4,2,1,70,0,0
104563,-100,4,1,1,50,0,0
104831,-200,4,2,1,70,0,0
105813,-66.6666666666667,4,2,1,70,0,0
106349,-133.333333333333,4,2,2,70,0,0
107420,-133.333333333333,4,2,1,70,0,0
108134,-133.333333333333,4,2,2,70,0,0
108849,-133.333333333333,4,2,1,70,0,0
109563,-133.333333333333,4,2,2,70,0,0
110277,-133.333333333333,4,2,1,70,0,0
110991,-133.333333333333,4,2,2,70,0,0
111706,-133.333333333333,4,2,1,70,0,0
112420,-133.333333333333,4,2,2,70,0,0
113134,-133.333333333333,4,2,1,70,0,0
113849,-133.333333333333,4,2,2,70,0,0
114563,-133.333333333333,4,2,1,70,0,0
115277,-133.333333333333,4,2,2,70,0,0
115991,-133.333333333333,4,2,1,70,0,0
116706,-133.333333333333,4,2,2,70,0,0
117420,-133.333333333333,4,2,1,70,0,0
118134,-133.333333333333,4,2,2,70,0,0
118849,-133.333333333333,4,2,1,70,0,0
119563,-133.333333333333,4,2,2,70,0,0
120277,-133.333333333333,4,2,1,70,0,0
120991,-133.333333333333,4,2,2,70,0,0
121706,-133.333333333333,4,2,1,70,0,0
122420,-133.333333333333,4,2,2,70,0,0
123134,-133.333333333333,4,2,1,70,0,0
123849,-133.333333333333,4,2,2,70,0,0
124563,-133.333333333333,4,2,1,70,0,0
125277,-133.333333333333,4,2,2,70,0,0
125991,-133.333333333333,4,2,1,70,0,0
126706,-133.333333333333,4,2,2,70,0,0
127420,-133.333333333333,4,2,1,70,0,0
128134,-133.333333333333,4,2,2,70,0,0
128849,-133.333333333333,4,1,2,50,0,0
129206,-133.333333333333,4,2,2,70,0,0
130277,-133.333333333333,4,2,1,70,0,0
130991,-133.333333333333,4,2,2,70,0,0
131706,-133.333333333333,4,2,1,70,0,0
132420,-133.333333333333,4,2,2,70,0,0
133134,-133.333333333333,4,2,1,70,0,0
133849,-133.333333333333,4,2,2,70,0,0
134563,-133.333333333333,4,2,1,70,0,0
135277,-133.333333333333,4,2,2,70,0,0
135991,-133.333333333333,4,2,1,70,0,0
136706,-133.333333333333,4,2,2,70,0,0
137420,-133.333333333333,4,2,1,70,0,0
138134,-133.333333333333,4,2,2,70,0,0
138849,-133.333333333333,4,2,1,70,0,0
139563,-133.333333333333,4,2,2,70,0,0
140277,-133.333333333333,4,2,1,70,0,0
140991,-133.333333333333,4,2,2,70,0,0
141706,-133.333333333333,4,2,1,70,0,0
142420,-133.333333333333,4,2,2,70,0,0
143134,-133.333333333333,4,2,1,70,0,0
143849,-133.333333333333,4,2,2,70,0,0
144563,-133.333333333333,4,2,1,70,0,0
145277,-133.333333333333,4,2,2,70,0,0
145991,-133.333333333333,4,2,1,70,0,0
146706,-133.333333333333,4,2,2,70,0,0
147420,-133.333333333333,4,2,1,70,0,0
148134,-133.333333333333,4,2,2,70,0,0
148849,-133.333333333333,4,2,1,70,0,0
149563,-133.333333333333,4,2,2,70,0,0
150277,-133.333333333333,4,2,1,70,0,0
150991,-133.333333333333,4,2,2,70,0,0
151527,-133.333333333333,4,1,1,50,0,0
151706,-133.333333333333,4,2,1,70,0,0
151884,-133.333333333333,4,1,1,50,0,0
152063,-133.333333333333,4,2,1,70,0,0
152599,-133.333333333333,4,1,1,50,0,0
153224,-133.333333333333,4,2,2,50,0,0
153492,-133.333333333333,4,2,1,50,0,0
154027,-133.333333333333,4,2,2,50,0,0
154384,-133.333333333333,4,2,1,50,0,0
154563,-133.333333333333,4,2,1,40,0,0
154920,-100,4,2,1,80,0,1
165992,-100,4,1,1,50,0,1
166349,-100,4,2,1,80,0,1
175992,-100,4,1,1,50,0,1
176349,-100,4,2,1,80,0,1
176617,-200,4,1,1,45,0,1
177420,-66.6666666666667,4,2,1,80,0,1
177777,-66.6666666666667,4,2,1,50,0,0
177867,-66.6666666666667,4,2,1,5,0,0

[Colours]
Combo1 : 255,128,64
Combo2 : 128,255,0
Combo3 : 255,0,255
Combo4 : 0,255,255
Combo5 : 255,0,0

[HitObjects]
287,171,635,6,0,B|322:172|343:141,1,67.4999979883433,0|0,0:0|0:0,0:0:0:0:
403,178,992,2,0,B|425:135|406:82|356:72,2,134.999995976687,0|2|0,0:0|0:0|0:0,0:0:0:0:
308,273,2063,5,0,0:0:0:0:
196,197,2420,1,0,0:0:0:0:
196,197,2599,1,0,0:0:0:0:
356,72,3134,2,0,B|406:82|425:135|403:178,1,134.999995976687
218,90,3849,5,0,0:0:0:0:
113,120,4206,2,0,B|88:203,1,67.4999979883433,2|0,0:0|0:0,0:0:0:0:
93,184,4563,1,0,0:0:0:0:
29,144,4742,2,0,B|20:185|20:185|20:224|45:262|100:270|137:243,1,202.49999396503,0|0,0:0|0:0,0:0:0:0:
175,181,5456,2,0,B|274:150|369:212,1,202.49999396503
385,246,6349,6,0,B|368:114,1,134.999995976687
488,319,7063,2,0,B|471:187,1,134.999995976687,2|0,0:0|0:0,0:0:0:0:
338,89,7777,2,0,B|356:223,1,134.999995976687
212,294,8313,1,0,0:0:0:0:
212,294,8402,1,0,0:0:0:0:
212,294,8492,2,0,B|263:314|307:279,2,101.249996982515,2|0|0,0:0|0:0|0:0,0:0:0:0:
180,146,9206,6,0,B|117:204,1,67.4999979883433
71,236,9563,2,0,B|47:100,1,134.999995976687,0|2,0:0|0:0,0:0:0:0:
47,103,10188,1,0,0:0:0:0:
180,146,10456,1,0,0:0:0:0:
249,115,10634,6,0,B|312:84|318:129|382:103,1,135,2|2,0:0|0:0,0:0:0:0:
447,53,11706,5,8,0:0:0:0:
440,74,11795,1,8,0:0:0:0:
433,95,11884,1,8,0:0:0:0:
427,116,11974,1,8,0:0:0:0:
421,137,12063,6,0,B|397:223,1,90,4|0,0:0|0:0,0:0:0:0:
328,283,12420,1,8,0:0:0:0:
263,92,12599,1,0,0:0:0:0:
267,222,12777,2,0,B|236:257|249:307,1,90
322,149,13134,2,0,B|353:114|340:64,1,90,8|0,0:0|0:0,0:0:0:0:
203,157,13492,6,0,B|116:197,2,90,2|0|8,0:0|0:0|0:0,0:0:0:0:
122,275,14027,2,0,B|35:315,2,90,2|0|0,0:0|0:0|0:0,0:0:0:0:
50,129,14563,2,0,B|63:48|166:25,1,135,10|0,0:0|0:0,0:0:0:0:
157,42,14920,6,0,B|200:72|257:64,1,90,2|0,0:0|0:0,0:0:0:0:
414,49,15277,2,0,B|373:31|326:34,1,90,8|0,0:0|0:0,0:0:0:0:
312,123,15634,1,0,0:0:0:0:
305,213,15813,1,2,0:0:0:0:
343,294,15992,1,8,0:0:0:0:
230,161,16170,5,2,0:0:0:0:
230,161,16259,1,0,0:0:0:0:
230,161,16349,2,0,B|185:138|144:145,1,90
60,279,16706,2,0,B|125:277|149:222,1,90,8|0,0:0|0:0,0:0:0:0:
197,64,17063,1,2,0:0:0:0:
65,190,17242,1,0,0:0:0:0:
197,64,17420,2,0,B|147:52|107:66,1,90,8|0,0:0|0:0,0:0:0:0:
160,336,17777,6,0,B|210:343|243:309,1,90,4|0,0:0|0:0,0:0:0:0:
279,227,18134,1,8,0:0:0:0:
265,137,18313,1,0,0:0:0:0:
373,259,18492,6,0,B|380:209|347:175,1,90,4|0,0:0|0:0,0:0:0:0:
265,137,18849,1,8,0:0:0:0:
173,149,19028,1,0,0:0:0:0:
457,157,19206,6,0,B|443:98|389:51|331:44,1,180,4|8,0:0|0:0,0:0:0:0:
154,26,19742,1,2,0:0:0:0:
154,26,19831,1,2,0:0:0:0:
154,26,19920,2,0,B|194:50|240:49,1,90,2|0,0:0|0:0,0:0:0:0:
330,44,20277,1,8,0:0:0:0:
411,83,20456,1,0,0:0:0:0:
457,157,20634,6,0,B|482:220|450:283|377:295,1,180,4|8,0:0|0:0,0:0:0:0:
311,238,21170,2,0,B|233:228|200:233,1,90,2|0,0:0|0:0,0:0:0:0:
142,275,21527,1,0,0:0:0:0:
155,139,21706,1,0,0:0:0:0:
155,139,21795,1,0,0:0:0:0:
155,139,21884,1,0,0:0:0:0:
142,275,22063,6,0,B|94:288|56:253,1,90,4|0,0:0|0:0,0:0:0:0:
16,87,22599,2,0,B|64:164,1,90,2|0,0:0|0:0,0:0:0:0:
77,182,23045,1,0,0:0:0:0:
90,200,23134,6,0,B|115:276|61:331,1,135,4|0,0:0|0:0,0:0:0:0:
108,316,23492,6,0,B|174:303,1,67.4999979883433,4|0,0:0|0:0,0:0:0:0:
256,291,23849,1,8,0:0:0:0:
333,269,24027,2,0,B|372:254|390:223,1,67.4999979883433,0|0,0:0|0:0,0:0:0:0:
404,150,24384,1,0,0:0:0:0:
327,178,24563,1,8,0:0:0:0:
404,150,24742,2,0,B|384:99|332:84|288:105,1,134.999995976687,0|0,0:0|0:0,0:0:0:0:
124,110,25277,6,0,B|144:161|196:176|235:158,2,134.999995976687,8|0|8,0:0|0:0|0:0,0:0:0:0:
120,29,26170,1,0,0:0:0:0:
198,93,26349,2,0,B|212:144|176:184|126:188,1,134.999995976687,2|8,0:0|0:0,0:0:0:0:
48,181,26884,1,0,0:0:0:0:
48,181,27063,1,0,0:0:0:0:
95,247,27242,1,0,0:0:0:0:
95,247,27420,1,8,0:0:0:0:
141,312,27599,5,0,0:0:0:0:
141,312,27688,1,0,0:0:0:0:
141,312,27777,2,0,B|177:319|212:311,1,67.4999979883433,0|0,0:0|0:0,0:0:0:0:
278,271,28134,1,8,0:0:0:0:
279,352,28313,2,0,B|330:352|364:308|356:263,1,134.999995976687,2|0,0:0|0:0,0:0:0:0:
447,143,28849,2,0,B|411:136|384:158,1,67.4999979883433,8|0,0:0|0:0,0:0:0:0:
372,171,29117,1,0,0:0:0:0:
360,183,29206,6,0,B|353:112|299:67,1,134.999995976687,2|8,0:0|0:0,0:0:0:0:
221,43,29742,1,0,0:0:0:0:
173,108,29920,2,0,B|201:130|238:122,1,67.4999979883433
221,43,30277,1,8,0:0:0:0:
130,176,30456,2,0,B|158:202|210:212|258:199,1,134.999995976687,0|0,0:0|0:0,0:0:0:0:
433,95,30992,2,0,B|405:69|353:59|305:72,2,134.999995976687,8|0|8,0:0|0:0|0:0,0:0:0:0:
433,95,32063,6,0,B|452:176,1,67.4999979883433,2|0,0:0|0:0,0:0:0:0:
468,239,32420,1,8,0:0:0:0:
369,162,32599,2,0,B|380:212|380:212|379:248|379:248|390:295,1,134.999995976687
389,294,33134,1,8,0:0:0:0:
318,333,33313,1,0,0:0:0:0:
234,225,33492,6,0,B|247:292,1,67.4999979883433,2|0,0:0|0:0,0:0:0:0:
247,292,33849,1,10,0:0:0:0:
132,228,34027,2,0,B|93:159|139:89,1,134.999995976687,2|0,0:0|0:0,0:0:0:0:
206,65,34563,1,8,0:0:0:0:
221,144,34742,2,0,B|298:118,1,67.4999979883433,0|4,0:0|0:0,0:0:0:0:
441,263,35277,6,0,B|402:270|373:254,1,67.4999979883433,8|0,0:0|0:0,0:0:0:0:
318,197,35634,1,0,0:0:0:0:
284,122,35813,1,0,0:0:0:0:
390,46,35992,2,0,B|417:68|416:106,1,67.4999979883433,8|0,0:0|0:0,0:0:0:0:
412,188,36349,2,0,B|473:311,1,134.999995976687,2|8,0:0|0:0,0:0:0:0:
471,308,36884,5,0,0:0:0:0:
397,341,37063,1,0,0:0:0:0:
315,338,37242,1,0,0:0:0:0:
240,307,37420,2,0,B|211:293|175:294,1,67.4999979883433,8|0,0:0|0:0,0:0:0:0:
108,341,37777,6,0,B|33:301|72:228,1,134.999995976687,2|8,0:0|0:0,0:0:0:0:
112,158,38313,1,0,0:0:0:0:
237,88,38492,2,0,B|201:82|173:105,1,67.4999979883433
226,166,38849,2,0,B|262:172|290:149,1,67.4999979883433,8|0,0:0|0:0,0:0:0:0:
320,74,39206,5,0,0:0:0:0:
320,74,39384,1,0,0:0:0:0:
432,127,39563,1,8,0:0:0:0:
396,53,39742,2,0,B|444:32|490:56|509:95,1,134.999995976687,2|0,0:0|0:0,0:0:0:0:
491,174,40277,2,0,B|470:248,1,67.4999979883433,8|0,0:0|0:0,0:0:0:0:
467,255,40545,1,0,0:0:0:0:
461,270,40634,6,0,B|449:304|409:308,1,67.4999979883433,2|0,0:0|0:0,0:0:0:0:
346,256,40992,1,8,0:0:0:0:
275,295,41170,1,0,0:0:0:0:
276,213,41349,2,0,B|288:179|328:175,1,67.4999979883433
409,308,41706,6,0,B|397:342|357:346,1,67.4999979883433,8|0,0:0|0:0,0:0:0:0:
204,249,42242,2,0,B|114:245,2,67.4999979883433,0|8|0,0:0|0:0|0:0,0:0:0:0:
276,214,42777,2,0,B|267:173|230:162|230:162|165:158,1,134.999995976687,0|8,0:0|0:0,0:0:0:0:
353,55,43492,6,0,B|398:41|448:62|463:111,1,134.999995976687,2|8,0:0|0:0,0:0:0:0:
417,222,44027,2,0,B|372:236|322:215|307:166,1,134.999995976687,2|0,0:0|0:0,0:0:0:0:
424,145,44563,2,0,B|465:149|487:184,1,67.4999979883433,8|0,0:0|0:0,0:0:0:0:
489,191,44831,1,0,0:0:0:0:
490,207,44920,6,0,B|494:298,1,67.4999979883433,2|0,0:0|0:0,0:0:0:0:
383,352,45277,1,8,0:0:0:0:
417,223,45456,1,2,0:0:0:0:
470,351,45634,1,2,0:0:0:0:
353,274,45813,1,2,0:0:0:0:
333,195,45992,5,0,0:0:0:0:
320,184,46081,1,0,0:0:0:0:
308,172,46170,2,0,B|256:131,1,67.4999979883433,0|4,0:0|0:0,0:0:0:0:
125,89,46706,5,8,0:0:0:0:
102,166,46884,2,0,B|74:241|144:280,1,134.999995976687,2|0,0:0|0:0,0:0:0:0:
172,204,47420,2,0,B|208:196|240:203,1,67.4999979883433,8|0,0:0|0:0,0:0:0:0:
307,312,47777,2,0,B|271:320|239:313,2,67.4999979883433,0|2|10,0:0|0:0|0:0,0:0:0:0:
379,274,48313,1,0,0:0:0:0:
308,232,48492,2,0,B|321:131,1,101.249996982515,2|0,0:0|0:0,0:0:0:0:
324,114,48849,1,8,0:0:0:0:
194,75,49206,6,0,B|145:58|99:72|76:115,1,134.999995976687,2|8,0:0|0:0,0:0:0:0:
45,188,49742,1,0,0:0:0:0:
115,227,49920,2,0,B|164:244|210:230|233:187,1,134.999995976687,0|8,0:0|0:0,0:0:0:0:
158,155,50456,2,0,B|198:295,1,134.999995976687,0|2,0:0|0:0,0:0:0:0:
274,299,50992,1,10,0:0:0:0:
353,313,51170,1,2,0:0:0:0:
361,325,51527,2,0,B|414:280,1,67.4999979883433,0|8,0:0|0:0,0:0:0:0:
476,231,51884,5,0,0:0:0:0:
476,231,51974,1,0,0:0:0:0:
476,231,52063,2,0,B|428:172|469:107,1,134.999995976687,2|8,0:0|0:0,0:0:0:0:
510,36,52599,1,0,0:0:0:0:
372,158,52777,2,0,B|340:172|304:164,1,67.4999979883433,0|0,0:0|0:0,0:0:0:0:
239,117,53134,6,0,B|282:174|262:244,2,134.999995976687,8|2|8,0:0|0:0|0:0,0:0:0:0:
162,89,54027,1,0,0:0:0:0:
162,89,54384,2,0,B|144:168,1,67.4999979883433,0|8,0:0|0:0,0:0:0:0:
126,233,54742,1,0,0:0:0:0:
100,309,54920,6,0,B|146:348|217:343|248:328,1,134.999995976687,2|8,0:0|0:0,0:0:0:0:
403,263,55456,2,0,B|357:224|286:229|255:244,1,134.999995976687
304,312,55992,1,10,0:0:0:0:
275,237,56170,1,0,0:0:0:0:
275,237,56527,5,2,0:0:0:0:
270,156,56706,1,8,0:0:0:0:
310,86,56884,1,2,0:0:0:0:
386,57,57063,1,2,0:0:0:0:
465,71,57242,1,0,0:0:0:0:
224,87,57420,2,0,B|183:88|149:66,1,67.4999979883433,10|2,0:0|0:0,0:0:0:0:
387,162,57777,6,0,B|428:219|410:297,1,134.999995976687,4|8,0:0|0:0,0:0:0:0:
188,319,58313,2,0,B|147:262|165:184,1,134.999995976687,0|0,0:0|0:0,0:0:0:0:
138,112,58849,2,0,B|115:49,1,67.4999979883433,8|0,0:0|0:0,0:0:0:0:
53,102,59206,2,0,B|76:165,2,67.4999979883433,0|2|8,0:0|0:0|0:0,0:0:0:0:
29,24,59742,1,2,0:0:0:0:
196,52,59920,6,0,B|246:52|287:92,1,101.249996982515
311,123,60277,2,0,B|353:151|413:130|421:84,2,134.999995976687,8|2|8,0:0|0:0|0:0,0:0:0:0:
311,123,61349,2,0,B|268:123|242:146,1,67.4999979883433
209,213,61706,1,8,0:0:0:0:
205,293,61884,6,0,B|254:297|294:260|289:207,1,134.999995976687,2|0,0:0|0:0,0:0:0:0:
247,141,62420,1,8,0:0:0:0:
166,145,62599,2,0,B|121:171|111:234|145:288|204:293,1,202.49999396503,2|8,0:0|0:0,0:0:0:0:
211,219,63313,5,0,0:0:0:0:
211,219,63402,1,0,0:0:0:0:
211,219,63492,2,0,B|262:218|298:229,1,67.4999979883433,2|0,0:0|0:0,0:0:0:0:
342,273,63849,1,8,0:0:0:0:
342,273,64027,2,0,B|398:151,1,134.999995976687
431,76,64563,1,8,0:0:0:0:
169,36,64920,6,0,B|130:23|96:29|71:56|62:92,1,134.999995976687,2|8,0:0|0:0,0:0:0:0:
119,215,65456,2,0,B|158:228|192:222|217:195|226:159,1,134.999995976687
62,88,65992,2,0,B|38:154,1,67.4999979883433,8|0,0:0|0:0,0:0:0:0:
13,228,66349,5,2,0:0:0:0:
56,296,66527,1,0,0:0:0:0:
133,319,66706,2,0,B|172:329|200:306,1,67.4999979883433,8|0,0:0|0:0,0:0:0:0:
264,263,67063,1,2,0:0:0:0:
316,141,67242,2,0,B|324:209,2,67.4999979883433,0|8|0,0:0|0:0|0:0,0:0:0:0:
420,265,67777,6,0,B|412:197,1,67.4999979883433,2|0,0:0|0:0,0:0:0:0:
404,117,68134,1,8,0:0:0:0:
343,63,68313,2,0,B|299:49|273:68,1,67.4999979883433,2|0,0:0|0:0,0:0:0:0:
207,106,68670,1,0,0:0:0:0:
207,106,68759,1,0,0:0:0:0:
207,106,68849,2,8,B|144:134|73:107,1,134.999995976687,8|4,0:0|0:0,0:0:0:0:
37,36,69384,5,0,0:0:0:0:
77,108,69563,2,0,B|68:186,1,67.4999979883433,8|0,0:0|0:0,0:0:0:0:
67,193,69831,1,0,0:0:0:0:
65,209,69920,1,0,0:0:0:0:
158,305,70099,1,0,0:0:0:0:
179,323,70456,6,0,B|254:342|318:315,1,134.999995976687,4|8,0:1|0:0,0:0:0:0:
368,258,70992,1,8,0:0:0:0:
231,137,71170,2,0,B|156:118|92:145,1,134.999995976687,4|8,0:1|0:0,0:0:0:0:
296,64,71706,1,8,0:0:0:0:
311,70,71795,1,8,0:0:0:0:
326,76,71884,1,8,0:0:0:0:
341,82,71974,1,8,0:0:0:0:
356,88,72063,6,0,B|407:102|458:73,1,90,4|0,0:0|0:0,0:0:0:0:
498,8,72420,1,8,0:0:0:0:
450,171,72599,1,0,0:0:0:0:
385,233,72777,2,0,B|347:258|299:252,1,90,2|0,0:0|0:0,0:0:0:0:
127,151,73134,2,0,B|165:126|213:132,1,90,8|0,0:0|0:0,0:0:0:0:
441,296,73492,6,0,B|404:336|336:351|272:332,1,180,2|8,0:0|0:0,0:0:0:0:
203,202,74027,1,0,0:0:0:0:
285,239,74206,1,2,0:0:0:0:
274,151,74384,2,0,B|316:146|362:168,1,90,0|8,0:0|0:0,0:0:0:0:
194,116,74742,2,0,B|129:116|129:116|79:121|79:121|14:121,1,180,0|0,0:0|0:0,0:0:0:0:
14,121,75277,2,0,B|40:212,1,90,8|0,0:0|0:0,0:0:0:0:
73,290,75634,6,0,B|110:322|156:309,1,90,2|0,0:0|0:0,0:0:0:0:
301,222,75992,1,8,0:0:0:0:
133,222,76171,1,0,0:0:0:0:
234,161,76349,2,0,B|260:125|316:118|356:148,1,135,2|0,0:0|0:0,0:0:0:0:
369,164,76706,2,0,B|427:232,1,90,8|0,0:0|0:0,0:0:0:0:
441,250,76974,1,0,0:0:0:0:
454,267,77063,1,2,0:0:0:0:
405,83,77242,1,0,0:0:0:0:
301,222,77420,2,0,B|268:259|215:248,1,90,8|0,0:0|0:0,0:0:0:0:
52,51,77777,6,0,B|78:137,1,90,4|0,0:1|0:0,0:0:0:0:
56,299,78134,2,0,B|30:213,1,90,10|0,0:0|0:0,0:0:0:0:
153,87,78492,2,0,B|191:59|253:71,1,90,2|0,0:0|0:0,0:0:0:0:
319,108,78849,1,8,0:0:0:0:
405,83,79027,1,0,0:0:0:0:
296,272,79206,6,0,B|235:305|154:272,1,135,2|0,0:0|0:0,0:0:0:0:
144,266,79563,1,8,0:0:0:0:
279,194,79742,2,0,B|317:183|364:200|394:258|369:308,1,180,2|0,0:0|0:0,0:0:0:0:
369,306,80277,2,0,B|446:261,1,90,8|0,0:0|0:0,0:0:0:0:
467,250,80545,1,0,0:0:0:0:
486,239,80634,6,0,B|498:181|474:149,1,90,4|0,0:0|0:0,0:0:0:0:
321,41,80992,1,8,0:0:0:0:
259,105,81170,2,0,B|225:256,1,135,2|0,0:0|0:0,0:0:0:0:
222,258,81527,2,0,B|141:317,1,90
19,194,81884,5,4,0:0:0:0:
157,77,82242,2,0,B|237:17,1,90,0|8,0:0|0:0,0:0:0:0:
321,41,82599,2,0,B|392:68|374:152,1,135,4|0,0:0|0:0,0:0:0:0:
367,172,82956,1,0,0:0:0:0:
364,193,83045,1,0,0:0:0:0:
359,214,83134,1,0,0:0:0:0:
354,236,83224,1,0,0:0:0:0:
349,258,83313,1,0,0:0:0:0:
344,280,83402,1,0,0:0:0:0:
339,302,83492,6,0,B|303:328|255:324,1,90,4|0,0:0|0:0,0:0:0:0:
169,292,83849,1,8,0:0:0:0:
238,235,84027,1,0,0:0:0:0:
85,325,84206,2,0,B|52:287|64:231,1,90,2|0,0:0|0:0,0:0:0:0:
84,40,84563,2,0,B|107:50|134:111|111:165,1,135,8|0,0:0|0:0,0:0:0:0:
132,173,84920,6,0,B|222:139,1,90,2|0,0:0|0:0,0:0:0:0:
300,109,85277,1,8,0:0:0:0:
384,76,85456,2,0,B|451:132|451:132|452:244,1,180,2|0,0:0|0:0,0:0:0:0:
439,243,85902,1,0,0:0:0:0:
426,262,85992,2,0,B|336:262,1,90,8|0,0:0|0:0,0:0:0:0:
111,236,86349,6,0,B|52:208|40:124|106:88,1,180,2|8,0:0|0:0,0:0:0:0:
155,162,86884,1,0,0:0:0:0:
198,241,87063,2,0,B|200:292|148:312,1,90,2|0,0:0|0:0,0:0:0:0:
257,177,87420,2,0,B|298:206|283:259,1,90,8|0,0:0|0:0,0:0:0:0:
237,86,87777,6,0,B|289:70|362:120|372:181,1,180,2|8,0:0|0:0,0:0:0:0:
371,178,88313,1,0,0:0:0:0:
389,266,88492,2,0,B|340:345,2,90,2|0|8,0:0|0:0|0:0,0:0:0:0:
457,208,89027,2,0,B|484:160|448:116,1,90,0|4,0:0|0:0,0:0:0:0:
129,64,89563,5,8,0:0:0:0:
129,64,89920,2,0,B|136:168,1,90,4|0,0:0|0:0,0:0:0:0:
136,176,90188,1,0,0:0:0:0:
137,198,90277,1,8,0:0:0:0:
89,274,90456,1,0,0:0:0:0:
215,23,90634,6,0,B|222:127,1,90,4|0,0:0|0:0,0:0:0:0:
222,135,90902,1,0,0:0:0:0:
223,157,90991,1,8,0:0:0:0:
89,274,91170,1,4,0:0:0:0:
253,346,91527,6,0,B|300:355|350:326,1,90,0|8,0:0|0:0,0:0:0:0:
416,283,91884,1,0,0:0:0:0:
433,268,91974,1,0,0:0:0:0:
450,253,92063,6,0,B|462:163,1,90,4|0,0:0|0:0,0:0:0:0:
362,51,92420,2,0,B|374:141,2,90,8|0|0,0:0|0:0|0:0,0:0:0:0:
228,173,92956,1,0,0:0:0:0:
170,242,93134,1,0,0:0:0:0:
170,242,93224,1,0,0:0:0:0:
170,242,93313,1,0,0:0:0:0:
113,312,93492,1,4,0:0:0:0:
92,306,93849,6,0,B|52:280|38:219,1,90
64,100,94384,1,0,0:0:0:0:
64,100,94474,1,0,0:0:0:0:
64,100,94563,2,0,B|128:88|201:63,1,135.000005149842,4|0,1:2|0:0,0:0:0:0:
403,252,94920,6,0,B|360:259|314:260,1,90,4|0,0:0|0:0,0:0:0:0:
316,44,95277,2,0,B|323:88|324:134,1,90,10|0,0:0|0:0,0:0:0:0:
195,339,95634,2,0,B|189:296|188:250,1,90,2|0,0:0|0:0,0:0:0:0:
108,131,95992,2,0,B|152:125|198:124,1,90,10|0,0:0|0:0,0:0:0:0:
314,260,96349,6,0,B|360:259|403:252,1,90,2|0,0:0|0:0,0:0:0:0:
198,124,96706,2,0,B|152:125|108:131,1,90,10|0,0:0|0:0,0:0:0:0:
324,134,97063,2,0,B|323:88|316:44,1,90,2|0,0:0|0:0,0:0:0:0:
188,250,97420,2,0,B|189:296|195:339,1,90,10|0,0:0|0:0,0:0:0:0:
402,178,97777,6,0,B|496:163,1,90,2|0,0:0|0:0,0:0:0:0:
453,255,98134,1,10,0:0:0:0:
490,163,98313,5,0,0:0:0:0:
417,347,98492,1,2,0:0:0:0:
315,175,98670,1,0,0:0:0:0:
366,261,98849,6,0,B|326:288|278:267,1,90,10|0,0:0|0:0,0:0:0:0:
146,123,99206,22,0,B|186:96|234:117,1,90,2|0,0:0|0:0,0:0:0:0:
154,223,99563,2,0,B|114:250|66:229,1,90,10|0,0:0|0:0,0:0:0:0:
232,25,99920,2,0,B|280:23|309:66,1,90,2|8,0:0|0:0,0:0:0:0:
319,84,100188,1,8,0:0:0:0:
330,103,100277,1,8,0:0:0:0:
341,122,100367,1,8,0:0:0:0:
352,141,100456,1,8,0:0:0:0:
363,160,100545,1,8,0:0:0:0:
374,179,100634,6,0,B|380:284,1,90,4|0,0:0|0:0,0:0:0:0:
206,319,100992,1,10,0:0:0:0:
292,294,101170,1,0,0:0:0:0:
128,234,101349,1,2,0:0:0:0:
42,209,101527,1,0,0:0:0:0:
128,234,101706,2,0,B|137:145,1,90,10|0,0:0|0:0,0:0:0:0:
232,29,102063,6,0,B|223:118,1,90,2|0,0:0|0:0,0:0:0:0:
294,248,102420,2,0,B|303:159,1,90,10|0,0:0|0:0,0:0:0:0:
303,158,102777,1,2,0:0:0:0:
385,195,102956,1,0,0:0:0:0:
467,231,103134,2,0,B|483:182|457:145,1,90,10|0,0:0|0:0,0:0:0:0:
442,127,103402,1,0,0:0:0:0:
427,109,103492,6,0,B|484:39,1,90,4|0,0:0|0:0,0:0:0:0:
279,67,103849,1,10,0:0:0:0:
303,158,104027,1,0,0:0:0:0:
217,281,104206,1,2,0:0:0:0:
193,190,104384,1,0,0:0:0:0:
56,123,104563,1,0,0:0:0:0:
56,123,104652,1,0,0:0:0:0:
56,123,104742,1,0,0:0:0:0:
80,209,104920,6,0,B|31:346,1,135,4|0,0:0|0:0,0:0:0:0:
68,327,105813,5,0,0:0:0:0:
68,327,105902,1,0,0:0:0:0:
68,327,105992,2,0,B|152:370|168:284|264:336,1,202.49999396503,4|0,0:0|0:0,0:0:0:0:
303,355,106349,6,0,B|386:336,1,67.4999979883433,4|0,0:0|0:0,0:0:0:0:
360,259,106706,1,8,0:0:0:0:
434,291,106884,1,0,0:0:0:0:
434,291,107063,2,0,B|448:256|431:224,1,67.4999979883433,0|0,0:0|0:0,0:0:0:0:
366,178,107420,1,8,0:0:0:0:
441,147,107599,2,0,B|395:80|442:22,1,134.999995976687,0|0,0:0|0:0,0:0:0:0:
320,68,108134,6,0,B|295:102|248:108,1,67.4999979883433,8|0,0:0|0:0,0:0:0:0:
185,121,108492,1,0,0:0:0:0:
107,98,108670,1,0,0:0:0:0:
65,27,108849,2,0,B|76:165,1,134.999995976687,8|2,0:0|0:0,0:0:0:0:
55,202,109563,5,8,0:0:0:0:
73,280,109742,2,0,B|89:346,2,67.4999979883433
55,202,110277,1,8,0:0:0:0:
148,119,110456,2,0,B|216:78|292:136,1,134.999995976687,2|0,0:0|0:0,0:0:0:0:
334,179,110992,1,8,0:0:0:0:
256,200,111170,1,2,0:0:0:0:
256,200,111259,1,2,0:0:0:0:
256,200,111349,2,0,B|221:286,2,67.4999979883433,2|2|8,0:0|0:0|0:0,0:0:0:0:
344,90,111884,5,0,0:0:0:0:
357,80,111974,1,0,0:0:0:0:
370,70,112063,2,0,B|406:46|468:65|476:120,1,134.999995976687,2|8,0:0|0:0,0:0:0:0:
403,154,112599,1,0,0:0:0:0:
462,209,112777,2,0,B|451:288,1,67.4999979883433,0|0,0:0|0:0,0:0:0:0:
452,275,113134,1,8,0:0:0:0:
439,355,113313,2,0,B|363:364|316:312,1,134.999995976687,0|0,0:0|0:0,0:0:0:0:
212,186,113849,6,0,B|288:177|335:229,2,134.999995976687,8|0|8,0:0|0:0|0:0,0:0:0:0:
212,186,114920,2,0,B|144:164,1,67.4999979883433,2|0,0:0|0:0,0:0:0:0:
71,137,115277,1,8,0:0:0:0:
214,57,115456,2,0,B|249:34|281:40|281:40|341:61,1,134.999995976687,0|0,0:0|0:0,0:0:0:0:
333,141,115992,2,0,B|269:117,1,67.4999979883433,8|0,0:0|0:0,0:0:0:0:
306,219,116349,5,2,0:0:0:0:
370,267,116527,1,0,0:0:0:0:
370,267,116617,1,0,0:0:0:0:
370,267,116706,1,10,0:0:0:0:
434,316,116884,1,2,0:0:0:0:
475,89,117242,2,0,B|466:156,1,67.4999979883433,2|8,0:0|0:0,0:0:0:0:
450,235,117599,1,0,0:0:0:0:
434,316,117777,6,0,B|405:353|349:356|313:326,1,134.999995976687,4|8,0:0|0:0,0:0:0:0:
259,265,118313,1,0,0:0:0:0:
256,183,118492,2,0,B|256:117,2,67.4999979883433,2|0|8,0:0|0:0|0:0,0:0:0:0:
199,326,119027,2,0,B|163:356|107:353|78:316,1,134.999995976687,2|0,0:0|0:0,0:0:0:0:
22,183,119563,2,0,B|58:153|114:156|143:193,2,134.999995976687,8|2|8,0:0|0:0|0:0,0:0:0:0:
22,183,120634,6,0,B|70:118,1,67.4999979883433,2|0,0:0|0:0,0:0:0:0:
114,66,120992,1,8,0:0:0:0:
190,39,121170,1,0,0:0:0:0:
190,39,121259,1,0,0:0:0:0:
190,39,121349,2,0,B|224:28|257:34,1,67.4999979883433,2|0,0:0|0:0,0:0:0:0:
345,124,121706,2,0,B|311:135|278:129,1,67.4999979883433,8|0,0:0|0:0,0:0:0:0:
352,32,122063,6,0,B|417:20|492:29,1,134.999995976687,2|8,0:0|0:0,0:0:0:0:
482,222,122599,2,0,B|417:234|342:225,1,134.999995976687,2|0,0:0|0:0,0:0:0:0:
255,206,123134,2,0,B|280:291,1,67.4999979883433,8|0,0:0|0:0,0:0:0:0:
174,116,123492,6,0,B|214:128|252:111,2,67.4999979883433,2|0|8,0:0|0:0|0:0,0:0:0:0:
145,26,124027,1,0,0:0:0:0:
174,116,124206,1,0,0:0:0:0:
139,203,124384,1,0,0:0:0:0:
70,268,124563,1,8,0:0:0:0:
70,268,124742,2,0,B|142:241|212:278,1,134.999995976687,2|0,0:0|0:0,0:0:0:0:
225,363,125277,1,8,0:0:0:0:
232,183,125456,2,0,B|276:120|372:121,1,134.999995976687,2|0,0:0|0:0,0:0:0:0:
409,239,125992,6,0,B|365:302|269:301,2,134.999995976687,8|2|8,0:0|0:0|0:0,0:0:0:0:
454,156,126884,1,0,0:0:0:0:
267,124,127242,1,0,0:0:0:0:
341,181,127420,2,0,B|300:225|246:215,1,101.249996982515,8|0,0:0|0:0,0:0:0:0:
250,215,127777,1,2,0:0:0:0:
85,132,127956,5,0,0:0:0:0:
156,196,128135,1,8,0:0:0:0:
248,216,128313,1,2,0:0:0:0:
236,317,128492,6,0,B|330:303,1,67.4999979883433,2|0,0:0|0:0,0:0:0:0:
236,67,128849,1,0,0:0:0:0:
236,67,128938,1,0,0:0:0:0:
236,67,129027,2,0,B|330:81,1,67.4999979883433,0|4,0:0|0:0,0:0:0:0:
383,88,129563,5,8,0:0:0:0:
463,98,129742,2,0,B|490:174|446:228,1,134.999995976687,2|0,0:0|0:0,0:0:0:0:
388,280,130277,2,0,B|359:255|325:252,1,67.4999979883433,8|0,0:0|0:0,0:0:0:0:
246,246,130634,1,0,0:0:0:0:
165,257,130813,1,2,0:0:0:0:
165,257,130902,1,0,0:0:0:0:
165,257,130992,1,2,0:0:0:0:
95,298,131170,1,2,0:0:0:0:
215,147,131349,6,0,B|188:71|232:17,1,134.999995976687,0|8,0:0|0:0,0:0:0:0:
463,98,132063,2,0,B|490:174|446:228,1,134.999995976687,2|8,0:0|0:0,0:0:0:0:
369,248,132599,1,0,0:0:0:0:
425,306,132777,2,0,B|404:331|363:331,1,67.4999979883433
295,287,133134,1,8,0:0:0:0:
296,205,133313,6,0,B|300:156|264:115|211:119,1,134.999995976687,2|2,0:0|0:0,0:0:0:0:
144,160,133849,1,8,0:0:0:0:
147,241,134028,2,0,B|172:286|235:297|289:264|295:205,1,202.49999396503,2|8,0:0|0:0,0:0:0:0:
206,184,134742,1,0,0:0:0:0:
206,184,134831,1,0,0:0:0:0:
206,184,134920,6,0,B|177:159|142:160,1,67.4999979883433,2|0,0:0|0:0,0:0:0:0:
76,204,135277,1,8,0:0:0:0:
147,242,135456,2,0,B|132:309|132:309|59:333,1,134.999995976687
206,358,135992,2,0,B|278:340,1,67.4999979883433,8|0,0:0|0:0,0:0:0:0:
446,297,136349,6,0,B|374:310|314:272,1,134.999995976687,2|8,0:0|0:0,0:0:0:0:
337,123,136884,2,0,B|409:110|469:148,1,134.999995976687,0|0,0:0|0:0,0:0:0:0:
466,146,137420,2,0,B|490:213,1,67.4999979883433,8|0,0:0|0:0,0:0:0:0:
270,248,137777,6,0,B|232:250|212:219,1,67.4999979883433,2|0,0:0|0:0,0:0:0:0:
191,141,138134,1,8,0:0:0:0:
268,166,138313,2,0,B|268:236|180:282|117:253,1,202.49999396503,0|8,0:0|0:0,0:0:0:0:
66,190,139027,1,0,0:0:0:0:
66,190,139384,5,2,0:0:0:0:
118,253,139563,1,8,0:0:0:0:
91,330,139742,1,2,0:0:0:0:
11,342,139920,1,2,0:0:0:0:
42,267,140099,1,0,0:0:0:0:
142,178,140277,2,0,B|187:190|191:234,1,67.4999979883433,8|2,0:0|0:0,0:0:0:0:
322,315,140634,6,0,B|404:296|410:204,1,134.999995976687,4|8,0:0|0:0,0:0:0:0:
406,143,141170,2,0,B|397:80|450:25|491:26,1,134.999995976687
465,31,141706,1,8,0:0:0:0:
465,202,141884,2,0,B|441:228|400:228,1,67.4999979883433,0|0,0:0|0:0,0:0:0:0:
326,205,142242,5,2,0:0:0:0:
253,169,142420,1,2,0:0:0:0:
179,133,142599,1,2,0:0:0:0:
179,213,142777,2,0,B|108:230|32:190,2,134.999995976687,0|8|2,0:0|0:0|0:0,0:0:0:0:
179,213,143849,6,0,B|251:267,1,67.4999979883433,8|0,0:0|0:0,0:0:0:0:
299,299,144206,2,0,B|380:306|398:228,1,134.999995976687,2|8,0:0|0:0,0:0:0:0:
317,224,144742,2,0,B|335:146|416:153,1,134.999995976687,0|2,0:0|0:0,0:0:0:0:
475,207,145277,1,8,0:0:0:0:
398,229,145456,2,0,B|346:214|315:172|332:96|396:82,1,202.49999396503,2|8,0:0|0:0,0:0:0:0:
279,55,146170,5,0,0:0:0:0:
262,58,146259,1,0,0:0:0:0:
245,62,146349,2,0,B|179:76,1,67.4999979883433,2|0,0:0|0:0,0:0:0:0:
99,90,146706,1,8,0:0:0:0:
20,108,146884,2,0,B|44:243,1,134.999995976687,2|0,0:0|0:0,0:0:0:0:
59,320,147420,1,8,0:0:0:0:
276,342,147777,6,0,B|315:355|349:349|374:322|383:286,1,134.999995976687,2|8,0:0|0:0,0:0:0:0:
326,163,148313,2,0,B|287:150|253:156|228:183|219:219,1,134.999995976687
383,290,148849,2,0,B|407:224,1,67.4999979883433,8|0,0:0|0:0,0:0:0:0:
431,149,149206,6,0,B|448:117|448:117|492:89,2,67.4999979883433,2|0|8,0:0|0:0|0:0,0:0:0:0:
507,175,149742,1,0,0:0:0:0:
412,46,149920,2,0,B|480:15,2,67.4999979883433,2|0|8,0:0|0:0|0:0,0:0:0:0:
507,175,150456,1,0,0:0:0:0:
317,102,150634,6,0,B|280:106|256:126,1,67.4999979883433,2|0,0:0|0:0,0:0:0:0:
303,289,150992,2,0,B|318:255|313:225,1,67.4999979883433,8|2,0:0|0:0,0:0:0:0:
147,184,151349,2,0,B|169:214|198:225,2,67.4999979883433,2|0|0,0:0|0:0|0:0,0:0:0:0:
111,111,151884,1,0,0:0:0:0:
105,94,151974,1,0,0:0:0:0:
99,78,152063,6,0,B|31:50,2,67.4999979883433,4|0|8,0:0|0:0|0:0,0:0:0:0:
233,70,152599,1,0,0:0:0:0:
233,70,152688,1,0,0:0:0:0:
233,70,152777,2,0,B|260:149,1,67.4999979883433
334,190,153134,2,0,B|307:269,1,67.4999979883433,0|4,0:0|0:1,0:0:0:0:
160,310,153670,5,8,0:0:0:0:
248,308,153849,1,8,0:0:0:0:
325,127,154027,2,0,B|360:194|312:254,1,134.999995976687,4|8,0:1|0:0,0:0:0:0:
206,132,154563,1,8,0:0:0:0:
215,118,154652,1,8,0:0:0:0:
224,104,154742,1,8,0:0:0:0:
234,89,154831,1,8,0:0:0:0:
242,77,154920,6,0,B|272:34|317:34,1,90,4|0,0:0|0:0,0:0:0:0:
398,74,155277,1,8,0:0:0:0:
398,74,155456,1,0,0:0:0:0:
326,128,155634,2,0,B|276:198|276:198|236:225|185:220,1,180,2|8,0:0|0:0,0:0:0:0:
119,159,156170,1,0,0:0:0:0:
205,312,156349,6,0,B|139:330|72:298,1,135,2|0,0:0|0:0,0:0:0:0:
58,283,156706,1,8,0:0:0:0:
22,200,156884,1,0,0:0:0:0:
28,110,157063,1,2,0:0:0:0:
91,45,157242,2,0,B|136:28|177:60,1,90,0|8,0:0|0:0,0:0:0:0:
234,127,157599,2,0,B|270:164|358:168|404:139,1,180,2|0,0:0|0:0,0:0:0:0:
445,60,158134,5,8,0:0:0:0:
378,227,158313,1,0,0:0:0:0:
354,66,158492,1,2,0:0:0:0:
466,205,158670,2,0,B|480:257|440:296,2,90,0|8|0,0:0|0:0|0:0,0:0:0:0:
251,152,159206,6,0,B|220:243,1,90,2|0,0:0|0:0,0:0:0:0:
214,258,159474,1,0,0:0:0:0:
206,279,159563,1,8,0:0:0:0:
254,355,159742,1,0,0:0:0:0:
123,209,159920,2,0,B|71:202|17:220,1,90,2|0,0:0|0:0,0:0:0:0:
254,355,160277,2,0,B|306:362|360:344,1,90,8|0,0:0|0:0,0:0:0:0:
424,208,160634,5,6,0:0:0:0:
488,271,160813,1,0,0:0:0:0:
421,332,160992,1,10,0:0:0:0:
357,269,161170,1,0,0:0:0:0:
340,180,161349,2,0,B|355:128|405:122,1,90,2|0,0:0|0:0,0:0:0:0:
325,351,161706,2,0,B|271:359|244:316,1,90,8|0,0:0|0:0,0:0:0:0:
236,299,161974,1,0,0:0:0:0:
227,278,162063,6,0,B|78:257,1,135,2|0,0:0|0:0,0:0:0:0:
71,255,162420,1,8,0:0:0:0:
340,180,162599,2,0,B|432:192,1,90,0|2,0:0|0:0,0:0:0:0:
129,168,162956,1,0,0:0:0:0:
129,168,163045,1,0,0:0:0:0:
129,168,163134,2,0,B|37:156,1,90,8|0,0:0|0:0,0:0:0:0:
182,68,163492,6,0,B|219:43|269:44,1,90,4|0,0:0|0:0,0:0:0:0:
355,62,163849,1,8,0:0:0:0:
271,214,164027,2,0,B|230:194|206:150,1,90,0|2,0:0|0:0,0:0:0:0:
181,68,164384,5,0,0:0:0:0:
190,286,164563,1,8,0:0:0:0:
360,160,164742,2,0,B|457:157,1,90,4|0,0:0|0:0,0:0:0:0:
449,157,165099,1,0,0:0:0:0:
363,328,165277,2,0,B|266:331,1,90,8|4,0:0|0:0,0:0:0:0:
53,95,165813,5,0,0:0:0:0:
56,117,165902,1,0,0:0:0:0:
59,139,165992,1,0,0:0:0:0:
63,161,166081,1,0,0:0:0:0:
67,183,166170,1,0,0:0:0:0:
71,205,166259,1,0,0:0:0:0:
75,227,166349,6,0,B|92:318,1,90,4|0,0:0|0:0,0:0:0:0:
219,162,166706,2,0,B|202:71,1,90,8|0,0:0|0:0,0:0:0:0:
101,331,167063,2,0,B|158:364|234:340,1,135,2|0,0:0|0:0,0:0:0:0:
251,329,167420,2,0,B|341:342,1,90,8|0,0:0|0:0,0:0:0:0:
429,136,167777,6,0,B|487:211|430:304,1,180,2|8,0:0|0:0,0:0:0:0:
251,329,168313,2,0,B|193:254|250:161,1,180,2|0,0:0|0:0,0:0:0:0:
309,93,168849,1,8,0:0:0:0:
156,187,169027,1,0,0:0:0:0:
156,187,169117,1,0,0:0:0:0:
156,187,169206,6,0,B|117:214|65:202,1,90,2|0,0:0|0:0,0:0:0:0:
51,73,169563,2,0,B|90:46|142:58,1,90,8|0,0:0|0:0,0:0:0:0:
219,93,169920,1,0,0:0:0:0:
309,93,170099,1,0,0:0:0:0:
309,93,170188,1,0,0:0:0:0:
309,93,170277,1,8,0:0:0:0:
384,43,170456,1,0,0:0:0:0:
384,43,170634,6,0,B|351:140|420:208,1,180,2|8,0:0|0:0,0:0:0:0:
464,129,171170,2,0,B|420:109|361:134,1,90,0|0,0:0|0:0,0:0:0:0:
306,184,171527,1,0,0:0:0:0:
300,205,171617,1,0,0:0:0:0:
295,226,171706,2,0,B|324:319,1,90,8|0,0:0|0:0,0:0:0:0:
207,132,172063,6,0,B|191:45,2,90,4|0|8,0:0|0:0|0:0,0:0:0:0:
196,221,172599,1,0,0:0:0:0:
114,184,172777,2,0,B|72:313,1,135,4|0,0:0|0:0,0:0:0:0:
64,333,173134,1,8,0:0:0:0:
148,364,173313,1,0,0:0:0:0:
29,165,173492,6,0,B|54:79,1,90,4|0,0:0|0:0,0:0:0:0:
60,57,173759,1,0,0:0:0:0:
66,35,173849,1,8,0:0:0:0:
142,101,174027,2,0,B|167:15,2,90,0|2|0,0:0|0:0|0:0,0:0:0:0:
114,184,174563,1,8,0:0:0:0:
288,156,174742,5,0,0:0:0:0:
301,173,174831,1,0,0:0:0:0:
314,190,174920,2,0,B|373:244|476:200,1,135,4|0,0:0|0:0,0:0:0:0:
454,194,175277,2,0,B|431:244|456:280,1,90,8|0,0:0|0:0,0:0:0:0:
388,121,175634,2,0,B|411:71|386:35,1,90
298,59,175992,1,0,0:0:0:0:
298,59,176081,1,0,0:0:0:0:
296,60,176170,1,0,0:0:0:0:
90,130,176349,5,4,0:0:0:0:
177,149,176706,2,0,B|212:250,1,90
68,330,177242,5,0,0:0:0:0:
68,330,177331,1,0,0:0:0:0:
68,330,177420,2,0,B|23:202,1,134.999995976687,4|0,0:0|0:0,0:0:0:0:
152,64,177777,1,4,0:0:0:0:
256,192,177867,12,0,179206,0:0:0:0:
