osu file format v12

[General]
AudioFilename: Ryuu to Sakura Miko.mp3
AudioLeadIn: 0
PreviewTime: 68486
Countdown: 0
SampleSet: Soft
StackLeniency: 0.4
Mode: 0
LetterboxInBreaks: 0

[Editor]
Bookmarks: 10161,29653,49145,68638,88130,107623,127115,146607,166100,188029,207521,227013
DistanceSpacing: 1
BeatDivisor: 4
GridSize: 4

[Metadata]
Title:Ryuu to Sakura Miko
TitleUnicode:龍と桜巫女
Artist:Hatsuki Yura
ArtistUnicode:葉月 ゆら
Creator:phonic
Version:Insane
Source:
Tags:Drop
BeatmapID:197175
BeatmapSetID:68028

[Difficulty]
HPDrainRate:7
CircleSize:4
OverallDifficulty:7
ApproachRate:9
SliderMultiplier:1.8
SliderTickRate:1

[Events]
//Background and Video events
0,0,"BG.jpg",0,0
//Break Periods
//Storyboard Layer 0 (Background)
//Storyboard Layer 1 (Fail)
//Storyboard Layer 2 (Pass)
//Storyboard Layer 3 (Foreground)
//Storyboard Sound Samples
//Background Colour Transformations
3,100,255,255,255

[TimingPoints]
415,304.568527918782,4,2,1,45,1,0
10161,-100,4,2,1,65,0,0
29958,-100,4,2,1,55,0,0
34222,-100,4,2,1,75,0,0
34526,-100,4,2,1,65,0,0
39704,-100,4,2,1,55,0,0
43968,-100,4,2,1,75,0,0
44272,-100,4,2,1,65,0,0
68638,-100,4,2,1,65,0,1
68790,-100,4,2,1,65,0,0
78384,-100,4,2,1,65,0,1
78536,-100,4,2,1,65,0,0
146607,-100,4,2,1,65,0,1
146760,-100,4,2,1,65,0,0
156354,-100,4,2,1,65,0,1
156506,-100,4,2,1,65,0,0
188029,-100,4,2,1,65,0,1
188181,-100,4,2,1,65,0,0
197775,-100,4,2,1,65,0,1
197927,-100,4,2,1,65,0,0

[Colours]
Combo1 : 150,0,0
Combo2 : 210,210,210
Combo3 : 170,0,100
Combo4 : 150,50,250

[HitObjects]
149,251,10161,1,0,0:0:0:0:
212,188,10313,2,0,L|279:121,2,90
149,251,10770,1,0,0:0:0:0:
71,198,10922,1,0,0:0:0:0:
93,113,11074,1,0,0:0:0:0:
183,104,11227,1,0,0:0:0:0:
183,104,11531,6,0,P|226:109|267:127,1,90
285,138,11760,1,0,0:0:0:0:
299,146,11836,2,0,P|339:166|383:169,1,90,0|0,0:0|0:0,0:0:0:0:
472,152,12140,1,0,0:0:0:0:
413,87,12293,2,0,B|375:122|379:170|391:217|440:236,1,180
472,152,12750,6,0,L|440:236,1,90
408,320,13054,1,0,0:0:0:0:
413,87,13206,2,0,L|381:171,1,90
349,255,13510,1,0,0:0:0:0:
354,22,13663,6,0,L|288:192,1,180
257,273,14120,1,0,0:0:0:0:
165,264,14273,1,0,0:0:0:0:
145,176,14425,1,0,0:0:0:0:
223,129,14577,1,0,0:0:0:0:
289,189,14729,2,0,B|327:223|374:215|420:199|435:149,1,180
348,120,15186,5,0,0:0:0:0:
289,189,15338,1,0,0:0:0:0:
223,129,15491,1,0,0:0:0:0:
280,60,15643,2,0,B|242:26|195:34|149:50|134:100,1,180
116,188,16100,6,0,B|150:150|142:103|126:57|76:42,1,180
44,128,16557,1,0,0:0:0:0:
116,188,16709,2,0,L|184:245,1,90
168,336,17013,2,0,L|99:278,1,90
28,220,17318,1,0,0:0:0:0:
28,220,17394,1,0,0:0:0:0:
28,220,17470,5,0,0:0:0:0:
153,95,17623,1,0,0:0:0:0:
3,132,17775,1,0,0:0:0:0:
65,70,17927,1,0,0:0:0:0:
91,158,18079,2,0,L|156:223,2,90
132,308,18536,6,0,B|181:318|218:288|250:251|238:200,1,180
214,19,18993,2,0,L|228:108,1,90
296,48,19298,2,0,L|309:136,1,90
322,222,19602,1,0,0:0:0:0:
322,222,19678,1,0,0:0:0:0:
322,222,19755,2,0,L|329:266,2,45
296,48,20059,5,0,0:0:0:0:
206,53,20211,2,0,P|164:60|123:81,1,90,0|0,0:0|0:0,0:0:0:0:
296,48,20516,1,0,0:0:0:0:
257,129,20668,2,0,P|244:169|242:215,1,90,0|0,0:0|0:0,0:0:0:0:
137,327,20973,6,0,B|186:337|223:307|255:270|242:217,1,180
153,237,21430,1,0,0:0:0:0:
242,217,21582,2,0,L|329:197,2,90
64,256,22039,1,0,0:0:0:0:
64,256,22343,1,0,0:0:0:0:
44,168,22496,6,0,L|23:77,2,90
133,149,22953,2,0,L|153:236,2,90
112,60,23409,6,0,L|292:60,1,180
400,60,23866,1,0,0:0:0:0:
316,136,24019,1,0,0:0:0:0:
316,248,24171,1,0,0:0:0:0:
400,324,24323,1,0,0:0:0:0:
400,192,24475,2,0,L|220:192,1,180
128,192,24932,5,0,0:0:0:0:
180,268,25085,2,0,L|230:342,1,90
140,348,25389,2,0,L|89:273,1,90
40,200,25694,5,0,0:0:0:0:
212,188,25846,1,0,0:0:0:0:
212,188,26151,1,0,0:0:0:0:
140,348,26303,1,0,0:0:0:0:
140,348,26455,6,0,L|181:266,1,90
291,348,26760,2,0,L|332:268,1,90,0|0,0:0|0:0,0:0:0:0:
372,188,27064,1,0,0:0:0:0:
372,188,27140,1,0,0:0:0:0:
372,188,27217,5,0,0:0:0:0:
417,110,27369,1,0,0:0:0:0:
359,42,27521,1,0,0:0:0:0:
276,77,27673,1,0,0:0:0:0:
283,167,27826,1,0,0:0:0:0:
417,110,27978,6,0,L|498:71,1,90
276,77,28283,2,0,L|114:157,1,180
78,262,28739,2,0,L|159:223,1,90
182,214,28968,1,0,0:0:0:0:
202,206,29044,1,0,0:0:0:0:
283,167,29196,5,0,0:0:0:0:
397,114,29349,1,0,0:0:0:0:
336,281,29501,1,0,0:0:0:0:
450,228,29653,1,0,0:0:0:0:
132,76,29958,5,0,0:0:0:0:
380,76,30262,1,0,0:0:0:0:
256,292,30567,5,0,0:0:0:0:
304,368,30719,2,0,B|344:348|356:292|344:236|304:216,1,180
208,216,31176,2,0,B|184:196|172:156|184:116|208:96,1,135
224,80,31480,6,0,B|256:49|313:57|361:87|366:131,1,180
288,304,32090,2,0,B|256:335|199:327|151:297|146:253,2,180
367,132,33003,1,0,0:0:0:0:
312,56,33156,1,0,0:0:0:0:
145,252,33460,1,0,0:0:0:0:
200,328,33612,1,0,0:0:0:0:
256,192,33917,5,0,0:0:0:0:
256,184,34222,1,0,0:0:0:0:
256,176,34526,2,0,B|256:132|192:104|192:104|116:132,1,180
48,76,34983,2,0,B|17:108|25:164|55:212|100:217,1,180,0|0,0:0|0:0,0:0:0:0:
188,236,35440,1,0,0:0:0:0:
256,176,35592,2,0,B|319:125|391:141|449:186|451:267,1,270
188,236,36354,5,0,0:0:0:0:
272,264,36506,1,0,0:0:0:0:
256,176,36658,1,0,0:0:0:0:
256,176,36963,2,0,B|244:147|208:124|166:126|140:144,1,135
119,150,37267,2,0,P|137:110|140:65,1,90
67,226,37724,2,0,P|48:265|45:310,2,90
256,176,38333,5,0,0:0:0:0:
281,263,38486,1,0,0:0:0:0:
343,201,38638,1,0,0:0:0:0:
318,113,38790,5,0,0:0:0:0:
193,238,38942,1,0,0:0:0:0:
369,289,39095,1,0,0:0:0:0:
256,176,39247,2,0,L|224:144,2,45
128,48,39704,5,0,0:0:0:0:
128,336,40008,1,0,0:0:0:0:
256,188,40313,5,0,0:0:0:0:
344,192,40465,2,0,B|388:192|416:128|416:128|388:52,1,180,0|0,0:0|0:0,0:0:0:0:
300,28,40922,2,0,L|330:112,1,90
384,268,41227,1,0,0:0:0:0:
128,268,41531,1,0,0:0:0:0:
128,268,41836,6,0,B|168:248|180:192|168:136|128:116,2,180
328,92,42750,1,0,0:0:0:0:
244,124,42902,1,0,0:0:0:0:
76,192,43206,1,0,0:0:0:0:
160,160,43358,1,0,0:0:0:0:
256,320,43663,5,0,0:0:0:0:
256,328,43968,1,0,0:0:0:0:
256,336,44272,2,0,B|256:292|320:264|320:264|396:292,1,180
404,380,44729,2,0,B|448:378|483:333|496:277|468:242,1,180
404,176,45186,1,0,0:0:0:0:
432,92,45338,2,0,B|355:66|293:128|318:205|318:205|253:224,1,270
112,192,46100,6,0,B|90:215|85:257|104:294|132:310,1,135
145,326,46404,2,0,P|101:326|59:342,1,90
176,240,46709,2,0,B|198:217|203:175|184:138|156:122,1,135
143,106,47013,2,0,P|187:106|229:90,1,90
316,60,47318,1,0,0:0:0:0:
292,148,47470,2,0,P|274:188|271:233,1,90
316,60,47775,2,0,L|184:192,1,180
60,315,48232,6,0,L|124:252,1,90
100,164,48536,2,0,L|36:227,2,90
164,100,48993,1,0,0:0:0:0:
124,252,49145,1,0,0:0:0:0:
452,68,49450,6,0,L|388:132,1,90
324,196,49755,1,0,0:0:0:0:
324,196,50059,1,0,0:0:0:0:
232,176,50211,2,0,B|218:218|249:267|297:298|340:284,1,180
324,196,50668,2,0,L|196:324,2,180
105,304,51582,6,0,L|232:176,2,180
297,112,52496,1,0,0:0:0:0:
376,152,52648,2,0,P|384:196|376:240,1,90
300,288,52953,2,0,P|292:244|300:200,1,90
372,64,53257,1,0,0:0:0:0:
300,199,53409,1,0,0:0:0:0:
36,192,53714,6,0,L|128:192,1,90
176,116,54019,2,0,B|216:140|228:192|216:244|176:268,1,180
110,56,54628,2,0,B|84:74|72:115|84:155|109:175,1,135
126,192,54932,1,0,0:0:0:0:
176,116,55085,2,0,L|356:116,1,180
444,120,55541,1,0,0:0:0:0:
444,120,55846,5,0,0:0:0:0:
68,264,56151,1,0,0:0:0:0:
444,120,56455,2,0,B|455:165|427:210|381:238|336:227,1,180
68,264,57064,2,0,B|56:218|84:173|130:145|175:156,1,180
256,192,57521,1,0,0:0:0:0:
419,88,57826,6,0,P|460:102|495:130,1,90
401,165,58130,2,0,P|420:205|423:249,1,90,0|0,0:0|0:0,0:0:0:0:
334,209,58435,2,0,P|318:250|290:284,1,90
256,192,58739,1,0,0:0:0:0:
217,211,58815,1,0,0:0:0:0:
172,215,58891,1,0,0:0:0:0:
52,327,59196,6,0,P|57:284|75:243,1,90
50,153,59501,2,0,B|75:134|118:137|151:162|162:192,1,135
172,215,59805,1,0,0:0:0:0:
144,304,59958,2,0,B|221:330|283:268|258:191|258:191|323:172,1,270
496,124,60719,5,0,0:0:0:0:
172,215,61024,1,0,0:0:0:0:
382,235,61328,2,0,B|337:222|312:175|310:121|342:88,2,180
496,124,62242,1,0,0:0:0:0:
412,148,62394,2,0,L|234:195,1,180
151,217,62851,1,0,0:0:0:0:
