osu file format v9

[General]
AudioFilename: Ryu to Sakuramiko.mp3
AudioLeadIn: 0
PreviewTime: 10018
Countdown: 0
SampleSet: Soft
StackLeniency: 0.7
Mode: 0
LetterboxInBreaks: 0

[Editor]
DistanceSpacing: 1.1
BeatDivisor: 4
GridSize: 4

[Metadata]
Title:Ryuu to Sakura Miko
Artist:Hatsuki Yura
Creator:S i R i R u
Version:Cherry Blossom
Source:
Tags:Drop

[Difficulty]
HPDrainRate:7
CircleSize:4
OverallDifficulty:8
ApproachRate:9
SliderMultiplier:1.7
SliderTickRate:1

[Events]
//Background and Video events
0,0,"BG.jpg"
//Break Periods
2,166300,174180
//Storyboard Layer 0 (Background)
//Storyboard Layer 1 (Fail)
//Storyboard Layer 2 (Pass)
//Storyboard Layer 3 (Foreground)
//Storyboard Sound Samples
//Background Colour Transformations
3,100,255,255,255

[TimingPoints]
415,304.568527918782,4,2,0,100,1,0
10313,-100,4,1,1,60,0,0
19907,-100,4,2,0,100,0,0
20059,-100,4,1,1,60,0,0
29653,-100,4,2,1,70,0,0
36658,-100,4,2,2,70,0,0
36734,-100,4,2,1,70,0,0
46404,-100,4,2,2,70,0,0
46480,-100,4,2,1,70,0,0
53714,-100,4,2,2,70,0,0
53790,-100,4,2,1,70,0,0
63460,-100,4,2,2,70,0,0
63536,-100,4,2,1,70,0,0
66201,-100,4,2,1,100,0,0
68638,-100,4,2,1,80,0,0
73206,-100,4,2,2,80,0,0
73283,-100,4,2,1,80,0,0
82953,-100,4,2,2,80,0,0
83029,-100,4,2,1,80,0,0
85846,-100,4,1,0,70,0,0
86760,-100,4,2,1,80,0,0
88130,-100,4,2,1,70,0,0
92699,-100,4,2,2,70,0,0
92851,-100,4,2,1,70,0,0
102445,-100,4,2,2,70,0,0
102597,-100,4,2,1,70,0,0
114628,-100,4,2,2,70,0,0
114780,-100,4,2,1,70,0,0
124374,-100,4,2,2,70,0,0
124526,-100,4,2,1,70,0,0
127115,-100,4,2,1,70,0,0
131684,-100,4,2,2,70,0,0
131836,-100,4,2,1,70,0,0
144171,-100,4,2,1,100,0,0
146607,-100,4,2,1,70,0,0
160922,-100,4,2,2,70,0,0
161074,-100,4,2,1,70,0,0
163663,-100,4,1,0,70,0,0
164729,-100,4,2,1,80,0,0
165338,-100,4,2,1,70,0,0
174628,-100,4,2,1,60,0,0
175389,-100,4,2,1,70,0,0
175846,-100,4,2,1,70,0,0
180415,-100,4,2,2,70,0,0
180567,-100,4,2,1,70,0,0
183156,-100,4,1,1,60,0,0
184222,-100,4,2,1,60,0,0
184374,-100,4,1,1,70,0,0
185592,-100,4,2,1,100,0,0
188029,-100,4,2,1,70,0,0
192597,-100,4,2,2,70,0,0
192902,-100,4,2,1,70,0,0
202343,-100,4,2,2,70,0,0
202648,-100,4,2,1,70,0,0
205237,-100,4,1,0,70,0,0
206151,-100,4,2,1,80,0,0
207369,-100,4,2,1,100,0,0
207673,-100,4,1,1,60,0,0
217267,-100,4,1,1,100,0,0
217420,-100,4,1,1,60,0,0
227013,-100,4,2,1,70,0,0
229145,-100,4,2,1,100,0,0

[Colours]
Combo1 : 231,20,20
Combo2 : 255,255,255
Combo3 : 255,128,192
Combo4 : 128,0,255

[HitObjects]
56,160,10161,1,4
124,224,10313,1,0
208,180,10465,1,0
292,220,10618,2,0,B|324:272|288:328,2,85
212,272,11074,1,0
292,220,11227,2,0,B|324:160|408:164|440:208,1,170
400,292,11684,2,0,B|416:340|496:352,2,85
432,108,12293,1,0
256,44,12597,1,0
192,112,12750,5,0
40,224,12902,1,0
116,168,13054,2,0,B|148:216|224:208,1,85
268,164,13359,2,0,B|308:220|268:296|208:300,2,170
356,136,14120,1,0
448,156,14272,2,0,B|472:104|440:56,2,85
384,224,14729,1,2
72,64,15034,6,0,B|68:120|112:144,1,85
180,88,15338,1,0
256,144,15491,1,0
256,144,15643,2,0,B|256:232,2,85
332,88,16100,1,0
400,260,16404,1,0
348,336,16557,1,0
400,260,16709,2,0,B|464:260|476:340,1,85
348,336,17013,1,0
312,248,17166,2,0,B|304:196|364:152|412:160|448:176,1,170
48,156,17775,5,0
120,216,17927,2,0,B|120:268|176:292,1,85
216,208,18232,1,0
376,144,18384,1,0
284,144,18536,2,0,B|280:100|312:44|376:44|412:56,1,170
216,208,18993,2,0,B|220:272|160:296,1,85
260,224,19298,2,0,B|296:264|268:340,2,85
192,288,19755,5,0
192,288,19831,1,0
192,288,19907,2,0,B|120:288|96:248,1,85,4|0
56,192,20211,1,0
140,152,20364,2,0,B|140:64,2,85
228,124,20821,1,0
272,208,20973,6,0,B|308:244|416:244|452:188,1,170
392,124,21430,2,0,B|360:104|324:108|304:128,1,85
264,44,21734,2,0,B|208:24|164:60,1,85
112,108,22039,2,0,B|144:168|120:256|80:276,1,170
28,200,22496,5,0
120,188,22648,1,0
212,212,22800,1,0
276,280,22953,1,0
276,280,23105,2,0,B|192:344,1,85
304,196,23409,2,0,B|336:164|424:168|452:224|448:272,1,170
368,292,23866,2,0,B|432:356,2,85
276,280,24323,1,0
192,316,24475,1,2
76,116,24780,5,0
252,72,24932,1,0
160,72,25085,2,0,B|160:128|216:156,1,85
136,216,25389,2,0,B|180:256|248:228,2,85
204,152,25846,2,0,B|276:148|308:200|308:244|296:280,1,170
388,228,26303,2,0,B|440:208|488:244,2,85
428,312,26760,1,0
348,356,26912,1,0
260,328,27064,1,0
180,284,27217,6,0,B|124:280|76:308,2,85
256,228,27673,1,0
180,172,27826,2,0,B|124:168|76:196,2,85,0|0|0
260,120,28283,1,0
432,192,28587,1,0
472,276,28739,1,0
472,88,29044,1,0
292,36,29349,1,0
200,52,29501,1,0
152,132,29653,6,0,B|124:184|140:260|192:292,2,170,4|8|0
328,192,30567,1,8
328,192,30719,2,0,B|388:192|408:248,1,85
340,156,31024,2,0,B|384:112|448:136,2,85,0|8|0
248,144,31480,2,0,B|212:184|232:252|256:276|308:288,2,170,0|8|0
80,64,32394,1,8
36,248,32699,1,0
216,304,33003,1,8
288,244,33156,1,0
372,284,33308,2,0,B|484:284,2,85,0|0|8
288,244,33765,1,0
368,192,33917,6,0,B|404:148|368:92,1,85,0|0
380,112,34145,1,8
378,112,34222,2,0,B|348:48|276:76,1,85,8|0
244,132,34526,2,0,B|208:180|128:196|80:188,1,170,4|10
128,104,34983,2,0,B|68:96|48:32,2,85
204,48,35440,1,8
296,64,35592,2,0,B|376:24,1,85,0|0
448,80,35897,2,0,B|356:124,1,85,0|8
344,204,36201,1,0
252,188,36354,6,0,B|188:180|136:244|156:304,2,170,0|10|0
384,320,37267,1,8
384,320,37420,2,0,B|484:320,2,85,0|0|0
208,252,38029,1,4
132,308,38181,1,0
104,220,38333,1,0
180,168,38486,5,8
216,336,38638,1,0
44,288,38790,1,0
180,168,38942,1,0
260,120,39095,5,8
272,120,39171,1,8
284,120,39247,1,8
296,120,39323,1,8
308,120,39399,2,0,B|364:116|380:176|380:176|380:256,1,170,4|8
292,212,39856,2,0,B|292:300,2,85
208,252,40313,1,8
116,228,40465,1,0
80,140,40618,6,0,B|76:76|136:56,1,85
168,144,40922,2,0,B|204:88|280:84|336:96,1,170,8|0
320,93,41379,1,0
280,176,41531,2,0,B|340:200|316:276,2,85,8|0|0
108,252,42140,1,8
268,348,42445,1,0
432,256,42750,1,8
392,172,42902,2,0,B|424:136|404:80,2,85
304,140,43359,2,0,B|248:140|196:212|212:272,1,170,8|0
120,236,43816,5,0
120,236,43892,1,8
120,236,43968,2,0,B|112:296|156:336,1,85,8|0
228,340,44272,2,0,B|276:364|372:356|412:308,1,170,4|10
324,260,44729,2,0,B|368:220|352:144,2,85
244,208,45186,5,10
268,116,45338,1,2
188,68,45491,1,0
268,116,45643,2,0,B|372:116,1,85,0|8
244,208,45947,2,0,B|180:200|172:128,2,85
324,260,46404,2,0,B|296:316|224:312|200:312|164:288,2,170,2|0|8
392,192,47166,1,4
248,72,47470,1,0
248,72,47623,1,8
176,132,47775,1,4
440,312,48079,5,0
352,280,48232,1,8
280,340,48384,1,8
196,300,48536,2,8,B|136:232,2,85
264,236,48993,1,8
352,160,49145,6,0,B|416:160|440:216,2,85,4|0|8
304,80,49602,1,0
240,148,49755,2,0,B|188:184|92:160|88:112,1,170,0|8
160,60,50211,2,0,B|184:96|180:160|152:200|96:208,1,170
48,268,50668,2,0,B|80:312|152:292,1,85,8|0
208,260,50973,1,0
380,192,51277,1,8
380,192,51582,1,0
312,128,51734,5,0
312,128,51887,2,0,B|280:72|212:88,1,85,8|0
280,160,52191,2,0,B|216:152|184:200,2,85,0|0|8
300,244,52648,2,0,B|320:288|388:300|432:284|460:252,1,170
440,180,53105,2,0,B|412:124|448:80,1,85,8|0
277,47,53409,2,0,B|328:40|368:72,1,85
304,132,53714,2,0,B|268:168|208:152,1,85,8|0
140,156,54019,6,0,B|76:160|72:216|80:264|160:260,1,170,4|8
220,232,54475,2,0,B|308:232,2,85
252,312,54932,1,8
252,312,55085,2,0,B|332:312|332:312|384:300|396:232,1,170,4|0
380,168,55541,5,8
436,92,55694,1,0
356,44,55846,1,0
280,100,55998,1,0
192,64,56151,1,8
128,132,56303,1,0
112,224,56455,6,0,B|128:272|208:280,1,85,4|0
252,220,56760,1,10
252,220,57064,1,4
296,304,57217,2,0,B|384:304,2,85,0|8|4
304,116,57826,2,8,B|268:64|204:76,1,85
348,192,58130,2,8,B|376:236|432:232,1,85
468,152,58435,5,8
432,64,58587,1,8
344,36,58739,1,8
252,40,58892,1,4
132,324,59196,5,10
188,248,59349,1,0
280,264,59501,2,0,B|332:308|428:284|436:212,1,170,0|8
376,160,59958,2,0,B|356:112|392:48,2,85
284,172,60414,1,8
104,220,60719,1,0
60,304,60871,1,0
104,220,61024,2,0,B|108:152|32:136,1,85,8|0
180,276,61328,2,0,B|204:312|312:312|340:272,1,170,0|8
376,192,61785,5,0
352,104,61937,1,0
260,88,62090,1,0
192,152,62242,1,8
192,152,62394,2,0,B|116:88,2,85
196,244,62851,2,0,B|196:300|256:320,1,85,8|0
288,232,63156,2,0,B|312:284|380:284,1,85
300,204,63460,2,0,B|336:228|384:220,2,85,10|0|4
64,60,64069,5,10
256,336,64374,1,0
256,336,64678,1,8
336,284,64831,2,0,B|392:276|416:196|376:140,1,170
296,104,65288,1,8
296,104,65592,1,0
100,276,65897,5,8
100,276,66049,1,0
144,192,66201,1,4
392,60,66658,1,4
460,332,67115,1,4
332,196,67420,1,0
264,260,67572,2,0,B|304:300|376:300|412:264|448:208|400:132,1,255,4|4
228,176,68333,1,4
56,48,68638,5,4
136,216,68942,1,10
64,276,69095,2,0,B|84:320|156:320,1,85
220,280,69399,1,0
300,232,69552,2,0,B|360:232|384:288,1,85,8|0
220,280,69856,2,0,B|188:228|212:156|276:136,2,170,0|8|0
148,108,70770,1,8
148,108,71074,6,0,B|96:100|40:132,1,85
112,200,71379,2,0,B|80:232|80:288,1,85,10|0
176,276,71684,2,0,B|204:328|288:348|340:340,1,170,0|8
388,272,72140,1,0
332,196,72293,2,0,B|408:128,2,85,0|0|8
240,208,72750,1,0
184,132,72902,1,0
236,56,73054,1,0
184,132,73206,2,0,B|120:132|96:76,1,85,10|0
240,208,73511,6,0,B|224:264|160:292|108:280|84:272,1,170,4|10
280,132,73968,2,0,B|452:132,2,170,0|0|4
108,208,74882,1,0
168,280,75034,1,8
76,300,75186,1,0
168,280,75338,2,0,B|256:280,1,85,0|0
324,216,75643,1,8
412,244,75795,1,0
400,152,75947,6,0,B|392:92|320:56|260:84,1,170,4|10
240,168,76404,1,0
160,120,76557,1,0
116,204,76709,2,0,B|40:240,2,85,0|8|4
284,292,77318,1,0
376,296,77470,1,8
452,240,77623,1,8
416,156,77775,2,0,B|432:108|396:60,2,85,0|8|8
324,156,78232,1,8
296,68,78384,6,0,B|232:84|220:140|220:176|256:220,1,170,4|10
324,156,78841,2,0,B|288:112|232:100|184:124|164:152,1,170
96,196,79298,1,8
140,280,79450,1,0
48,288,79602,2,0,B|48:340|104:368,1,85
140,280,79907,2,0,B|216:232,1,85,8|0
252,320,80211,2,0,B|360:308,2,85,0|0|8
408,60,80821,6,0,B|436:104|408:188|336:188,1,170,0|10
342,187,81277,1,0
320,96,81430,2,0,B|232:60,2,85,0|0|8
344,280,82039,2,0,B|432:316,2,85,0|0|8
260,320,82496,1,0
200,248,82648,1,0
128,308,82800,1,0
108,216,82953,2,0,B|108:160|40:140,2,85,10|0|4
256,56,83562,5,10
328,112,83714,1,0
328,204,83866,1,0
408,156,84019,2,0,B|468:156|480:224,1,85,0|8
328,204,84323,2,0,B|236:204|236:204|224:196|224:196|136:196,1,170,4|0
180,288,84780,2,0,B|88:288,1,85,8|0
76,196,85085,2,0,B|64:144|132:88|200:116,1,170,0|8
372,324,85694,5,4
420,244,85846,1,0
336,204,85998,1,0
268,268,86151,2,0,B|212:196,1,85
128,236,86455,1,0
60,172,86607,1,0
128,108,86760,1,4
304,48,87064,1,4
368,116,87217,1,4
276,136,87369,6,0,B|272:192|312:240,1,85
295,217,87673,2,0,B|328:256|384:264,2,85
204,208,88130,5,4
80,348,88435,1,10
108,260,88587,1,0
116,168,88739,6,0,B|72:88,1,85
204,120,89044,2,0,B|204:36,1,85,8|0
308,120,89349,2,0,B|308:28,1,85
396,168,89653,2,0,B|440:88,1,85,8|0
256,236,89958,6,0,B|256:328,2,85,0|0|8
256,144,90414,1,0
256,144,90491,1,0
256,144,90567,2,0,B|244:80|184:72,1,85
164,160,90871,1,10
164,252,91024,1,0
164,160,91176,2,0,B|76:104,2,85,0|0|8
200,72,91633,5,0
288,40,91785,1,0
380,48,91937,1,0
324,124,92090,1,8
408,164,92242,1,0
448,248,92394,1,0
356,236,92546,1,0
292,304,92699,1,10
200,316,92851,5,0
200,316,92927,1,0
200,316,93003,2,0,B|140:320|112:268,1,85
188,220,93308,1,10
132,144,93460,1,0
216,100,93612,1,0
384,100,93765,1,0
300,140,93917,2,0,B|300:192|352:216,2,85,8|0|0
216,100,94374,2,0,B|192:52|128:48,1,85,0|8
132,144,94678,2,0,B|88:176|96:244,2,85
188,220,95135,1,8
372,192,95440,5,0
420,272,95592,1,0
328,268,95744,2,0,B|320:332|392:360,2,85,10|0|0
280,188,96201,1,0
200,136,96354,1,8
108,132,96506,1,0
28,180,96658,1,0
112,220,96810,2,0,B|124:272|88:304,1,85,0|8
144,220,97115,2,0,B|184:248|184:308,2,85
108,132,97572,1,8
160,56,97724,5,8
160,56,97800,1,8
160,56,97876,2,0,B|212:28|272:48,1,85,4|0
312,104,98181,1,10
276,188,98333,1,0
340,256,98486,1,0
156,292,98790,5,8
92,224,98942,1,0
60,312,99095,1,0
384,168,99399,1,8
436,248,99552,1,0
400,336,99704,1,0
308,348,99856,1,0
244,280,100008,6,0,B|244:188,1,85,8|0
244,176,100237,1,0
244,156,100313,2,0,B|244:60,2,85,0|0|10
72,232,100922,6,0,B|72:288|124:324,1,85
164,236,101227,1,8
440,232,101379,2,0,B|440:288|388:324,1,85
348,236,101684,1,0
256,260,101836,5,8
256,168,101988,2,0,B|268:124|232:112|264:72,2,85
256,260,102445,2,0,B|244:304|280:316|248:356,2,85,10|0|0
184,88,103054,5,10
256,44,103206,1,0
328,92,103359,1,0
468,192,103663,5,8
424,192,103816,1,0
380,192,103968,1,0
44,192,104272,5,8
88,192,104425,1,0
132,192,104577,1,0
256,308,104882,6,0,B|256:260,2,42.5,8|0|0
256,308,105186,1,0
304,128,105491,1,8
208,128,105643,1,0
256,208,105795,1,0
256,36,106100,5,8
164,56,106252,1,0
116,136,106404,1,0
116,228,106557,1,0
256,36,106709,5,8
348,56,106861,1,0
396,136,107013,1,8
396,228,107166,1,0
396,228,107318,1,8
152,140,107623,6,0,B|192:112|264:132|272:208|232:236,2,170,4|8|0
112,224,108384,1,0
152,308,108536,1,8
60,304,108689,2,0,B|4:272|16:196,2,85
152,308,109145,2,0,B|192:280|280:260|336:264,1,170,8|0
384,324,109602,1,0
456,264,109755,1,8
444,172,109907,1,0
468,84,110059,6,0,B|416:64|364:92|344:132|352:176,1,170,0|8
444,172,110516,1,0
444,172,110668,2,0,B|448:112|384:72|336:68|296:100,1,170,0|8
260,152,111125,2,0,B|208:192|156:184,1,85
116,120,111430,2,0,B|20:120,2,85,0|8|0
76,204,111887,1,0
136,276,112039,1,0
160,276,112115,1,8
180,276,112191,2,0,B|240:276|268:232,1,85,8|0
340,200,112496,6,0,B|408:196|448:268|416:320,1,170,4|10
272,136,112953,2,0,B|296:96|272:44,2,85
180,140,113409,1,8
180,140,113562,2,0,B|180:224,1,85
88,236,113866,2,0,B|88:288|136:312,1,85,0|8
44,152,114171,2,0,B|44:48,2,85
88,236,114628,1,10
256,316,114932,5,4
352,156,115237,1,8
432,208,115389,1,4
252,156,115694,1,0
252,156,115846,2,0,B|152:156,1,85,8|4
116,76,116151,1,0
60,152,116303,1,0
92,240,116455,1,8
40,316,116607,1,0
92,240,116760,2,8,B|188:240,1,85
144,328,117064,6,0,B|240:328,1,85,8|8
248,328,117293,1,8
268,328,117369,2,0,B|312:328|336:328|336:328|392:312|408:248,1,170,4|8
312,236,117826,1,0
312,236,117978,2,0,B|208:236,2,85,0|0|8
292,144,118435,2,0,B|356:136|396:176|408:204|404:248,1,170
312,236,118892,1,8
204,84,119196,1,0
124,132,119349,1,0
104,224,119501,1,8
456,84,119805,6,0,B|456:184|456:184|444:224|392:240,1,170,0|8
372,148,120262,1,0
372,148,120414,2,0,B|372:56,2,85,0|0|8
280,164,120871,2,0,B|280:224|216:272|152:264,1,170
88,208,121328,1,8
124,124,121480,1,0
56,60,121633,1,0
124,124,121785,1,0
124,124,121861,1,0
124,124,121937,2,0,B|160:72|232:72,1,85,8|0
228,164,122242,6,0,B|312:160|368:216|372:272,1,170,4|10
272,264,122699,2,0,B|280:312|332:348|392:344|432:316,1,170
456,248,123156,1,8
412,168,123308,1,0
480,108,123460,1,0
392,76,123612,1,0
412,168,123765,1,8
480,108,123917,1,0
392,76,124069,2,0,B|344:48|288:60,1,85
304,152,124374,2,0,B|264:184|264:244,1,85,10|0
340,280,124678,5,4
204,152,124983,1,8
120,112,125135,2,0,B|72:140|76:200|88:240|140:260,1,170,4|0
220,244,125592,1,8
252,332,125744,1,4
416,244,126049,5,0
464,164,126201,1,8
372,160,126354,1,8
416,244,126506,5,8
420,84,126658,1,8
280,168,126810,1,8
416,244,126963,1,8
420,84,127115,1,4
96,72,127420,5,10
56,148,127572,1,0
140,144,127724,2,0,B|184:180|172:236,1,85
128,288,128029,1,8
192,344,128181,2,0,B|216:296|304:272|348:280,1,170
404,336,128638,1,8
320,188,128942,1,0
400,156,129095,1,0
412,72,129247,1,8
120,188,129552,5,0
200,156,129704,1,0
240,232,129856,2,0,B|256:284|332:284,2,85,8|0|0
200,156,130313,1,0
256,92,130465,1,8
340,72,130618,1,0
424,88,130770,2,0,B|464:120|456:180,1,85
372,160,131074,2,0,B|372:212|328:244,2,85,8|0|0
288,168,131531,1,0
236,236,131684,5,10
340,72,131836,1,0
256,92,131988,6,0,B|196:60|120:100|116:156,1,170,4|10
144,228,132445,2,0,B|76:296,2,85
144,228,132902,1,8
184,304,133054,1,4
340,240,133359,1,0
340,240,133511,1,8
368,160,133663,2,0,B|312:96,1,85
340,240,133968,2,0,B|392:268|452:212,2,85,0|8|0
280,180,134425,6,0,B|204:180|204:180|184:172|184:172|104:172,1,170,4|8
136,256,134882,1,0
136,256,135034,2,0,B|36:256,2,85,0|0|8
192,320,135491,1,4
352,260,135795,5,8
416,204,135947,1,8
352,260,136100,1,8
348,148,136252,1,8
352,260,136404,1,8
260,144,136557,1,8
352,260,136709,5,8
352,260,136785,1,8
352,260,136861,2,0,B|412:336,2,85,4|0|10
264,296,137318,1,0
204,224,137470,1,0
108,64,137775,1,8
48,136,137927,1,0
140,148,138079,2,0,B|216:108,1,85
288,48,138384,6,0,B|368:56|404:144|376:196,1,170,8|0
292,152,138841,1,0
292,152,138993,2,0,B|292:244,1,85,8|0
216,292,139298,2,0,B|244:336|324:336|364:312|372:284,2,170,0|8|0
120,132,140211,1,8
120,132,140364,2,0,B|40:184,1,85
212,148,140668,2,0,B|292:96,2,85,0|8|0
244,236,141125,2,0,B|248:288|360:296|380:252|380:228,2,170,0|8|4
152,248,141887,5,0
68,288,142039,2,0,B|88:344|164:344,1,85,10|0
152,248,142343,2,0,B|152:148,2,85,0|0|8
216,316,142800,2,0,B|296:328|360:288|376:240,1,170,4|0
328,172,143257,1,8
468,48,143562,1,0
328,172,143866,1,8
256,112,144019,1,0
168,136,144171,5,4
424,252,144628,1,4
152,320,145085,1,4
336,108,145541,1,4
68,192,145998,1,4
68,192,146303,1,4
412,80,146607,5,4
320,244,146912,1,10
268,168,147064,2,0,B|224:188|224:260,1,85
272,320,147369,1,0
180,332,147521,2,0,B|120:332|96:276,1,85,8|0
128,204,147826,2,0,B|96:152|120:80|184:60,2,170,0|8|0
268,76,148739,1,8
380,216,149044,6,0,B|328:208|272:240,1,85
352,304,149349,2,0,B|384:336|440:336,1,85,10|0
264,332,149653,2,0,B|232:276|156:252|104:264,1,170,0|8
56,192,150110,1,0
108,116,150262,2,0,B|40:40,2,85,0|0|8
200,124,150719,1,0
256,48,150871,1,0
340,88,151024,1,0
432,84,151176,2,0,B|432:148|376:172,1,85,8|0
428,248,151480,6,0,B|412:304|348:332|296:320|272:312,1,170,4|10
312,224,151937,2,0,B|140:224,2,170,0|0|4
168,104,152851,1,0
248,52,153003,1,8
168,104,153156,1,0
200,192,153308,2,0,B|288:192,1,85
312,100,153612,1,8
404,88,153765,1,0
384,180,153917,6,0,B|444:188|480:260|452:320,1,170,4|10
364,288,154374,1,0
280,332,154526,1,0
196,288,154678,2,0,B|120:324,2,85,0|8|4
36,192,155288,1,0
88,116,155440,1,8
180,104,155592,1,8
268,132,155744,2,8,B|284:84|248:36,2,85
200,196,156201,1,8
280,244,156354,6,0,B|344:228|356:172|356:136|320:92,1,170,4|10
256,164,156810,2,0,B|292:208|348:220|396:196|416:168,1,170
424,84,157267,1,8
340,48,157420,1,0
248,56,157572,2,0,B|192:60|168:112,1,85
96,140,157876,2,0,B|100:188|144:216,1,85,8|0
120,304,158181,2,0,B|176:316|224:260,2,85,0|0|8
432,324,158790,6,0,B|388:352|304:324|304:252,1,170,0|8
360,184,159247,1,0
324,96,159399,2,0,B|236:60,2,85,0|0|8
140,128,160008,2,0,B|52:92,2,85,0|0|8
196,204,160465,1,0
216,296,160618,1,0
288,236,160770,1,0
380,260,160922,2,0,B|380:316|448:336,2,85,10|0|4
256,56,161531,5,10
164,76,161684,1,0
116,156,161836,1,0
196,204,161988,2,0,B|256:204|268:272,1,85,0|8
220,332,162293,2,0,B|312:332|312:332|324:340|324:340|412:340,1,170,4|0
356,252,162750,2,0,B|448:252,1,85,8|0
472,164,163054,2,0,B|484:112|416:56|348:84,1,170,0|8
380,172,163511,1,4
288,152,163663,5,0
200,184,163816,1,0
152,104,163968,1,0
104,184,164120,2,0,B|140:268,1,85
216,312,164425,1,0
304,276,164577,1,0
368,344,164729,1,4
452,176,165034,1,4
400,96,165186,1,4
308,96,165338,6,0,B|304:152|344:200,1,85
236,196,165643,2,0,B|203:157|147:149,2,85
256,288,166100,1,4
56,104,174780,5,8
56,104,174856,1,8
56,104,174932,1,8
148,80,175085,1,8
236,112,175237,1,8
264,200,175389,1,8
332,264,175541,1,8
424,272,175694,1,8
400,184,175846,6,0,B|360:148|376:56|456:48,2,170,4|10|0
428,272,176607,2,0,B|476:344,2,85,0|8|0
380,260,176988,1,0
332,264,177064,2,0,B|268:292|208:240|136:276,1,170,0|8
116,188,177521,2,0,B|76:168|56:212|12:172,2,85
200,144,177978,1,8
368,56,178283,5,0
160,312,178587,1,10
220,240,178739,1,0
276,316,178892,2,0,B|324:280|384:352|472:304,1,170,0|8
476,228,179349,2,0,B|428:264|368:192|280:240,1,170
260,148,179805,1,8
260,148,179958,1,0
184,92,180110,1,0
184,92,180262,1,0
108,144,180414,1,10
80,232,180567,5,0
80,232,180643,1,0
80,232,180719,2,0,B|84:296|164:336|224:328,2,170,4|10|0
172,220,181480,1,0
256,260,181633,1,8
320,192,181785,1,4
320,192,181861,1,0
320,192,181937,2,0,B|368:236|360:288|336:340|288:344,2,170,0|8|0
204,44,182851,1,8
124,96,183003,1,4
208,136,183156,6,0,B|212:188|156:224,1,85
252,156,183460,2,0,B|272:216|244:276,1,85
300,156,183765,2,0,B|340:192|336:252,2,85
288,64,184222,2,0,B|340:48|400:92|412:124|420:168,1,170,4|0
468,228,184678,1,0
392,284,184831,1,0
448,356,184983,1,0
392,284,185135,1,0
312,332,185288,1,0
240,272,185440,1,0
148,296,185592,5,4
400,172,186049,1,4
152,40,186506,1,4
324,260,186963,1,4
56,336,187420,1,4
56,336,187724,1,4
300,80,188029,6,0,B|388:80,2,85,4|0|10
252,152,188486,2,0,B|188:160|168:252|216:288,1,170
280,232,188942,1,8
280,232,189095,1,0
324,304,189247,2,0,B|364:328|428:304,1,85
396,228,189552,2,0,B|444:192|432:136,1,85,8|0
360,116,189856,2,0,B|344:60|292:56,2,85,0|0|8
56,192,190465,5,0
204,276,190770,1,8
272,120,191074,1,0
272,120,191227,1,0
192,152,191379,2,0,B|164:112|192:44|236:32|276:32,2,170,8|0|8
132,224,192140,1,0
60,164,192293,1,0
96,80,192445,1,0
60,164,192597,1,10
460,148,192902,6,0,B|440:96|344:76|304:128,1,170,4|8
308,204,193359,1,0
224,216,193511,1,0
188,140,193663,2,0,B|136:160|132:236,1,85,0|8
252,76,193968,2,0,B|204:36|156:48|116:64|104:108,1,170,4|0
60,168,194425,1,8
68,252,194577,1,0
136,204,194729,1,0
144,288,194882,1,0
212,240,195034,1,8
220,324,195186,1,0
288,276,195338,6,0,B|352:276|376:340|464:336,1,170,4|10
432,244,195795,2,0,B|472:220|464:156,1,85
388,116,196100,1,0
300,152,196252,1,8
312,60,196404,2,0,B|256:44|208:88|200:120|204:160,1,170,4|0
260,232,196861,2,8,B|280:292|228:332,2,85
172,260,197318,1,8
92,216,197470,1,8
128,128,197623,1,8
64,60,197775,1,4
328,280,198079,5,10
344,188,198232,2,0,B|328:140|360:72|440:76,1,170
428,168,198689,2,0,B|428:236|428:236|436:260|436:260|436:344,2,170,8|0|8
256,92,199602,1,0
152,248,199907,1,8
152,248,200059,1,0
200,168,200211,6,0,B|256:192|256:268|236:312|200:328,1,170,0|8
152,248,200668,1,0
200,168,200821,2,0,B|148:120|172:56,1,85
256,92,201125,2,0,B|292:60|356:80,1,85,8|0
336,168,201430,2,0,B|388:196|384:272,1,85
292,252,201734,1,8
352,324,201887,1,0
260,336,202039,1,0
292,252,202191,1,0
352,324,202343,1,10
72,196,202648,6,0,B|40:140|92:76|160:88,1,170,4|10
448,72,203105,2,0,B|480:128|428:192|360:180,1,170
276,152,203562,1,8
208,216,203714,2,0,B|184:264|216:312,2,85,4|0|0
276,152,204171,2,0,B|320:80,1,85,8|0
308,172,204475,2,0,B|384:128,1,85,8|0
324,204,204780,2,0,B|416:204,1,85,8|0
324,244,205085,6,0,B|408:288,2,85,4|0|0
264,316,205541,1,0
184,268,205694,1,0
92,288,205846,1,0
116,200,205998,2,0,B|100:144|56:132,1,85,0|4
244,84,206455,2,0,B|280:56|328:64,2,85,4|4|0
288,168,206912,5,0
196,164,207064,1,0
288,168,207217,1,8
380,192,207369,1,0
444,124,207521,5,4
368,68,207673,1,0
260,52,207826,1,0
140,88,207978,1,0
64,204,208130,1,0
64,204,208283,2,0,B|88:252|160:256,1,85
204,192,208587,6,0,B|276:192|276:192|308:204|308:204|392:204,1,170
344,292,209044,2,0,B|432:292,2,85
308,108,209653,1,0
124,148,209958,5,0
72,224,210110,1,0
160,256,210262,2,0,B|192:288|184:336,1,85
212,180,210567,2,0,B|232:132|200:84,2,85
268,256,211024,2,0,B|328:280|408:244|404:180,1,170
312,172,211480,1,0
376,104,211633,1,0
304,44,211785,1,0
376,104,211937,1,0
304,44,212090,2,0,B|232:28|160:64|148:108,1,170,2|0
192,180,212546,5,0
112,228,212699,1,0
148,312,212851,1,0
148,312,213003,2,0,B|104:344|36:328,2,85
236,340,213460,2,0,B|264:284|328:256|400:264,1,170
392,356,213917,1,0
464,300,214069,1,0
448,208,214222,1,0
476,120,214374,2,0,B|488:68|444:40,2,85
384,124,214831,5,0
304,72,214983,1,0
268,156,215135,1,0
176,148,215288,1,0
188,240,215440,1,0
176,148,215592,1,0
268,156,215744,1,0
268,156,215897,2,0,B|312:192|308:288|268:324,1,170
184,332,216354,6,0,B|132:336|108:292,1,85
24,264,216658,1,0
88,196,216810,1,0
40,116,216963,1,0
116,60,217115,1,0
200,96,217267,6,0,B|264:40,2,85,4|0|0
280,148,217724,2,0,B|208:208,1,85
288,264,218029,1,0
236,340,218181,1,0
288,264,218333,2,0,B|340:300|432:276|432:212,1,170
372,152,218790,1,0
360,60,218942,1,0
448,96,219095,2,0,B|484:136|464:192,1,85
360,60,219399,2,0,B|300:60|276:124,2,85
272,188,219856,6,0,B|248:240|176:224,1,85
44,280,220161,2,0,B|63:231|135:231,1,85
164,308,220465,1,0
164,308,220618,1,0
164,308,220770,2,0,B|204:348|308:360|356:352,1,170
388,288,221227,1,0
404,140,221379,1,0
452,220,221531,2,0,B|492:248|480:312,2,85,0|0|2
156,84,222140,5,0
180,176,222293,1,0
248,112,222445,1,0
156,84,222597,1,0
88,152,222750,2,0,B|64:192|112:256,1,85
184,268,223054,1,0
264,220,223206,2,0,B|312:192|384:256|444:216,1,170
392,136,223663,1,0
460,72,223816,1,0
392,136,223968,2,0,B|352:88|376:36,2,85
84,328,224577,5,0
168,284,224729,1,0
260,304,224882,1,0
320,232,225034,1,0
260,160,225186,1,0
172,192,225338,2,0,B|136:164|64:176,1,85
140,92,225643,2,0,B|164:40|248:28|300:56,1,170
344,128,226100,2,0,B|428:188,2,85
364,316,226709,1,0
364,316,226861,1,0
364,316,227013,1,4
44,192,229450,5,4
256,48,229907,1,4
468,192,230364,1,4
256,336,230821,1,4
44,192,231277,1,4
212,192,231582,5,4
300,192,231734,1,4
