osu file format v14

[General]
AudioFilename: Drop-Ryuu to Sakura Miko.mp3
AudioLeadIn: 3000
PreviewTime: 10292
Countdown: 0
SampleSet: Normal
StackLeniency: 0.7
Mode: 0
LetterboxInBreaks: 1
WidescreenStoryboard: 1

[Editor]
DistanceSpacing: 0.8
BeatDivisor: 4
GridSize: 8
TimelineZoom: 2.6

[Metadata]
Title:Ryuu to Sakura Miko
TitleUnicode:龍と桜巫女
Artist:Hatsuki Yura
ArtistUnicode:葉月ゆら
Creator:Beren
Version:Extra
Source:宵闇恋想奇譚
Tags:drop vivicat blove grasscarp cmn_891127 tukamoto7km BakaHuang Clivery Regraz
BeatmapID:486123
BeatmapSetID:206075

[Difficulty]
HPDrainRate:6
CircleSize:4.3
OverallDifficulty:8.5
ApproachRate:9.3
SliderMultiplier:1.8
SliderTickRate:1

[Events]
//Background and Video events
0,0,"bg.jpg",0,0
//Break Periods
//Storyboard Layer 0 (Background)
//Storyboard Layer 1 (Fail)
//Storyboard Layer 2 (Pass)
//Storyboard Layer 3 (Foreground)
//Storyboard Sound Samples

[TimingPoints]
63,304.568527918782,4,1,1,50,1,0
215,-117.647058823529,4,1,1,50,0,0
2194,-200,4,1,1,50,0,0
2803,-117.647058823529,4,1,1,50,0,0
4631,-200,4,1,1,50,0,0
5240,-117.647058823529,4,1,1,50,0,0
7067,-200,4,1,1,50,0,0
7676,-117.647058823529,4,1,1,50,0,0
9199,-100,4,2,1,80,0,0
19859,-66.6666666666667,4,2,1,80,0,0
20164,-100,4,2,1,80,0,0
29910,-200,4,1,2,50,0,0
30976,-200,4,2,1,10,0,0
31128,-200,4,1,2,50,0,0
33412,-200,4,2,1,10,0,0
33564,-200,4,1,2,50,0,0
34022,-133.333333333333,4,2,1,80,0,0
34478,-117.647058823529,4,2,1,80,0,0
39656,-200,4,1,2,50,0,0
40722,-200,4,2,1,10,0,0
40874,-200,4,1,2,50,0,0
43158,-200,4,2,1,10,0,0
43311,-200,4,1,2,50,0,0
43768,-133.333333333333,4,2,1,80,0,0
44225,-117.647058823529,4,2,1,80,0,0
49250,-100,4,2,1,80,0,0
49403,-100,4,2,1,80,0,0
57473,-66.6666666666667,4,2,1,80,0,0
57854,-100,4,2,1,80,0,0
66610,-80,4,2,1,80,0,0
67067,-66.6666666666667,4,2,1,80,0,0
67524,-57.1428571428571,4,2,1,80,0,0
67981,-50,4,2,1,80,0,0
68590,-100,4,2,1,80,0,0
76966,-100,4,2,2,80,0,0
78337,-100,4,2,1,80,0,0
87778,-200,4,2,1,80,0,0
88083,-200,4,2,1,20,0,0

[Colours]
Combo1 : 210,111,175
Combo2 : 114,185,79
Combo3 : 182,39,39
Combo4 : 220,188,80

[HitObjects]
40,288,215,5,0,0:0:0:0:
96,216,367,2,0,L|176:224,1,76.5000014591217,12|0,0:0|0:0,0:0:0:0:
224,40,824,1,0,0:0:0:0:
280,112,976,2,0,L|360:104,1,76.5000014591217,8|0,0:0|0:0,0:0:0:0:
268,208,1433,6,0,P|252:284|296:340,1,153.000002918243,0|0,0:0|0:0,0:0:0:0:
392,288,1890,2,0,P|424:272|468:276,1,76.5000014591217,0|0,0:0|0:0,0:0:0:0:
472,288,2194,6,0,P|428:284|388:304,1,90,8|0,0:0|0:0,0:0:0:0:
388,303,2651,1,0,0:0:0:0:
296,340,2804,6,0,P|264:356|220:352,1,76.5000014591217,12|0,0:0|0:0,0:0:0:0:
44,324,3260,1,0,0:0:0:0:
100,252,3413,2,0,P|127:278|133:315,1,76.5000014591217,8|0,0:0|0:0,0:0:0:0:
8,236,3870,6,0,P|32:168|120:160,1,153.000002918243,8|0,0:0|0:0,0:0:0:0:
184,104,4326,2,0,L|228:36,1,76.5000014591217,0|0,0:0|0:0,0:0:0:0:
240,40,4631,6,0,L|182:128,1,90,8|0,0:0|0:0,0:0:0:0:
190,115,5088,1,0,0:0:0:0:
294,207,5240,5,12,0:0:0:0:
368,92,5392,1,0,0:0:0:0:
368,92,5697,1,0,0:0:0:0:
496,176,5849,1,8,0:0:0:0:
422,291,6002,1,0,0:0:0:0:
422,291,6306,6,0,P|348:292|300:352,1,153.000002918243,0|0,0:0|0:0,0:0:0:0:
208,344,6763,2,0,L|128:332,1,76.5000014591217,0|0,0:0|0:0,0:0:0:0:
308,312,7068,6,0,P|340:280|384:276,1,90,8|0,0:0|0:0,0:0:0:0:
382,275,7524,1,0,0:0:0:0:
208,344,7677,5,4,0:0:0:0:
116,344,7829,1,0,0:0:0:0:
208,344,8134,1,0,0:0:0:0:
164,264,8286,1,8,0:0:0:0:
120,184,8438,1,0,0:0:0:0:
120,184,8743,1,8,0:0:0:0:
256,264,9047,1,0,0:0:0:0:
256,264,9123,1,0,0:0:0:0:
256,264,9200,5,0,0:0:0:0:
72,264,9352,1,2,0:0:0:0:
208,184,9504,1,0,0:0:0:0:
116,344,9656,1,2,0:0:0:0:
120,184,9809,1,2,0:0:0:0:
208,344,9961,1,2,0:0:0:0:
256,264,10113,6,0,L|344:248,1,90,12|0,0:0|0:0,0:0:0:0:
512,144,10418,2,0,L|424:128,1,90,2|0,0:0|0:0,0:0:0:0:
320,104,10722,1,8,0:0:0:0:
428,84,10875,1,0,0:0:0:0:
232,40,11027,5,2,0:0:0:0:
124,20,11179,2,0,P|28:32|-16:96,1,180,8|0,0:0|0:0,0:0:0:0:
32,200,11560,1,0,0:0:0:0:
32,228,11636,2,0,B|32:256|32:256|40:288|40:288|40:320,1,90,2|0,0:0|0:0,0:0:0:0:
92,128,11941,1,8,0:0:0:0:
232,40,12093,1,0,0:0:0:0:
200,144,12245,6,0,B|260:160|296:128|296:128|292:164|248:192,1,180,2|12,0:0|0:0,0:0:0:0:
148,228,12702,1,0,0:0:0:0:
260,199,12854,2,0,P|294:170|308:128,1,90,2|0,0:0|0:0,0:0:0:0:
232,40,13159,1,8,0:0:0:0:
224,292,13311,2,0,P|268:299|309:283,1,90,0|2,0:0|0:0,0:0:0:0:
420,48,13616,6,0,B|411:95|411:95|422:174|422:174|412:229,1,180,8|0,0:0|0:0,0:0:0:0:
512,340,13997,1,0,0:0:0:0:
488,328,14073,2,0,P|444:321|403:337,1,90,2|0,0:0|0:0,0:0:0:0:
304,352,14377,1,8,0:0:0:0:
260,200,14530,1,0,0:0:0:0:
224,292,14682,6,0,B|144:312|92:236|92:236|120:236,1,180,2|12,0:0|0:0,0:0:0:0:
260,200,15139,1,0,0:0:0:0:
148,224,15291,2,0,L|48:224,1,90,2|0,0:0|0:0,0:0:0:0:
180,212,15595,1,8,0:0:0:0:
292,188,15748,2,0,L|392:188,1,90,0|2,0:0|0:0,0:0:0:0:
208,124,16052,6,0,B|168:56|192:4|228:4|244:44|236:72|216:88,1,180,8|2,0:0|0:0,0:0:0:0:
84,140,16433,1,0,0:0:0:0:
72,116,16509,2,0,P|60:72|72:28,1,90,0|0,0:0|0:0,0:0:0:0:
180,212,16814,1,8,0:0:0:0:
68,336,16966,1,0,0:0:0:0:
168,312,17118,6,0,B|256:352|256:272|344:312,1,180,2|12,0:0|0:0,0:0:0:0:
420,228,17575,1,8,0:0:0:0:
456,328,17727,1,2,0:0:0:0:
456,128,17880,1,12,0:0:0:0:
420,228,18032,1,8,0:0:0:0:
420,28,18184,1,2,0:0:0:0:
456,128,18337,5,12,0:0:0:0:
420,228,18489,2,0,B|376:216|356:172|356:172|324:212|352:260,1,180,8|14,0:0|0:0,0:0:0:0:
456,328,18870,1,0,0:0:0:0:
428,332,18946,2,0,L|320:348,1,90,8|2,0:0|0:0,0:0:0:0:
84,300,19250,2,0,L|173:313,1,90,14|10,0:0|0:0,0:0:0:0:
256,228,19555,1,14,0:0:0:0:
264,192,19631,1,0,0:0:0:0:
256,156,19707,1,0,0:0:0:0:
244,120,19783,1,0,0:0:0:0:
256,84,19859,6,0,B|216:56|216:56|256:76|300:56,1,135.000005149842,12|0,0:0|0:0,0:0:0:0:
301,42,20164,6,0,P|257:54|213:42,1,90,2|0,0:0|0:0,0:0:0:0:
112,12,20469,1,8,0:0:0:0:
408,68,20621,2,0,P|440:96|448:148,1,90,0|2,0:0|0:0,0:0:0:0:
484,256,20925,6,0,B|540:238|542:318|490:298|464:260|472:232|436:228|404:216,1,180,8|0,0:0|0:0,0:0:0:0:
268,248,21306,1,0,0:0:0:0:
248,276,21382,2,0,P|232:316|236:368,1,90,2|0,0:0|0:0,0:0:0:0:
368,340,21687,1,8,0:0:0:0:
328,160,21839,1,0,0:0:0:0:
248,276,21991,6,0,B|154:283|154:283|80:232,1,180,2|12,0:0|0:0,0:0:0:0:
192,152,22448,1,0,0:0:0:0:
84,234,22601,2,0,L|114:318,1,90,2|0,0:0|0:0,0:0:0:0:
4,354,22905,1,8,0:0:0:0:
112,272,23057,2,0,L|82:188,1,90,0|2,0:0|0:0,0:0:0:0:
0,56,23362,6,0,B|84:17|84:97|172:57,1,180,8|0,0:0|0:0,0:0:0:0:
372,72,23743,1,0,0:0:0:0:
344,76,23819,2,0,L|252:92,1,90,2|0,0:0|0:0,0:0:0:0:
248,4,24123,1,8,0:0:0:0:
476,104,24276,1,0,0:0:0:0:
396,172,24428,6,0,B|460:232|528:192|528:192|520:212|496:220,1,180,2|12,0:0|0:0,0:0:0:0:
328,300,24885,1,0,0:0:0:0:
296,196,25037,2,0,P|288:148|312:112,1,90,2|0,0:0|0:0,0:0:0:0:
171,161,25342,1,8,0:0:0:0:
232,72,25494,2,0,P|263:35|306:30,1,90,0|2,0:0|0:0,0:0:0:0:
171,161,25799,6,0,B|124:124|128:76|128:76|92:96|96:148,1,180,12|0,0:0|0:0,0:0:0:0:
44,332,26179,1,0,0:0:0:0:
40,304,26255,2,0,L|24:212,1,90,2|0,0:0|0:0,0:0:0:0:
4,108,26560,1,8,0:0:0:0:
128,256,26712,1,0,0:0:0:0:
171,161,26865,6,0,B|220:160|220:160|292:200|292:200|344:200,1,180,2|12,0:0|0:0,0:0:0:0:
392,96,27321,1,8,0:0:0:0:
500,95,27474,1,2,0:0:0:0:
340,199,27626,1,12,0:0:0:0:
285,104,27778,1,8,0:0:0:0:
445,192,27931,1,2,0:0:0:0:
391,287,28083,1,12,0:0:0:0:
312,364,28235,6,0,B|276:332|284:276|284:276|240:308|252:356,1,180,8|14,0:0|0:0,0:0:0:0:
140,344,28616,1,0,0:0:0:0:
112,348,28692,2,0,L|8:356,1,90,10|0,0:0|0:0,0:0:0:0:
84,140,28997,2,0,L|188:148,1,90,6|10,0:0|0:0,0:0:0:0:
391,287,29301,6,0,L|319:295,1,45,14|0,0:0|0:0,0:0:0:0:
280,232,29453,2,0,L|235:227,1,45,10|0,0:0|0:0,0:0:0:0:
144,248,29606,2,0,P|104:264|48:256,1,90,4|0,0:0|0:0,0:0:0:0:
84,140,29910,6,0,L|64:92,1,45,8|0,0:0|0:0,0:0:0:0:
208,24,30215,2,0,L|190:65,1,45,2|0,0:0|0:0,0:0:0:0:
192,180,30519,5,8,0:0:0:0:
191,180,30672,2,0,P|231:160|274:168,1,90,8|0,0:0|0:0,0:0:0:0:
384,136,31128,2,0,L|428:116,1,45,8|0,0:0|0:0,0:0:0:0:
392,324,31433,6,0,P|360:292|360:248,1,90,2|8,0:0|0:0,0:0:0:0:
351,61,31890,1,8,0:0:0:0:
351,61,32042,2,0,P|382:92|384:136,1,90,2|8,0:0|0:0,0:0:0:0:
456,212,32499,2,0,L|512:212,1,45,0|2,0:0|0:0,0:0:0:0:
392,324,32956,5,8,0:0:0:0:
392,324,33108,2,0,L|296:324,1,90,8|0,0:0|0:0,0:0:0:0:
48,240,33565,2,0,L|100:240,1,45,8|0,0:0|0:0,0:0:0:0:
208,240,33870,1,2,0:0:0:0:
176,64,34022,5,0,0:0:0:0:
176,64,34098,1,0,0:0:0:0:
176,64,34174,2,0,P|164:84|188:68,1,67.5000025749208,12|8,0:0|0:0,0:0:0:0:
320,24,34479,6,0,P|356:16|396:28,1,76.5000014591217,6|0,0:0|0:0,0:0:0:0:
472,128,34783,1,8,0:0:0:0:
380,216,34936,2,0,B|352:184|348:148|348:148|316:176|328:220,1,153.000002918243,0|0,0:0|0:0,0:0:0:0:
392,332,35392,5,8,0:0:0:0:
316,216,35545,2,0,P|316:176|336:144,1,76.5000014591217,8|2,0:0|0:0,0:0:0:0:
472,128,35849,1,0,0:0:0:0:
320,24,36002,2,0,L|240:36,1,76.5000014591217,8|0,0:0|0:0,0:0:0:0:
96,132,36306,6,0,B|72:140|64:120|68:104|88:96|100:104|112:128|140:132|164:124|188:116,1,153.000002918243,2|8,0:0|0:0,0:0:0:0:
320,24,36763,1,0,0:0:0:0:
216,88,36915,2,0,P|136:108|72:76,1,153.000002918243,2|12,0:0|0:0,0:0:0:0:
40,248,37372,2,0,L|24:324,1,76.5000014591217,0|2,0:0|0:0,0:0:0:0:
96,132,37677,1,0,0:0:0:0:
164,236,37829,5,8,0:0:0:0:
216,88,37981,2,0,B|292:48|292:112|368:88,1,153.000002918243,12|0,0:0|0:0,0:0:0:0:
448,8,38438,1,8,0:0:0:0:
260,184,38590,1,0,0:0:0:0:
364,89,38743,2,0,L|380:165,1,76.5000014591217,12|0,0:0|0:0,0:0:0:0:
468,320,39047,6,0,L|456:375,1,38.2500007295609,12|0,0:0|0:0,0:0:0:0:
360,296,39200,2,0,L|351:258,1,38.2500007295609,0|0,0:0|0:0,0:0:0:0:
260,184,39352,2,0,P|220:188|192:224,1,76.5000014591217,6|0,0:0|0:0,0:0:0:0:
160,340,39656,6,0,L|112:336,1,45,8|0,0:0|0:0,0:0:0:0:
8,236,39961,2,0,L|56:232,1,45,2|0,0:0|0:0,0:0:0:0:
196,212,40266,5,8,0:0:0:0:
196,212,40418,2,0,L|168:120,1,90,8|0,0:0|0:0,0:0:0:0:
68,40,40875,2,0,L|55:83,1,45,8|0,0:0|0:0,0:0:0:0:
224,28,41179,6,0,P|268:8|320:20,1,90,2|8,0:0|0:0,0:0:0:0:
420,176,41636,1,8,0:0:0:0:
420,176,41788,2,0,P|380:147|365:96,1,90,2|8,0:0|0:0,0:0:0:0:
476,24,42245,2,0,L|464:68,1,45,0|2,0:0|0:0,0:0:0:0:
420,176,42702,5,8,0:0:0:0:
420,176,42854,2,0,L|392:276,1,90,10|0,0:0|0:0,0:0:0:0:
492,380,43311,2,0,L|480:336,1,45,8|0,0:0|0:0,0:0:0:0:
420,176,43616,1,2,0:0:0:0:
228,80,43768,5,0,0:0:0:0:
228,80,43844,1,0,0:0:0:0:
228,80,43920,2,0,B|196:72|196:72|164:84,1,67.5000025749208,12|8,0:0|0:0,0:0:0:0:
28,136,44225,6,0,L|6:62,1,76.5000014591217,6|0,0:0|0:0,0:0:0:0:
164,84,44530,1,8,0:0:0:0:
136,224,44682,2,0,B|147:274|152:312|120:324|96:312|96:268|124:252,1,153.000002918243,0|0,0:0|0:0,0:0:0:0:
164,84,45139,5,8,0:0:0:0:
152,232,45291,2,0,P|160:272|144:312,1,76.5000014591217,8|2,0:0|0:0,0:0:0:0:
40,368,45595,1,0,0:0:0:0:
272,328,45748,2,0,L|352:316,1,76.5000014591217,8|0,0:0|0:0,0:0:0:0:
504,240,46052,6,0,P|524:296|464:268,1,153.000002918243,2|8,0:0|0:0,0:0:0:0:
456,88,46509,2,0,L|440:136,1,38.2500007295609
404,208,46661,2,0,B|365:208|365:208|289:188|289:188|253:188,1,153.000002918243,2|12,0:0|0:0,0:0:0:0:
48,304,47118,2,0,L|128:304,1,76.5000014591217,0|2,0:0|0:0,0:0:0:0:
248,304,47423,1,0,0:0:0:0:
128,188,47575,5,8,0:0:0:0:
0,36,47727,2,0,B|-20:60|0:104|0:104|-8:64|24:28,1,153.000002918243,8|0,0:0|0:0,0:0:0:0:
176,24,48184,1,12,0:0:0:0:
128,188,48337,1,0,0:0:0:0:
73,118,48489,2,0,P|72:81|96:52,1,76.5000014591217,12|0,0:0|0:0,0:0:0:0:
320,40,48793,6,0,L|276:52,1,38.2500007295609,12|0,0:0|0:0,0:0:0:0:
188,120,48946,2,0,L|232:132,1,38.2500007295609,0|0,0:0|0:0,0:0:0:0:
296,208,49098,2,0,P|297:245|273:274,1,76.5000014591217,4|0,0:0|0:0,0:0:0:0:
184,336,49403,1,8,0:0:0:0:
80,320,49555,1,0,0:0:0:0:
272,274,49707,6,0,B|360:242|360:306|448:274,1,180,2|8,0:0|0:0,0:0:0:0:
512,80,50164,1,8,0:0:0:0:
408,96,50316,2,0,P|360:136|440:152,1,180,2|8,0:0|0:0,0:0:0:0:
320,40,50773,1,0,0:0:0:0:
192,80,50925,2,0,L|96:64,1,90,2|0,0:0|0:0,0:0:0:0:
288,24,51230,6,0,L|384:8,1,90,8|0,0:0|0:0,0:0:0:0:
160,64,51535,2,0,B|128:152|192:152|160:240,1,180,2|8,0:0|0:0,0:0:0:0:
104,328,51991,1,0,0:0:0:0:
148,236,52144,2,0,P|156:189|144:141,1,90,2|0,0:0|0:0,0:0:0:0:
64,88,52448,5,8,0:0:0:0:
48,240,52601,1,8,0:0:0:0:
208,320,52753,2,0,B|256:320|288:304|288:304|288:320|288:320|320:304|368:304,1,180,2|8,0:0|0:0,0:0:0:0:
488,240,53210,1,0,0:0:0:0:
400,296,53362,2,0,P|384:336|400:384,1,90,2|0,0:0|0:0,0:0:0:0:
488,336,53667,5,12,0:0:0:0:
320,248,53819,2,0,L|384:208,1,45,8|0,0:0|0:0,0:0:0:0:
480,144,53971,2,0,P|496:104|480:56,1,90,6|0,0:0|0:0,0:0:0:0:
240,24,54276,1,8,0:0:0:0:
400,200,54428,1,0,0:0:0:0:
400,24,54580,2,0,P|357:30|323:67,1,90,2|0,0:0|0:0,0:0:0:0:
483,60,54885,5,8,0:0:0:0:
280,152,55037,2,0,P|262:205|341:309,1,180,12|0,0:0|0:0,0:0:0:0:
456,312,55494,1,8,0:0:0:0:
400,200,55646,1,0,0:0:0:0:
240,272,55799,6,0,B|192:278|157:248|157:248|112:265|68:240,1,180,2|8,0:0|0:0,0:0:0:0:
8,144,56255,1,8,0:0:0:0:
120,128,56408,2,0,B|159:93|162:46|162:46|192:64|183:125,1,180,6|8,0:0|0:0,0:0:0:0:
69,241,56865,1,0,0:0:0:0:
215,141,57017,2,0,L|319:125,1,90,2|0,0:0|0:0,0:0:0:0:
8,144,57321,1,8,0:0:0:0:
288,48,57474,6,0,B|320:24|320:24|352:48|352:48|384:24|384:24|416:48|416:48|480:24|528:56,1,270.000010299683,12|0,0:0|0:0,0:0:0:0:
464,152,57854,6,0,L|440:200,1,45,0|8,0:0|0:0,0:0:0:0:
480,296,58083,1,0,0:0:0:0:
240,296,58235,1,12,0:0:0:0:
360,344,58387,1,0,0:0:0:0:
120,344,58540,6,0,L|104:288,1,45,12|0,0:0|0:0,0:0:0:0:
0,296,58692,2,0,L|12:252,1,45
8,144,58844,1,6,0:0:0:0:
136,248,58997,1,0,0:0:0:0:
16,360,59149,1,8,0:0:0:0:
8,144,59301,1,0,0:0:0:0:
96,88,59453,6,0,B|177:41|188:104|269:57,1,180,2|8,0:0|0:0,0:0:0:0:
416,16,59910,1,8,0:0:0:0:
344,136,60063,2,0,B|320:176|272:176|272:176|312:208|368:176,1,180,2|8,0:0|0:0,0:0:0:0:
472,128,60519,1,0,0:0:0:0:
184,208,60672,2,0,P|176:160|200:120,1,90,2|0,0:0|0:0,0:0:0:0:
256,296,60976,6,0,L|240:384,1,90,8|0,0:0|0:0,0:0:0:0:
376,288,61281,2,0,B|429:211|367:194|421:117,1,180,2|8,0:0|0:0,0:0:0:0:
488,32,61738,1,0,0:0:0:0:
432,124,61890,2,0,P|412:167|411:216,1,90,2|0,0:0|0:0,0:0:0:0:
480,280,62194,5,8,0:0:0:0:
384,32,62347,1,8,0:0:0:0:
288,136,62499,2,0,B|240:184|160:160|160:160|176:184|208:184,1,180,0|8,0:0|0:0,0:0:0:0:
328,232,62956,1,0,0:0:0:0:
64,104,63108,2,0,P|32:72|16:24,1,90,2|0,0:0|0:0,0:0:0:0:
236,56,63413,5,12,0:0:0:0:
52,199,63565,2,0,L|124:207,1,45,8|0,0:0|0:0,0:0:0:0:
208,296,63717,2,0,L|304:304,1,90,6|0,0:0|0:0,0:0:0:0:
140,48,64022,1,8,0:0:0:0:
104,276,64174,1,0,0:0:0:0:
288,236,64326,2,0,L|377:228,1,90,2|0,0:0|0:0,0:0:0:0:
296,136,64631,5,8,0:0:0:0:
400,328,64783,2,0,P|472:280|472:192,1,180,12|0,0:0|0:0,0:0:0:0:
384,104,65240,1,8,0:0:0:0:
377,227,65392,1,0,0:0:0:0:
448,112,65545,2,0,B|424:64|448:16|448:16|408:32|392:80,1,180,2|12,0:0|0:0,0:0:0:0:
377,227,66002,1,8,0:0:0:0:
384,104,66154,6,0,B|328:104|328:104|264:120|264:120|200:120,1,180,12|2,0:0|0:0,0:0:0:0:
120,40,66611,6,0,P|184:88|88:88,1,225,12|2,0:0|0:0,0:0:0:0:
24,32,67068,6,0,B|-40:160|88:160|24:288,1,270.000010299683,12|2,0:0|0:0,0:0:0:0:
72,376,67524,6,0,B|136:328|136:224|136:224|176:320|136:368,1,315.000003004074,12|2,0:0|0:0,0:0:0:0:
240,352,67981,6,0,L|440:336,1,180,12|2,0:0|0:0,0:0:0:0:
376,244,68286,6,0,P|425:315|512:312,1,180,12|2,0:0|0:0,0:0:0:0:
432,144,68590,6,0,L|336:152,1,90,6|0,0:0|0:0,0:0:0:0:
259,59,68895,2,0,L|169:51,1,90,8|0,0:0|0:0,0:0:0:0:
24,176,69200,2,0,P|72:224|80:144,1,180,2|8,0:0|0:0,0:0:0:0:
56,40,69656,5,8,0:0:0:0:
80,264,69809,2,0,P|72:304|96:344,1,90,2|0,0:0|0:0,0:0:0:0:
264,360,70113,2,0,P|272:320|248:280,1,90,8|0,0:0|0:0,0:0:0:0:
184,160,70418,2,0,L|280:168,1,90,2|0,0:0|0:0,0:0:0:0:
400,176,70722,5,8,0:0:0:0:
168,248,70875,1,0,0:0:0:0:
360,272,71027,2,0,L|449:264,1,90,2|0,0:0|0:0,0:0:0:0:
480,72,71332,2,0,L|391:82,1,90,8|0,0:0|0:0,0:0:0:0:
208,48,71636,6,0,B|158:16|135:92|191:87|226:57|225:27|261:33|295:30,1,180,2|8,0:0|0:0,0:0:0:0:
296,136,72093,1,8,0:0:0:0:
80,120,72245,2,0,P|60:72|76:24,1,90,2|0,0:0|0:0,0:0:0:0:
184,160,72550,2,0,P|204:208|188:256,1,90,8|0,0:0|0:0,0:0:0:0:
24,312,72854,2,0,L|113:322,1,90,2|0,0:0|0:0,0:0:0:0:
208,344,73159,5,12,0:0:0:0:
96,216,73311,1,8,0:0:0:0:
296,288,73464,2,0,L|385:298,1,90,2|2,0:0|0:0,0:0:0:0:
452,165,73768,1,8,0:0:0:0:
296,288,73920,1,0,0:0:0:0:
480,360,74073,1,2,0:0:0:0:
346,191,74225,1,2,0:0:0:0:
373,362,74377,5,8,0:0:0:0:
512,256,74530,2,0,B|511:207|474:176|474:176|482:131|453:92,1,180,12|2,0:0|0:0,0:0:0:0:
264,56,74910,1,0,0:0:0:0:
292,53,74986,2,0,L|388:45,1,90,8|0,0:0|0:0,0:0:0:0:
512,32,75291,1,2,0:0:0:0:
452,165,75443,1,2,0:0:0:0:
264,56,75595,5,12,0:0:0:0:
381,45,75748,1,8,0:0:0:0:
224,192,75900,2,0,P|176:200|128:184,1,90,6|0,0:0|0:0,0:0:0:0:
16,80,76128,1,0,0:0:0:0:
40,64,76205,2,0,P|88:56|136:72,1,90,8|0,0:0|0:0,0:0:0:0:
264,56,76509,1,2,0:0:0:0:
224,192,76661,1,2,0:0:0:0:
80,160,76814,5,8,0:0:0:0:
88,304,76966,1,12,0:0:0:0:
91,326,77042,1,0,0:0:0:0:
107,343,77118,1,0,0:0:0:0:
130,351,77194,1,0,0:0:0:0:
162,347,77271,1,0,0:0:0:0:
186,331,77347,1,0,0:0:0:0:
196,299,77423,5,12,0:0:0:0:
219,273,77499,1,0,0:0:0:0:
256,256,77575,1,0,0:0:0:0:
299,262,77651,1,0,0:0:0:0:
332,283,77727,1,12,0:0:0:0:
355,335,77804,5,0,0:0:0:0:
409,357,77880,1,0,0:0:0:0:
466,341,77956,1,0,0:0:0:0:
506,295,78032,1,12,0:0:0:0:
502,238,78108,1,0,0:0:0:0:
457,199,78184,1,0,0:0:0:0:
352,80,78337,6,0,L|448:64,1,90,6|0,0:0|0:0,0:0:0:0:
256,40,78641,2,0,P|246:87|274:136,1,90,8|0,0:0|0:0,0:0:0:0:
416,176,78946,2,0,B|322:168|339:230|245:222,1,180,2|8,0:0|0:0,0:0:0:0:
48,144,79403,5,8,0:0:0:0:
144,176,79555,2,0,P|160:217|149:260,1,90,2|0,0:0|0:0,0:0:0:0:
48,144,79859,2,0,L|40:54,1,90,8|0,0:0|0:0,0:0:0:0:
72,224,80164,2,0,L|64:313,1,90,2|0,0:0|0:0,0:0:0:0:
0,368,80469,5,8,0:0:0:0:
120,96,80622,1,0,0:0:0:0:
192,344,80773,2,0,P|232:368|272:360,1,90,2|0,0:0|0:0,0:0:0:0:
480,248,81078,2,0,P|440:224|400:232,1,90,8|0,0:0|0:0,0:0:0:0:
248,280,81382,6,0,B|296:280|296:280|376:312|376:312|432:312,1,180,2|8,0:0|0:0,0:0:0:0:
504,328,81839,1,8,0:0:0:0:
399,232,81991,2,0,L|384:128,1,90,2|0,0:0|0:0,0:0:0:0:
288,32,82296,2,0,P|280:80|304:120,1,90,8|0,0:0|0:0,0:0:0:0:
464,88,82601,2,0,P|472:40|448:0,1,90,2|0,0:0|0:0,0:0:0:0:
376,64,82906,5,12,0:0:0:0:
312,200,83058,1,8,0:0:0:0:
192,72,83210,2,0,L|96:56,1,90,2|2,0:0|0:0,0:0:0:0:
16,32,83515,1,8,0:0:0:0:
288,32,83667,1,0,0:0:0:0:
80,144,83819,1,2,0:0:0:0:
224,144,83971,1,2,0:0:0:0:
152,248,84123,5,8,0:0:0:0:
64,280,84276,2,0,P|104:336|208:328,1,180,12|0,0:0|0:0,0:0:0:0:
272,240,84657,1,0,0:0:0:0:
303,245,84733,2,0,L|407:261,1,90,8|0,0:0|0:0,0:0:0:0:
488,280,85037,1,2,0:0:0:0:
304,336,85190,1,2,0:0:0:0:
464,192,85342,6,0,P|488:152|480:112,1,90,12|8,0:0|0:0,0:0:0:0:
338,27,85646,2,0,P|374:53|384:96,1,90,12|0,0:0|0:0,0:0:0:0:
264,104,85875,1,0,0:0:0:0:
256,72,85951,2,0,P|216:48|176:56,1,90,12|2,0:0|0:0,0:0:0:0:
80,192,86255,2,0,P|105:155|148:146,1,90,12|0,0:0|0:0,0:0:0:0:
256,192,86561,5,2,0:0:0:0:
303,335,86712,2,0,P|295:260|367:284,1,180,12|12,0:0|0:0,0:0:0:0:
392,376,87169,1,12,0:0:0:0:
512,304,87321,1,0,0:0:0:0:
367,284,87474,1,2,0:0:0:0:
440,248,87626,1,0,0:0:0:0:
368,192,87778,6,0,B|328:96,1,90,2|12,0:0|0:0,0:0:0:0:
