osu file format v13

[General]
AudioFilename: Nemereru Mori no Shojo.mp3
AudioLeadIn: 0
PreviewTime: 58538
Countdown: 1
SampleSet: Soft
StackLeniency: 0.7
Mode: 0
LetterboxInBreaks: 1
WidescreenStoryboard: 1

[Editor]
Bookmarks: 76073
DistanceSpacing: 1.5
BeatDivisor: 2
GridSize: 8
TimelineZoom: 5.799997

[Metadata]
Title:Nemureru Mori no Shojo
TitleUnicode:眠れる森の少女
Artist:Hatsuki Yura
ArtistUnicode:葉月ゆら
Creator:Kotone
Version:Insane
Source:Saimin Enbu
Tags:Drop SeifuuMeigetsu [Mahua]
BeatmapID:440194
BeatmapSetID:183770

[Difficulty]
HPDrainRate:7
CircleSize:4
OverallDifficulty:7
ApproachRate:9
SliderMultiplier:1.8
SliderTickRate:1

[Events]
//Background and Video events
0,0,"wlp_kaguya_1280x720.jpg",0,0
//Break Periods
//Storyboard Layer 0 (Background)
//Storyboard Layer 1 (Fail)
//Storyboard Layer 2 (Pass)
//Storyboard Layer 3 (Foreground)
//Storyboard Sound Samples
//Background Colour Transformations
3,100,163,162,255

[TimingPoints]
1002,512.820512820513,4,2,1,70,1,0
1002,-133.333333333333,4,2,1,70,0,0
7130,517.241379310345,4,2,1,70,1,0
7130,-133.333333333333,4,2,1,70,0,0
9226,612.244897959184,4,2,1,70,1,0
10868,722.89156626506,4,2,1,70,1,0
12033,750,4,2,1,70,1,0
13538,422.535211267606,4,2,1,70,1,0
28749,-66.6666666666667,4,2,1,70,0,0
30439,-100,4,2,2,70,0,0
58538,-66.6666666666667,4,2,2,70,0,0
59171,-100,4,2,2,70,0,1
69735,-66.6666666666667,4,2,2,70,0,1
71002,-100,4,2,2,70,0,1
72587,-100,4,2,2,70,0,0
72692,-100,4,2,2,70,0,1
87904,-142.857142857143,4,2,1,70,0,0
89594,-133.333333333333,4,2,2,5,0,0

[HitObjects]
292,206,1002,5,0,0:0:0:0:
464,188,1514,1,0,0:0:0:0:
279,194,2027,1,2,0:0:0:0:
279,194,2284,1,0,0:0:0:0:
198,186,2540,1,0,0:0:0:0:
198,186,2796,1,0,0:0:0:0:
117,178,3053,2,0,P|95:233|126:313,1,135.000005149842,0|0,0:0|0:0,0:0:0:0:
394,205,4078,2,0,P|417:151|386:71,1,135.000005149842,2|0,0:0|0:0,0:0:0:0:
319,52,4848,5,0,0:0:0:0:
319,52,4976,1,0,0:0:0:0:
319,52,5104,2,0,L|245:65,1,67.5000025749208,0|0,0:0|0:0,0:0:0:0:
178,96,5617,1,0,0:0:0:0:
181,176,5873,1,0,0:0:0:0:
254,211,6130,1,0,0:0:0:0:
326,175,6386,1,0,0:0:0:0:
384,231,6643,1,0,0:0:0:0:
346,302,6899,1,0,0:0:0:0:
267,292,7130,6,0,L|193:305,1,67.5000025749208,2|0,0:0|0:0,0:0:0:0:
136,254,7647,1,0,0:0:0:0:
136,254,7905,1,0,0:0:0:0:
128,268,8423,1,0,0:0:0:0:
61,219,8681,1,2,0:0:0:0:
62,92,9226,5,0,0:0:0:0:
181,55,9532,1,0,0:0:0:0:
254,158,9838,1,0,0:0:0:0:
178,260,10144,1,2,0:0:0:0:
70,65,10868,1,0,0:0:0:0:
215,45,11229,1,0,0:0:0:0:
278,179,11590,1,0,0:0:0:0:
171,280,12033,1,2,0:0:0:0:
171,280,15122,6,0,L|141:289,1,22.5,0|0,1:0|0:0,0:0:0:0:
207,349,15228,5,0,1:0:0:0:
229,350,15333,1,0,0:0:0:0:
251,351,15439,1,0,0:0:0:0:
325,318,15545,1,0,1:0:0:0:
347,317,15650,1,0,0:0:0:0:
369,316,15756,1,0,0:0:0:0:
437,274,15861,1,0,1:0:0:0:
459,275,15967,1,0,0:0:0:0:
481,276,16073,6,0,L|518:263,5,22.5,0|0|0|0|0|0,1:0|0:0|0:0|0:0|0:0|0:0,0:0:0:0:
469,188,16390,2,0,L|506:175,5,22.5,0|0|0|0|0|0,1:0|0:0|0:0|0:0|0:0|0:0,0:0:0:0:
455,101,16707,2,0,L|492:88,3,22.5,0|0|0|0,1:0|0:0|0:0|0:0,0:0:0:0:
390,158,16918,6,0,P|349:173|308:158,1,90
259,91,17235,1,0,0:0:0:0:
238,98,17340,1,8,0:0:0:0:
216,105,17446,2,0,L|124:93,1,90,0|0,0:0|0:0,0:0:0:0:
51,126,17763,1,0,0:0:0:0:
51,126,17868,2,0,P|36:168|45:217,1,90
156,362,18185,1,8,0:0:0:0:
156,362,18291,2,0,L|106:370,2,45,0|0|0,0:0|0:0|0:0,0:0:0:0:
323,331,18608,5,0,0:0:0:0:
323,331,18714,2,0,P|288:338|252:335,1,45
151,276,18925,1,0,0:0:0:0:
151,276,19031,2,0,P|186:283|222:280,1,45,8|0,0:0|0:0,0:0:0:0:
371,202,19242,1,0,0:0:0:0:
371,202,19348,2,0,P|336:209|300:206,1,45
186,146,19559,1,0,0:0:0:0:
186,146,19665,2,0,P|221:153|257:150,1,45
302,106,19876,1,8,0:0:0:0:
302,106,19981,1,0,0:0:0:0:
302,106,20087,2,0,L|314:13,1,90
477,149,20509,5,0,0:0:0:0:
454,262,20721,1,8,0:0:0:0:
454,262,20826,2,0,P|450:327|466:364,1,90
364,338,21143,1,0,0:0:0:0:
364,338,21249,2,0,L|248:350,1,90
196,323,21566,1,8,0:0:0:0:
174,328,21671,1,0,0:0:0:0:
152,333,21777,1,0,0:0:0:0:
130,338,21883,1,0,0:0:0:0:
108,342,21988,6,0,L|41:338,2,45,0|0|0,0:0|0:0|0:0,0:0:0:0:
48,234,22305,2,0,L|-19:230,2,45,0|8|0,0:0|0:0|0:0,0:0:0:0:
182,169,22622,2,0,L|115:165,2,45,0|0|0,0:0|0:0|0:0,0:0:0:0:
80,84,22939,2,0,L|13:80,2,45,0|0|0,0:0|0:0|0:0,0:0:0:0:
202,29,23256,1,8,0:0:0:0:
255,31,23361,1,0,0:0:0:0:
301,58,23467,1,8,0:0:0:0:
320,108,23573,1,0,0:0:0:0:
316,161,23678,1,4,0:0:0:0:
243,275,23890,5,0,0:0:0:0:
243,275,23995,1,0,0:0:0:0:
243,275,24101,1,8,0:0:0:0:
243,275,24207,2,0,P|284:299|331:298,1,90
417,261,24523,1,0,0:0:0:0:
417,261,24629,2,0,L|404:156,1,90
474,87,24946,1,8,0:0:0:0:
474,87,25052,2,0,L|506:125,2,45,0|8|0,0:0|0:0|0:0,0:0:0:0:
410,37,25368,5,0,0:0:0:0:
410,37,25474,2,0,P|366:26|326:42,1,90
242,103,25791,2,0,P|200:119|157:108,1,90,8|0,0:0|0:0,0:0:0:0:
72,50,26108,2,0,L|56:144,1,90
25,237,26425,2,0,L|33:315,1,45
149,350,26636,1,8,0:0:0:0:
149,350,26742,2,0,L|157:272,1,45,0|0,0:0|0:0,0:0:0:0:
174,104,27059,5,4,0:0:0:0:
142,126,27164,2,0,L|116:118,2,22.5,0|0|0,0:0|0:0|0:0,0:0:0:0:
136,166,27376,1,0,0:0:0:0:
145,205,27481,1,0,0:0:0:0:
170,236,27587,1,0,0:0:0:0:
207,254,27692,1,0,0:0:0:0:
246,253,27798,1,0,0:0:0:0:
282,236,27904,5,4,0:0:0:0:
313,215,28009,1,0,0:0:0:0:
354,202,28115,1,0,0:0:0:0:
397,202,28220,1,0,0:0:0:0:
438,215,28326,1,0,0:0:0:0:
473,241,28432,1,0,0:0:0:0:
497,276,28537,1,0,0:0:0:0:
509,318,28643,1,0,0:0:0:0:
487,349,28749,6,0,L|338:345,1,135.000005149842
282,236,29066,2,0,P|260:164|292:117,1,135.000005149842
439,66,29383,2,0,L|461:205,1,135.000005149842
355,326,29699,2,0,P|299:354|221:333,1,135.000005149842
172,286,30016,1,0,0:0:0:0:
20,341,30228,1,0,0:0:0:0:
20,341,30333,1,0,0:0:0:0:
20,341,30439,6,0,P|4:295|6:254,1,90,4|0,0:0|0:0,0:0:0:0:
74,170,30861,1,8,0:0:0:0:
59,62,31073,1,0,0:0:0:0:
59,62,31178,2,0,L|149:74,1,90
175,78,31495,1,0,0:0:0:0:
275,119,31707,1,8,0:0:0:0:
374,77,31918,5,0,0:0:0:0:
374,77,32023,1,0,0:0:0:0:
374,77,32129,2,0,P|429:88|496:8,1,135
492,20,32552,2,0,L|474:131,1,90,8|0,0:0|0:0,0:0:0:0:
384,325,32974,1,0,0:0:0:0:
384,325,33080,2,0,L|366:210,1,90,8|0,0:0|0:0,0:0:0:0:
363,195,33397,1,8,0:0:0:0:
494,245,33608,1,0,0:0:0:0:
370,337,33819,6,0,P|306:353|252:318,1,135
242,307,34242,1,8,0:0:0:0:
134,276,34453,1,0,0:0:0:0:
321,158,34664,2,0,P|332:208|323:245,1,90,0|0,0:0|0:0,0:0:0:0:
134,276,35087,1,8,0:0:0:0:
321,158,35298,1,0,0:0:0:0:
132,262,35509,6,0,L|110:150,1,90,0|0,0:0|0:0,0:0:0:0:
139,96,35826,1,0,0:0:0:0:
139,96,35932,2,0,P|187:78|232:93,1,90,8|0,0:0|0:0,0:0:0:0:
330,40,36354,1,0,0:0:0:0:
423,111,36566,1,0,0:0:0:0:
423,111,36671,1,0,0:0:0:0:
423,111,36777,2,0,P|445:71|442:27,1,90,8|0,0:0|0:0,0:0:0:0:
334,191,37199,5,4,0:0:0:0:
254,277,37411,2,0,P|242:319|254:362,1,90,0|8,0:0|0:0,0:0:0:0:
445,227,37833,1,0,0:0:0:0:
445,227,37939,1,0,0:0:0:0:
445,227,38045,1,0,0:0:0:0:
423,111,38256,1,0,0:0:0:0:
334,191,38467,1,8,0:0:0:0:
476,200,38678,5,0,0:0:0:0:
476,200,38784,1,0,0:0:0:0:
476,200,38890,2,0,P|476:149|458:108,1,90,0|0,0:0|0:0,0:0:0:0:
373,44,39207,2,0,L|335:68,1,45,0|8,0:0|0:0,0:0:0:0:
211,152,39523,1,0,0:0:0:0:
382,302,39735,2,0,P|408:250|392:157,1,135,0|0,0:0|0:0,0:0:0:0:
241,251,40157,2,0,P|289:256|327:223,1,90,8|0,0:0|0:0,0:0:0:0:
141,225,40580,6,0,L|-3:242,1,135
132,128,41002,2,0,L|230:134,1,90,8|0,0:0|0:0,0:0:0:0:
427,58,41425,1,0,0:0:0:0:
427,58,41530,1,8,0:0:0:0:
427,58,41636,1,0,0:0:0:0:
427,58,41742,1,0,0:0:0:0:
427,58,41847,2,0,L|327:73,1,90,8|0,0:0|0:0,0:0:0:0:
262,133,42129,6,0,L|253:179,2,30,0|0|0,0:0|0:0|0:0,0:0:0:0:
246,41,42411,1,0,0:0:0:0:
176,101,42552,2,0,P|145:107|109:105,1,60
1,151,42833,1,0,0:0:0:0:
71,211,42974,2,0,P|101:217|138:215,1,60
83,318,43221,5,0,0:0:0:0:
83,318,43326,2,0,L|50:325,3,22.5,0|0|0|0,0:0|0:0|0:0|0:0,0:0:0:0:
168,352,43538,2,0,L|227:361,1,45
301,346,43749,1,0,0:0:0:0:
301,346,43854,1,0,0:0:0:0:
301,346,43960,6,0,P|346:348|381:323,1,90
390,302,44277,1,0,0:0:0:0:
392,279,44383,1,8,0:0:0:0:
330,185,44594,1,0,0:0:0:0:
476,349,44805,2,0,P|505:299|501:212,1,135
493,203,45228,5,8,0:0:0:0:
286,268,45439,1,0,0:0:0:0:
286,268,45545,1,0,0:0:0:0:
286,268,45650,2,0,L|144:279,1,135
100,343,46073,2,0,P|54:346|10:351,1,90,8|0,0:0|0:0,0:0:0:0:
314,349,46495,2,0,L|453:353,1,135
505,293,46918,2,0,P|511:248|507:204,1,90,8|0,0:0|0:0,0:0:0:0:
373,61,47340,6,0,P|367:106|371:150,1,90
259,185,47763,1,8,0:0:0:0:
259,185,47974,2,0,P|220:233|111:196,1,180
245,86,48608,1,8,0:0:0:0:
197,262,48819,1,0,0:0:0:0:
369,217,49030,5,0,0:0:0:0:
369,217,49136,1,0,0:0:0:0:
369,217,49242,1,0,0:0:0:0:
369,217,49347,1,0,0:0:0:0:
369,217,49453,2,0,L|434:236,1,45,8|0,0:0|0:0,0:0:0:0:
482,304,49664,2,0,L|417:323,1,45
453,149,49876,6,0,L|518:168,1,45
342,307,50087,2,0,L|277:326,1,45
195,353,50298,1,8,0:0:0:0:
195,353,50404,1,0,0:0:0:0:
195,353,50509,1,8,0:0:0:0:
195,353,50615,1,0,0:0:0:0:
195,353,50721,6,0,L|84:343,1,90,4|0,0:0|0:0,0:0:0:0:
78,340,51038,1,0,0:0:0:0:
51,336,51143,1,8,0:0:0:0:
12,235,51354,1,0,0:0:0:0:
81,66,51566,2,0,P|85:111|86:156,1,90
186,256,51988,2,0,L|280:241,1,90
349,277,52305,1,0,0:0:0:0:
349,277,52411,6,0,P|386:284|446:278,1,90,4|0,0:0|0:0,0:0:0:0:
301,49,52833,2,0,L|310:164,1,90,8|0,0:0|0:0,0:0:0:0:
275,251,53256,1,0,0:0:0:0:
385,291,53467,2,0,P|442:292|487:259,1,90,0|8,0:0|0:0,0:0:0:0:
410,108,53890,1,0,0:0:0:0:
410,108,53995,1,0,0:0:0:0:
410,108,54101,6,0,P|401:160|413:203,1,90,4|0,0:0|0:0,0:0:0:0:
367,301,54418,2,0,L|295:320,1,45,0|8,0:0|0:0,0:0:0:0:
489,349,54735,1,0,0:0:0:0:
475,215,54946,1,0,0:0:0:0:
353,308,55157,5,0,0:0:0:0:
253,349,55368,1,8,0:0:0:0:
181,267,55580,1,0,0:0:0:0:
234,172,55791,5,0,0:0:0:0:
279,177,55896,1,0,0:0:0:0:
319,159,56002,1,0,0:0:0:0:
345,123,56107,1,0,0:0:0:0:
349,79,56213,1,0,0:0:0:0:
330,39,56319,1,0,0:0:0:0:
293,14,56424,1,0,0:0:0:0:
249,10,56530,1,0,0:0:0:0:
209,30,56636,6,0,L|145:43,1,45,0|0,0:0|0:0,0:0:0:0:
46,86,56847,2,0,L|110:98,1,45,0|0,0:0|0:0,0:0:0:0:
212,148,57059,2,0,L|147:160,1,45,0|0,0:0|0:0,0:0:0:0:
48,203,57270,2,0,L|112:215,1,45,0|0,0:0|0:0,0:0:0:0:
141,287,57481,5,4,0:0:0:0:
445,354,57798,1,4,0:0:0:0:
302,279,58115,1,0,0:0:0:0:
432,189,58326,1,0,0:0:0:0:
464,339,58538,6,0,L|511:351,2,45.0000017166138,0|0|0,0:0|0:0|0:0,0:0:0:0:
392,276,58749,2,0,B|415:236|411:175|376:153|376:153|398:179|434:189,1,202.500007724762
395,52,59171,6,0,P|350:47|288:87,1,90
164,135,59594,2,0,L|117:22,1,90
129,51,59911,1,0,0:0:0:0:
129,51,60016,1,0,0:0:0:0:
74,214,60228,1,0,0:0:0:0:
282,129,60439,6,0,L|258:233,1,90
322,270,60756,1,0,0:0:0:0:
322,270,60861,2,0,P|363:290|416:275,1,90
494,187,61284,1,0,0:0:0:0:
381,27,61495,1,0,0:0:0:0:
385,67,61601,1,0,0:0:0:0:
388,107,61707,2,0,L|370:235,1,90
463,374,62129,2,0,L|445:246,1,90,0|0,0:0|0:0,0:0:0:0:
246,234,62552,5,0,0:0:0:0:
289,342,62763,1,0,0:0:0:0:
366,254,62974,1,0,0:0:0:0:
246,234,63185,1,0,0:0:0:0:
246,234,63291,1,0,0:0:0:0:
246,234,63397,1,0,0:0:0:0:
412,355,63608,1,0,0:0:0:0:
432,152,63819,6,0,L|450:37,1,90,0|0,0:0|0:0,0:0:0:0:
394,341,64242,2,0,L|358:189,1,135
344,121,64664,2,0,P|298:112|248:124,1,90
211,126,64981,5,0,0:0:0:0:
166,132,65087,1,0,0:0:0:0:
121,139,65192,1,0,0:0:0:0:
76,146,65298,1,0,0:0:0:0:
491,17,65509,1,0,0:0:0:0:
428,23,65615,1,0,0:0:0:0:
365,29,65721,1,0,0:0:0:0:
302,36,65826,1,0,0:0:0:0:
239,44,65932,6,0,P|181:55|135:32,1,90
363,18,66354,1,0,0:0:0:0:
321,134,66566,1,0,0:0:0:0:
321,134,66671,1,0,0:0:0:0:
321,134,66777,2,0,P|327:183|334:245,1,90
204,349,67199,1,0,0:0:0:0:
165,172,67411,1,0,0:0:0:0:
451,314,67622,6,0,P|402:320|340:327,1,90,0|0,0:0|0:0,0:0:0:0:
490,219,68045,1,0,0:0:0:0:
258,290,68256,1,0,0:0:0:0:
303,162,68467,2,0,P|352:168|414:175,1,90,0|0,0:0|0:0,0:0:0:0:
475,108,68784,5,0,0:0:0:0:
475,108,68890,1,0,0:0:0:0:
475,108,68995,1,0,0:0:0:0:
475,108,69101,2,0,L|471:40,1,45
400,12,69312,2,0,P|361:32|309:29,1,90
52,50,69735,6,0,P|94:98|166:95,1,135.000005149842
317,31,70157,1,0,0:0:0:0:
274,141,70368,1,0,0:0:0:0:
477,178,70580,6,0,P|435:225|363:222,1,135.000005149842
197,165,71002,5,0,0:0:0:0:
224,200,71108,2,0,L|259:185,2,22.5,0|0|0,0:0|0:0|0:0,0:0:0:0:
243,241,71319,1,0,0:0:0:0:
248,285,71425,1,0,0:0:0:0:
231,326,71530,1,0,0:0:0:0:
197,355,71636,1,0,0:0:0:0:
154,365,71742,1,0,0:0:0:0:
111,354,71847,1,0,0:0:0:0:
78,324,71953,1,0,0:0:0:0:
57,284,72059,6,0,L|48:228,1,45
132,133,72270,2,0,L|140:178,1,45
24,115,72481,2,0,L|15:59,1,45
118,14,72692,6,0,L|224:28,1,90
372,137,73115,2,0,P|387:94|379:48,1,90
380,50,73432,1,0,0:0:0:0:
380,50,73538,1,0,0:0:0:0:
251,197,73749,1,0,0:0:0:0:
367,276,73960,1,0,0:0:0:0:
276,87,74171,1,0,0:0:0:0:
276,87,74277,1,0,0:0:0:0:
276,87,74383,6,0,L|165:98,1,90
251,197,74805,1,0,0:0:0:0:
29,166,75016,1,0,0:0:0:0:
29,166,75122,1,0,0:0:0:0:
29,166,75228,2,0,L|175:178,1,135
251,197,75650,2,0,P|259:240|257:285,1,90
176,348,75967,1,0,0:0:0:0:
176,348,76073,6,0,L|77:358,1,90
289,375,76495,1,0,0:0:0:0:
117,253,76707,1,0,0:0:0:0:
117,253,76812,1,0,0:0:0:0:
117,253,76918,2,0,P|105:201|116:154,1,90
297,23,77340,2,0,L|322:115,1,90
339,271,77763,5,0,0:0:0:0:
469,175,77974,1,0,0:0:0:0:
320,109,78185,1,0,0:0:0:0:
452,336,78397,1,0,0:0:0:0:
452,336,78502,1,0,0:0:0:0:
452,336,78608,6,0,L|440:276,1,45,0|0,0:0|0:0,0:0:0:0:
392,141,78819,2,0,L|388:185,1,45
473,20,79030,1,0,0:0:0:0:
423,25,79136,1,0,0:0:0:0:
373,31,79242,1,0,0:0:0:0:
324,37,79347,1,0,0:0:0:0:
274,43,79453,6,0,P|227:47|190:21,1,90
19,161,79876,1,0,0:0:0:0:
63,23,80087,1,0,0:0:0:0:
63,23,80192,2,0,L|88:96,1,45
99,236,80509,1,0,0:0:0:0:
19,161,80721,1,0,0:0:0:0:
17,322,80932,1,0,0:0:0:0:
238,356,81143,6,0,L|346:340,1,90
444,312,81566,1,0,0:0:0:0:
444,312,81777,1,0,0:0:0:0:
379,61,81988,6,0,L|364:163,1,90
324,232,82305,1,0,0:0:0:0:
324,232,82411,1,0,0:0:0:0:
324,232,82516,1,0,0:0:0:0:
324,232,82622,2,0,L|272:251,1,45
201,344,82833,6,0,P|188:288|204:244,1,90
126,55,83256,2,0,L|94:201,1,135
97,186,83678,1,0,0:0:0:0:
326,215,83995,1,0,0:0:0:0:
326,215,84101,2,0,L|286:120,1,90
416,24,84523,6,0,P|436:96|401:169,1,135
242,97,84946,2,0,L|332:93,1,90
450,307,85368,2,0,L|360:302,1,90
72,188,85791,2,0,L|161:183,1,90,0|0,0:0|0:0,0:0:0:0:
239,21,86214,5,0,0:0:0:0:
283,14,86319,1,0,0:0:0:0:
325,28,86425,1,0,0:0:0:0:
356,60,86530,1,0,0:0:0:0:
370,102,86636,1,0,0:0:0:0:
363,146,86742,1,0,0:0:0:0:
337,182,86847,1,0,0:0:0:0:
298,203,86953,1,0,0:0:0:0:
256,221,87059,6,0,L|227:234,3,22.5,0|0|0|0,0:0|0:0|0:0|0:0,0:0:0:0:
271,187,87270,1,0,0:0:0:0:
312,156,87375,1,0,0:0:0:0:
361,144,87481,1,0,0:0:0:0:
412,148,87586,1,0,0:0:0:0:
457,170,87692,1,0,0:0:0:0:
494,206,87798,1,0,0:0:0:0:
510,250,87904,6,0,B|542:318|519:381|466:410|397:408|351:388|323:343|322:282|344:240|375:228|414:229|414:229|435:297,1,503.999984619141
