osu file format v9

[General]
AudioFilename: Nanka Ii Koto.mp3
AudioLeadIn: 2000
PreviewTime: 43620
Countdown: 0
SampleSet: Soft
StackLeniency: 0.7
Mode: 0
LetterboxInBreaks: 1

[Editor]
Bookmarks: 18717
DistanceSpacing: 1
BeatDivisor: 4
GridSize: 32

[Metadata]
Title:Nanka Ii Koto
Artist:Hatsuki Yura
Creator:karenying
Version:Insane
Source:Ganbare! Memekochan
Tags:jojo La pucelle Seifuumeigetsu Seifuu meigetsu drop

[Difficulty]
HPDrainRate:7
CircleSize:4
OverallDifficulty:7
ApproachRate:8
SliderMultiplier:1.6
SliderTickRate:2

[Events]
//Background and Video events
0,0,"732105.jpg"
//Break Periods
//Storyboard Layer 0 (Background)
//Storyboard Layer 1 (Fail)
//Storyboard Layer 2 (Pass)
//Storyboard Layer 3 (Foreground)
//Storyboard Sound Samples
//Background Colour Transformations
3,100,163,162,255

[TimingPoints]
537,384.615384615385,4,2,1,70,1,0
6113,-100,4,1,1,40,0,0
6402,-100,4,2,1,70,0,0
17652,-100,4,2,1,35,0,0
17748,-100,4,2,1,70,0,0
18037,-100,4,2,1,35,0,0
18133,-100,4,2,1,70,0,0
18421,-100,4,2,1,35,0,0
18517,-100,4,2,1,70,0,0
18806,-100,4,1,1,52,0,0
18998,-100,4,2,1,70,0,0
29383,-100,4,1,1,50,0,0
29671,-100,4,2,1,70,0,0
30537,-100,4,1,1,50,0,0
30825,-100,4,2,1,70,0,0
31113,-100,4,1,1,50,0,0
31306,-100,4,2,1,70,0,0
37075,-100,4,1,1,50,0,0
37363,-100,4,2,1,70,0,0
38613,-100,4,2,2,60,0,0
38806,-100,4,2,2,70,0,0
39190,-100,4,1,1,50,0,0
39287,-100,4,1,1,30,0,0
39575,-100,4,2,1,50,0,0
39863,-100,4,2,1,70,0,0
40344,-100,4,1,1,50,0,0
40537,-100,4,2,1,70,0,0
42844,-100,4,1,1,40,0,0
43133,-100,4,2,1,70,0,0
43613,-100,4,2,1,70,0,1
49575,-100,4,1,1,50,0,1
49767,-100,4,2,1,70,0,1
55537,-100,4,1,1,42,0,1
55825,-100,4,2,1,70,0,0
55921,-100,4,2,1,70,0,1
61883,-100,4,1,1,50,0,1
62075,-100,4,2,1,70,0,1
64767,-100,4,1,1,40,0,1
65056,-100,4,2,1,70,0,1
66498,-200,4,2,1,70,0,0
66883,-200,4,1,1,40,0,0
67075,-200,4,1,1,30,0,0
67267,-200,4,2,1,50,0,0
67460,-100,4,2,1,5,0,0
67844,-100,4,2,1,50,0,0
74383,-100,4,2,1,5,0,0

[Colours]
Combo1 : 238,142,0
Combo2 : 128,255,128
Combo3 : 240,90,79
Combo4 : 0,108,217

[HitObjects]
212,79,537,5,2
330,230,921,2,0,B|353:192|399:206,1,80,2|0
421,128,1306,2,0,B|465:132|493:171|494:226|463:256,1,160,2|2
393,283,1883,1,2
330,230,2075,5,2
293,116,2267,1,0
176,146,2460,1,2
207,261,2652,1,2
207,261,3037,5,2
140,305,3229,2,0,B|106:332|61:325,1,80,2|2
176,146,3613,2,0,B|203:69,2,80,2|0|2
207,261,4190,2,0,B|371:262,2,160,2|2|2
202,70,5344,6,0,B|176:146,1,80,2|0
232,291,5729,2,0,B|302:300|354:260|367:215,1,160,2|0
364,222,6210,1,0
364,222,6306,1,0
405,154,6498,1,2
215,148,6690,6,0,B|168:154|132:116,1,80,4|2
123,46,7075,1,8
200,69,7267,1,2
215,148,7460,2,0,B|204:236|101:250,2,160,0|8|2
215,148,8421,5,2
285,109,8613,2,0,B|347:114|382:153,1,80,8|2
417,77,8998,2,0,B|378:145|430:230,1,160,2|8
476,293,9575,1,0
399,303,9767,6,0,B|344:361,2,80,2|0|8
429,228,10344,1,0
359,145,10537,2,0,B|308:106|308:106|256:97|220:136,1,160,2|8
283,185,11113,1,0
144,229,11306,6,0,B|120:264|76:270,1,80,2|0
38,74,11690,2,0,B|79:84|98:122,1,80,8|0
290,100,12075,2,0,B|260:131|249:98|220:133,2,80,2|2|8
348,44,12652,1,0
241,251,12844,6,0,B|165:300|89:256,1,160,2|8
89,256,13421,1,0
109,121,13613,2,0,B|64:100|14:130,1,80,2|0
241,252,13998,2,0,B|286:273|336:243,1,80,8|0
378,306,14383,5,2
378,306,14575,2,0,B|424:224,1,80,2|8
370,170,14960,1,0
370,170,15152,2,0,B|455:130,2,80,2|0|8
301,128,15729,1,0
157,54,15921,6,0,B|146:129|146:129|122:168|75:168,1,160,2|8
22,107,16498,1,0
204,269,16690,2,0,B|226:111,1,160,2|8
226,111,17267,1,0
382,121,17460,6,0,B|469:134,1,80,4|0
283,258,17844,2,0,B|196:271,1,80,8|0
50,132,18229,2,0,B|130:121,1,80,4|0
228,45,18613,5,8
300,92,18806,1,0
300,92,18902,1,0
300,92,18998,2,0,B|335:77|363:41,2,80,4|2|8
251,175,19575,2,0,B|162:165|97:218,1,160,0|2
43,307,20152,1,8
147,336,20344,2,0,B|236:346|301:293,1,160,2|0
328,221,20921,6,0,B|406:226,1,80,8|0
487,147,21306,2,0,B|409:142,1,80,2|0
320,59,21690,2,0,B|398:64,1,80,8|0
320,59,22075,5,2
242,78,22267,1,0
190,139,22460,2,0,B|153:160|111:158,1,80,8|0
55,103,22844,1,2
30,179,23037,2,0,B|9:276,2,80,0|8|0
55,103,23613,6,0,B|65:43|133:17|186:49,1,160,0|8
179,45,24190,1,0
186,125,24383,2,0,B|218:159|273:153,1,80,2|0
418,91,24767,2,0,B|386:57|331:63,1,80,8|0
258,153,25152,5,2
217,265,25344,1,0
297,264,25537,5,8
140,293,25729,1,2
258,153,25921,2,0,B|221:140|174:155,1,80,2|0
39,212,26306,2,0,B|76:225|123:210,1,80,8|0
330,96,26690,6,0,B|352:15,2,80,2|0|8
406,119,27267,2,0,B|361:274,1,160,0|2
361,272,27844,1,8
427,318,28037,1,0
290,226,28229,6,0,B|257:206|213:208,1,80,2|0
157,279,28613,1,8
178,135,28806,2,0,B|124:70|31:89,1,160,0|0
81,186,29383,1,0
93,201,29479,1,0
106,217,29575,2,0,B|157:279,1,80,0|4
349,298,29960,5,0
386,170,30152,1,8
268,281,30344,1,0
405,244,30537,2,0,B|442:255,2,40
322,219,30921,1,8
279,92,31113,5,0
279,92,31210,1,0
279,92,31306,2,0,B|242:51|160:48|128:96,1,160,6|8
134,87,31883,1,0
233,292,32075,2,0,B|270:333|352:336|384:288,1,160,2|8
377,296,32652,1,0
382,216,32844,2,0,B|419:186|473:185,2,80,2|2|8
377,296,33421,2,0,B|352:336|270:333|233:292,1,160,2|0
184,230,33998,5,8
263,218,34190,1,0
177,353,34383,2,0,B|94:353|31:296,1,160,2|8
67,224,34960,1,0
26,154,35152,2,0,B|18:110|38:74,2,80,2|0|8
67,224,35729,1,0
127,171,35921,6,0,B|199:121|199:121|235:140|228:181,1,160,2|8
254,56,36498,2,0,B|328:84|329:188|298:218,1,160,2|0
248,264,37075,1,0
253,283,37171,1,0
262,300,37267,2,0,B|296:336|346:327,1,80,0|4
441,186,37844,6,0,B|402:208|407:252,1,80,8|0
489,252,38229,1,2
472,111,38421,2,0,B|444:96|368:104|341:176,1,160,0|0
142,241,38998,5,4
344,281,39190,1,0
206,152,39383,1,0
220,298,39575,2,0,B|196:332|152:334,1,80,4|0
77,304,39960,1,8
55,220,40152,1,8
142,241,40344,5,0
142,241,40440,1,0
142,241,40537,2,0,B|179:220|216:213,1,80,4|0
342,38,40921,2,0,B|321:75|314:112,1,80,8|0
404,246,41306,2,0,B|426:284|433:321,1,80,8|0
433,321,41690,1,8
318,211,41883,2,0,B|332:161|376:145|422:156,1,120,4|0
410,153,42267,2,0,B|450:134|468:96,1,80,8|8
409,42,42652,5,0
225,128,42844,1,0
225,128,42940,1,0
225,128,43036,1,0
409,153,43229,1,8
287,29,43421,1,8
317,210,43613,6,0,B|305:267|321:305,2,80,4|2|8
324,113,44190,1,2
134,146,44383,2,0,B|90:148|68:104,1,80,2|2
148,53,44767,1,8
192,216,44960,2,0,B|107:255|44:197,1,160,2|2
148,53,45536,1,8
293,219,45729,2,0,B|295:257|260:291,1,80,2|0
173,327,46113,5,2
98,266,46306,1,8
66,175,46498,2,0,B|63:108|98:69,1,80,2|0
279,96,46883,5,2
249,188,47075,1,8
176,251,47267,2,0,B|114:277|65:259,1,80,2|0
249,188,47652,5,2
342,165,47844,1,8
432,196,48036,2,0,B|488:279|441:359,1,160,2|2
351,341,48613,5,8
198,268,48806,1,2
342,165,48998,2,0,B|363:104|416:87|471:111,1,160,2|8
201,123,49575,5,0
201,123,49671,1,0
201,123,49767,2,0,B|160:103|138:57,2,80,4|2|8
198,267,50344,1,2
342,165,50536,2,0,B|387:146|428:151,1,80,0|2
501,201,50921,1,8
275,288,51113,5,2
275,288,51210,1,0
275,288,51306,2,0,B|196:267,1,80,2|2
105,240,51690,1,8
248,195,51883,2,0,B|404:233,1,160,2|2
275,288,52460,1,8
160,149,52652,1,0
160,149,52748,1,0
160,149,52844,6,0,B|153:107|182:74,1,80,4|0
35,191,53229,1,8
35,191,53421,1,0
182,75,53613,1,8
182,75,53806,1,0
136,236,53998,1,8
181,348,54190,6,0,B|217:307|215:268,1,80,4|0
317,145,54575,2,0,B|326:198|357:221,1,80,8|8
132,139,54960,2,0,B|86:108|48:115,1,80,4|0
248,28,55344,2,0,B|277:56|331:51,1,80,8|0
334,52,55633,1,0
345,49,55729,1,0
485,152,55921,6,0,B|474:104|449:81,2,80,4|2|8
418,278,56498,1,2
268,136,56690,2,0,B|222:125|199:161,1,80,2|0
251,253,57075,1,8
133,114,57267,2,0,B|158:64|221:44|271:55,1,160,2|2
251,253,57844,1,8
133,114,58036,2,0,B|128:67|154:36,1,80,2|0
384,41,58421,1,2
301,90,58613,2,0,B|242:107|198:81,1,80,8|2
47,65,58998,6,0,B|12:92|11:136,1,80,2|2
24,283,59383,1,8
24,283,59576,1,2
77,203,59767,1,2
77,203,59960,1,2
105,332,60152,1,8
105,332,60344,2,0,B|204:327|231:231,1,160,2|2
252,151,60921,5,8
418,97,61113,1,2
342,252,61306,2,0,B|284:276|227:245,1,120,2|0
196,221,61690,1,8
72,76,61883,5,0
72,76,61979,1,0
72,76,62075,2,0,B|36:124|36:157,1,80,4|0
116,254,62460,2,0,B|100:297|61:319,1,80,8|2
67,315,62844,1,0
131,166,63036,2,0,B|169:140|226:154,1,80,2|8
291,196,63421,1,2
353,268,63613,5,4
482,134,63806,1,10
328,92,63998,1,8
449,292,64190,2,0,B|430:344|372:372|319:355,1,160,4|2
206,237,64767,1,0
201,224,64863,1,0
197,212,64960,2,0,B|182:177|183:132,1,80,0|4
231,50,65344,5,2
370,196,65536,1,8
190,133,65729,1,2
330,34,65921,1,8
269,208,66113,1,2
393,109,66306,1,8
460,172,66498,6,0,B|468:211|454:253,1,80,4|0
364,320,67075,1,0
269,208,67267,2,0,B|261:169|275:127,1,80,4|0
70,70,68036,6,0,B|42:53,4,20,0|0|0|0|2
128,261,68613,6,0,B|114:217|74:207,1,80,2|0
49,283,68998,2,0,B|77:328|77:328|130:359|180:328,1,160,2|2
215,257,69575,1,0
321,115,69767,5,2
451,301,69960,1,0
478,144,70152,1,2
294,267,70344,1,2
294,267,70729,2,0,B|273:349,2,80,2|2|2
235,97,71306,6,0,B|163:49|74:68,1,160,2|2
89,146,71883,1,2
136,299,72267,1,2
235,173,72652,1,2
84,225,73036,5,2
164,224,73229,1,2
216,283,73421,2,0,B|288:331|377:312,1,160,2|0
443,284,73998,1,0
256,192,74383,12,0,75921
